osu file format v14

[General]
AudioFilename: audio.mp3
AudioLeadIn: 0
PreviewTime: 168217
Countdown: 0
SampleSet: Soft
StackLeniency: 0.7
Mode: 0
LetterboxInBreaks: 0
WidescreenStoryboard: 1

[Editor]
Bookmarks: 70422,153571,183926,261878
DistanceSpacing: 1.2
BeatDivisor: 4
GridSize: 32
TimelineZoom: 3.799999

[Metadata]
Title:secret deep blue
TitleUnicode:secret deep blue
Artist:Nakae Mitsuki
ArtistUnicode:中恵光城
Creator:Deca
Version:zenith
Source:カスタムオーダーメイド3D2
Tags:sdb silky kanau fuyuyu- kowari shizuku- shikibe mayu kazato asa lasse brasse EPiDOTE eroge hentai video game one custom order maid 3d 2 it's a night magic best works album japanese rock masaru teramae tokunan 寺前 甲 Shigetoshi Yamada 山田 重利
BeatmapID:2984909
BeatmapSetID:1451629

[Difficulty]
HPDrainRate:6
CircleSize:4
OverallDifficulty:9.5
ApproachRate:9.6
SliderMultiplier:3.1
SliderTickRate:1

[Events]
//Background and Video events
0,0,"81678024_p0.jpg",0,0
//Break Periods
//Storyboard Layer 0 (Background)
//Storyboard Layer 1 (Fail)
//Storyboard Layer 2 (Pass)
//Storyboard Layer 3 (Foreground)
//Storyboard Layer 4 (Overlay)
//Storyboard Sound Samples

[TimingPoints]
619,472.44094488189,4,2,34,50,1,0
2508,-100,4,2,34,55,0,0
3453,-100,4,2,34,60,0,0
4044,-133.333333333333,4,2,34,55,0,0
4398,-90.9090909090909,4,2,34,65,0,0
15737,-90.9090909090909,4,2,34,60,0,0
17626,-90.9090909090909,4,2,34,65,0,0
19044,-90.9090909090909,4,2,34,60,0,0
19280,-133.333333333333,4,2,34,55,0,0
19516,-133.333333333333,4,2,34,40,0,0
19634,-133.333333333333,4,2,34,20,0,0
20343,-133.333333333333,4,2,34,25,0,0
20461,-133.333333333333,4,2,34,50,0,0
20697,-100,4,2,34,55,0,0
21288,-133.333333333333,4,2,34,50,0,0
21406,-133.333333333333,4,2,34,55,0,0
34398,-181.818181818181,4,2,34,55,0,0
34634,-181.818181818181,4,2,34,20,0,0
34870,-181.818181818181,4,2,34,40,0,0
35107,-181.818181818181,4,2,34,30,0,0
35343,-181.818181818181,4,2,34,50,0,0
35579,-100,4,2,34,50,0,0
36465,-100,4,2,34,5,0,0
36524,-90.9090909090909,4,2,34,55,0,0
36996,-133.333333333333,4,2,34,55,0,0
49516,-100,4,2,34,55,0,0
49575,-100,4,2,34,20,0,0
49989,-100,4,2,34,50,0,0
50343,-117.647058823529,4,2,34,50,0,0
50697,-117.647058823529,4,2,34,55,0,0
51170,-100,4,2,34,60,0,0
51642,-90.9090909090909,4,2,34,65,0,0
52469,-90.9090909090909,4,2,34,60,0,0
53473,-90.9090909090909,4,2,34,5,0,0
53532,-90.9090909090909,4,2,34,65,0,0
55422,-90.9090909090909,4,2,34,50,0,0
56367,-133.333333333333,4,2,34,50,0,0
59201,-100,4,2,34,55,0,0
62981,-100,4,2,34,60,0,0
66996,-100,4,2,34,45,0,0
67115,-133.333333333333,4,2,34,45,0,0
68532,-166.666666666667,4,2,34,60,0,0
69831,-166.666666666667,4,2,34,50,0,0
70067,-71.4285714285714,4,2,34,60,0,0
70185,-133.333333333333,4,2,34,60,0,0
70422,-90.9090909090909,4,2,34,70,0,0
71130,-105.263157894737,4,2,34,70,0,0
71367,-90.9090909090909,4,2,34,70,0,0
72666,-90.9090909090909,4,2,34,70,0,0
74083,-90.9090909090909,4,2,34,70,0,0
74674,-86.9565217391304,4,2,34,70,0,0
75619,-80,4,2,34,70,0,0
75973,-86.9565217391304,4,2,34,70,0,0
77626,-71.4285714285714,4,2,34,70,0,0
77744,-133.333333333333,4,2,34,70,0,0
77981,-90.9090909090909,4,2,34,70,0,0
79752,-86.9565217391304,4,2,34,70,0,0
79989,-90.9090909090909,4,2,34,70,0,0
83178,-83.3333333333333,4,2,34,70,0,0
84477,-80,4,2,34,70,0,0
85185,-71.4285714285714,4,2,34,70,0,0
85304,-133.333333333333,4,2,34,70,0,0
85540,-83.3333333333333,4,2,34,70,0,0
85894,-90.9090909090909,4,2,34,70,0,0
90146,-83.3333333333333,4,2,34,70,0,0
91327,-80,4,2,34,70,0,0
92154,-90.9090909090909,4,2,34,70,0,0
92744,-71.4285714285714,4,2,34,70,0,0
92862,-133.333333333333,4,2,34,70,0,0
93099,-86.9565217391303,4,2,34,70,0,0
95933,-90.9090909090909,4,2,34,70,0,0
96996,-86.9565217391304,4,2,34,70,0,0
97941,-80,4,2,34,70,0,0
98178,-90.9090909090909,4,2,34,70,0,0
98768,-71.4285714285714,4,2,34,70,0,0
98886,-90.9090909090909,4,2,34,70,0,0
100422,-133.333333333333,4,2,34,70,0,0
100776,-181.818181818181,4,2,34,50,0,0
100894,-181.818181818181,4,2,34,20,0,0
102193,-181.818181818181,4,2,34,40,0,0
102666,-181.818181818181,4,2,34,50,0,0
103493,-181.818181818181,4,2,34,60,0,0
103611,-100,4,2,34,60,0,0
104556,-90.9090909090909,4,2,34,65,0,0
109989,-83.3333333333333,4,2,34,65,0,0
110461,-100,4,2,34,65,0,0
115894,-133.333333333333,4,2,34,55,0,0
118493,-100,4,2,34,60,0,0
120855,-100,4,2,34,65,0,0
123453,-133.333333333333,4,2,34,55,0,0
132666,-100,4,2,34,55,0,0
132725,-100,4,2,34,20,0,0
133138,-100,4,2,34,50,0,0
133493,-117.647058823529,4,2,34,50,0,0
133847,-117.647058823529,4,2,34,55,0,0
134319,-100,4,2,34,60,0,0
134792,-90.9090909090909,4,2,34,65,0,0
135619,-90.9090909090909,4,2,34,60,0,0
136622,-90.9090909090909,4,2,34,5,0,0
136681,-90.9090909090909,4,2,34,65,0,0
138571,-133.333333333333,4,2,34,50,0,0
140697,-200,4,2,34,50,0,0
141091,-133.333333333333,4,2,34,50,0,0
142351,-100,4,2,34,55,0,0
146130,-100,4,2,34,60,0,0
148020,-90.9090909090909,4,2,34,60,0,0
148374,-133.333333333333,4,2,34,60,0,0
148729,-90.9090909090909,4,2,34,60,0,0
149437,-71.4285714285714,4,2,34,60,0,0
149556,-133.333333333333,4,2,34,60,0,0
150146,-133.333333333333,4,2,34,45,0,0
151681,-133.333333333333,4,2,34,60,0,0
152981,-133.333333333333,4,2,34,50,0,0
153217,-71.4285714285714,4,2,34,60,0,0
153335,-133.333333333333,4,2,34,60,0,0
153571,-90.9090909090909,4,2,34,70,0,0
158414,-80,4,2,34,70,0,0
159122,-100,4,2,34,70,0,0
159359,-86.9565217391304,4,2,34,70,0,0
160185,-80,4,2,34,70,0,0
160776,-71.4285714285714,4,2,34,70,0,0
160894,-133.333333333333,4,2,34,70,0,0
161130,-90.9090909090909,4,2,34,70,0,0
165973,-83.3333333333333,4,2,34,70,0,0
166327,-80,4,2,34,70,0,0
167626,-90.9090909090909,4,2,34,70,0,0
168335,-71.4285714285714,4,2,34,70,0,0
168453,-133.333333333333,4,2,34,70,0,0
168689,-90.9090909090909,4,2,34,70,0,0
170697,-100,4,2,34,70,0,0
171524,-90.9090909090909,4,2,34,70,0,0
174004,-83.3333333333333,4,2,34,70,0,0
174241,-100,4,2,34,70,0,0
174477,-80,4,2,34,70,0,0
175894,-71.4285714285714,4,2,34,70,0,0
176012,-133.333333333333,4,2,34,70,0,0
176248,-90.9090909090909,4,2,34,70,0,0
182036,-90.9090909090909,4,2,34,65,0,0
182154,-222.222222222221,4,2,34,30,0,0
182981,-200,4,2,34,30,0,0
183571,-200,4,2,34,40,0,0
197863,-100,4,2,34,55,0,0
198099,-100,4,2,34,60,0,0
198571,-100,4,2,34,65,0,0
198867,-100,4,2,34,5,0,0
198926,-71.4285714285714,4,2,34,75,0,1
199162,-71.4285714285714,4,2,34,65,0,1
199280,-83.3333333333333,4,2,34,70,0,0
200933,-71.4285714285714,4,2,34,70,0,0
201170,-100,4,2,34,70,0,0
201524,-83.3333333333333,4,2,34,70,0,0
201760,-100,4,2,34,70,0,0
202115,-66.6666666666667,4,2,34,70,0,0
202587,-76.9230769230769,4,2,34,70,0,0
203178,-100,4,2,34,70,0,0
203768,-83.3333333333333,4,2,34,70,0,0
205540,-76.9230769230769,4,2,34,70,0,0
206248,-100,4,2,34,70,0,0
206485,-83.3333333333333,4,2,34,70,0,1
206839,-100,4,2,34,70,0,0
207548,-83.3333333333333,4,2,34,70,0,0
207784,-100,4,2,34,70,0,0
209319,-71.4285714285714,4,2,34,70,0,0
209674,-100,4,2,34,70,0,0
210382,-66.6666666666667,4,2,34,70,0,0
210737,-90.9090909090909,4,2,34,70,0,0
211327,-100,4,2,34,70,0,0
212272,-83.3333333333333,4,2,34,70,0,0
213453,-100,4,2,34,70,0,0
215579,-71.4285714285714,4,2,34,70,0,0
215697,-133.333333333333,4,2,34,70,0,0
215933,-83.3333333333333,4,2,34,70,0,0
216288,-90.9090909090909,4,2,34,70,0,0
217941,-86.9565217391304,4,2,34,70,0,0
218178,-90.9090909090909,4,2,34,70,0,0
221721,-83.3333333333333,4,2,34,70,0,0
221957,-100,4,2,34,70,0,0
222548,-83.3333333333333,4,2,34,70,0,0
223138,-71.4285714285714,4,2,34,70,0,0
223256,-133.333333333333,4,2,34,70,0,0
223493,-80,4,2,34,70,0,0
224083,-90.9090909090909,4,2,34,70,0,0
228689,-83.3333333333333,4,2,34,70,0,0
229634,-100,4,2,34,70,0,0
229989,-83.3333333333333,4,2,34,70,0,0
230697,-71.4285714285714,4,2,34,70,0,0
230815,-133.333333333333,4,2,34,70,0,0
231052,-90.9090909090909,4,2,34,70,0,0
236839,-80,4,2,34,70,0,0
237075,-100,4,2,34,70,0,0
237666,-80,4,2,34,70,0,0
238256,-71.4285714285714,4,2,34,70,0,0
238374,-133.333333333333,4,2,34,70,0,0
238611,-90.9090909090909,4,2,34,70,0,0
245933,-133.333333333333,4,2,34,70,0,0
246288,-181.818181818181,4,2,34,50,0,0
246406,-181.818181818181,4,2,34,20,0,0
247705,-181.818181818181,4,2,34,30,0,0
247941,-181.818181818181,4,2,34,40,0,0
248178,-181.818181818181,4,2,34,50,0,0
250894,-181.818181818181,4,2,34,55,0,0
251012,-181.818181818181,4,2,34,60,0,0
251248,-100,4,2,34,60,0,0
251957,-100,4,2,34,70,0,1
253847,-71.4285714285714,4,2,34,70,0,1
254083,-100,4,2,34,70,0,1
254319,-80,4,2,34,70,0,1
254556,-66.6666666666667,4,2,34,70,0,1
255028,-90.9090909090909,4,2,34,70,0,1
257626,-66.6666666666667,4,2,34,70,0,1
257863,-76.9230769230769,4,2,34,70,0,1
260225,-90.9090909090909,4,2,34,70,0,1
265185,-66.6666666666667,4,2,34,70,0,1
265894,-90.9090909090909,4,2,34,70,0,1
266130,-90.9090909090909,4,2,34,65,0,1
267075,-90.9090909090909,4,2,34,70,0,1
269910,-66.6666666666667,4,2,34,70,0,1
270146,-83.3333333333333,4,2,34,70,0,1
270382,-66.6666666666667,4,2,34,70,0,1
270500,-100,4,2,34,70,0,1
270855,-76.9230769230769,4,2,34,70,0,1
273217,-66.6666666666667,4,2,34,70,0,1
273571,-83.3333333333333,4,2,34,70,0,1
273926,-90.9090909090909,4,2,34,70,0,1
274162,-71.4285714285714,4,2,34,70,0,1
274280,-133.333333333333,4,2,34,70,0,0
274457,-79.9999999999999,4,2,34,70,0,1
274870,-86.9565217391304,4,2,34,70,0,1
276524,-74.0740740740741,4,2,34,70,0,1
276996,-86.9565217391304,4,2,34,70,0,1
278414,-80,4,2,34,70,0,1
280067,-95.2380952380952,4,2,34,70,0,1
280304,-74.0740740740741,4,2,34,75,0,1
281839,-133.333333333333,4,2,34,75,0,1
282636,576.923076923077,4,2,34,50,1,0
282830,472.44094488189,4,2,34,50,1,0
282830,-250,4,2,34,50,0,0
282889,-250,4,2,34,40,0,0
284719,-250,4,2,34,30,0,0
286609,-250,4,2,34,20,0,0
288499,-250,4,2,34,10,0,0
289916,-250,4,2,35,20,0,0

[Colours]
Combo1 : 255,128,192
Combo2 : 223,128,255
Combo3 : 128,128,255
Combo4 : 255,128,128

[HitObjects]
214,270,619,5,0,1:2:0:0:
236,241,1091,1,0,1:2:0:0:
189,207,1563,1,0,1:2:0:0:
254,153,2036,1,0,1:2:0:0:
177,159,2508,6,0,L|97:187,1,77.5,4|0,1:2|0:0,0:2:0:0:
199,274,2744,1,0,3:2:0:0:
199,274,2804,1,0,3:2:0:0:
199,274,2863,2,0,L|175:326,1,38.75,0|0,3:2|3:2,0:0:0:0:
269,338,2981,1,0,3:2:0:0:
297,231,3099,2,0,L|266:147,1,77.5,0|0,1:2|0:0,2:2:0:0:
250,0,3335,5,0,1:2:0:0:
329,52,3453,1,8,0:3:0:0:
204,102,3571,1,0,0:0:0:0:
363,147,3689,2,0,L|452:175,1,77.5,4|0,0:3|0:0,0:0:0:0:
449,57,3867,1,0,0:0:0:0:
449,57,3926,2,0,L|462:108,1,38.75,8|0,0:2|0:0,0:2:0:0:
512,191,4044,2,0,P|495:240|491:270,1,58.1250022172929,8|0,2:3|0:0,0:0:0:0:
422,309,4398,6,2,B|337:285|356:351|251:315,1,170.500005203247,4|0,1:1|0:2,0:1:0:0:
358,148,4752,2,0,L|271:113,1,85.2500026016236,2|8,1:1|0:2,0:2:0:0:
278,116,5107,2,2,B|218:145|218:145|294:232,1,170.500005203247,2|0,1:2|0:2,0:1:0:0:
65,183,5461,1,8,0:2:0:0:
175,233,5579,2,0,P|126:245|87:271,1,85.2500026016236,2|0,1:1|0:0,0:0:0:0:
140,152,5815,2,0,L|109:68,1,85.2500026016236,10|0,0:1|0:0,0:0:0:0:
343,153,6052,6,2,B|428:142|407:203|520:175,1,170.500005203247,4|0,1:2|0:0,0:1:0:0:
405,303,6406,1,0,0:2:0:0:
300,273,6524,2,2,P|324:244|383:237,1,85.2500026016236,0|0,1:2|0:2,0:1:0:0:
407,381,6760,2,2,P|364:386|329:362,1,85.2500026016236,8|0,0:2|0:2,0:1:0:0:
228,151,6996,1,2,1:2:0:0:
191,217,7115,2,2,L|228:398,1,170.500005203247,2|8,0:1|0:2,0:1:0:0:
122,299,7469,2,0,L|33:273,1,85.2500026016236,0|0,1:2|0:0,0:0:0:0:
58,119,7705,5,8,0:2:0:0:
172,66,7823,1,8,0:2:0:0:
30,27,7941,1,8,0:3:0:0:
127,151,8059,1,0,0:0:0:0:
292,124,8178,6,2,B|275:79|275:79|236:66|236:66|200:-23,1,170.500005203247,2|0,1:1|0:2,0:1:0:0:
219,181,8532,2,0,P|202:235|207:267,1,85.2500026016236,2|8,1:1|0:2,0:2:0:0:
205,262,8886,2,2,P|153:274|166:375,1,170.500005203247,2|0,1:2|0:2,0:1:0:0:
318,293,9241,1,8,0:2:0:0:
417,244,9359,2,0,L|318:207,1,85.2500026016236,2|0,1:1|0:0,0:0:0:0:
352,372,9595,2,0,L|459:335,1,85.2500026016236,10|0,0:1|0:0,0:0:0:0:
474,158,9831,6,2,B|459:71|396:114|382:4,1,170.500005203247,4|0,1:2|0:2,0:1:0:0:
464,18,10185,1,8,0:2:0:0:
269,163,10303,2,0,P|201:186|176:198,1,85.2500026016236,0|0,1:2|0:0,0:0:0:0:
290,0,10540,2,0,P|301:56|317:103,1,85.2500026016236,10|0,0:1|0:0,0:0:0:0:
395,264,10776,5,2,1:1:0:0:
310,239,10894,1,8,0:2:0:0:
456,170,11012,5,2,1:1:0:0:
322,329,11130,1,8,0:2:0:0:
493,250,11248,5,2,1:1:0:0:
354,166,11367,1,8,0:2:0:0:
218,298,11485,5,2,1:1:0:0:
392,244,11603,1,8,0:2:0:0:
243,109,11721,5,2,1:2:0:0:
283,198,11839,1,8,0:3:0:0:
158,241,11957,6,2,B|74:223|96:296|-11:255,1,170.500005203247,4|0,1:2|1:2,2:1:0:0:
171,160,12311,2,2,P|133:146|91:118,1,85.2500026016236,2|8,0:1|0:1,0:2:0:0:
95,121,12666,2,2,P|91:66|189:51,1,170.500005203247,2|0,0:2|1:2,0:1:0:0:
283,165,13020,1,8,0:2:0:0:
345,117,13138,2,0,P|317:91|262:84,1,85.2500026016236,2|0,0:1|0:0,0:0:0:0:
235,252,13374,2,0,P|280:259|319:244,1,85.2500026016236,10|0,0:1|0:0,0:0:0:0:
409,0,13611,6,2,B|422:52|422:52|458:74|458:74|477:160,1,170.500005203247,4|0,1:2|0:0,0:1:0:0:
354,310,13965,1,0,0:2:0:0:
426,264,14083,2,2,L|520:306,1,85.2500026016236,0|0,1:1|0:2,0:1:0:0:
464,364,14319,2,2,L|363:386,1,85.2500026016236,8|0,0:2|0:2,0:1:0:0:
258,209,14556,1,2,1:2:0:0:
190,262,14674,2,2,P|133:266|122:186,1,127.875003902435,2|0,0:1|0:0,0:1:0:0:
45,173,14910,1,8,0:2:0:0:
58,310,15028,2,0,P|15:319|-17:291,1,85.2500026016236,0|0,1:2|0:0,0:0:0:0:
134,369,15264,5,8,0:2:0:0:
263,312,15382,1,8,0:2:0:0:
346,343,15500,5,8,0:3:0:0:
471,384,15619,1,0,0:0:0:0:
360,267,15737,6,2,P|342:211|325:89,1,170.500005203247,0|0,1:2|1:2,0:1:0:0:
171,95,16091,2,0,P|185:58|191:-4,1,85.2500026016236,2|8,0:1|0:2,0:2:0:0:
191,12,16445,2,2,B|237:-1|237:-1|286:36|286:36|367:13,1,170.500005203247,2|0,1:2|1:2,0:1:0:0:
95,49,16800,1,8,0:2:0:0:
206,204,16918,2,2,P|165:193|114:199,1,85.2500026016236,2|0,0:2|0:2,0:1:0:0:
253,126,17154,1,10,0:2:0:0:
425,68,17272,2,2,P|420:140|322:140,1,170.500005203247,2|0,1:1|0:2,0:1:0:0:
236,364,17626,6,2,B|281:351|281:351|316:373|316:373|409:344,1,170.500005203247,6|0,1:1|0:2,0:1:0:0:
429,155,17981,2,0,L|509:182,1,85.2500026016236,10|0,0:1|0:2,0:2:0:0:
509,182,18335,2,2,B|454:201|454:201|432:252|432:252|353:278,1,170.500005203247,0|0,1:2|3:2,0:1:0:0:
378,269,18630,1,0,3:2:0:0:
378,269,18689,2,0,L|351:208,1,42.6250013008118,0|0,3:2|3:2,0:0:0:0:
228,203,18807,1,0,3:2:0:0:
311,88,19044,6,2,P|271:120|184:103,1,127.875003902435,10|0,0:1|0:0,0:1:0:0:
102,89,19280,2,0,L|134:156,1,58.1250022172929,0|0,1:3|0:0,0:0:0:0:
95,216,19516,5,2,0:2:0:0:
256,192,19575,12,8,20461,0:3:0:0:
162,334,20697,6,0,L|242:310,1,77.5,8|0,0:2|0:0,0:0:0:0:
113,236,20933,1,8,0:3:0:0:
201,214,21052,2,0,L|278:243,1,77.5,8|2,0:2|1:2,0:0:0:0:
173,125,21288,1,0,0:2:0:0:
294,168,21406,6,2,P|343:175|388:112,1,116.250004434586,4|0,1:2|0:2,0:1:0:0:
482,229,21760,1,0,1:2:0:0:
405,226,21878,2,0,L|441:353,1,116.250004434586,8|0,0:2|0:2,0:2:0:0:
339,303,22233,2,0,P|303:292|258:297,1,58.1250022172929,10|0,0:2|0:0,0:2:0:0:
218,349,22587,2,0,P|186:331|142:337,1,58.1250022172929,0|0,1:2|0:0,0:0:0:0:
180,128,22823,2,0,B|259:177|259:177|196:242,1,174.375006651879,10|2,0:2|0:2,0:2:0:0:
115,255,23296,2,0,L|104:194,1,58.1250022172929,0|0,1:2|0:0,0:0:0:0:
332,78,23532,5,2,0:2:0:0:
260,118,23650,1,0,1:2:0:0:
374,163,23768,2,0,L|440:186,1,58.1250022172929,8|2,0:2|1:2,0:0:0:0:
335,246,24004,2,0,L|316:197,2,29.0625011086464,0|0|8,0:0|0:0|0:2,0:0:0:0:
269,334,24241,5,2,0:2:0:0:
385,306,24359,2,0,B|447:293|432:324|506:300,1,116.250004434586,8|2,0:2|0:2,0:0:0:0:
467,168,24713,2,0,L|398:191,1,58.1250022172929,8|0,0:2|0:0,0:2:0:0:
320,86,24949,2,0,L|391:111,1,58.1250022172929,0|0,0:2|0:0,0:0:0:0:
257,157,25185,6,0,P|200:160|179:220,1,116.250004434586,2|0,1:2|0:2,0:2:0:0:
285,237,25540,1,0,1:2:0:0:
85,226,25658,2,0,P|48:269|-14:259,1,116.250004434586,8|0,0:2|0:2,0:2:0:0:
30,165,26012,2,0,L|41:108,2,58.1250022172929,10|0|8,0:2|0:0|0:2,0:2:0:0:
96,43,26367,2,0,L|121:107,1,58.1250022172929,2|0,1:2|0:2,0:2:0:0:
352,142,26603,6,0,L|294:123,1,58.1250022172929,8|0,0:2|0:2,0:2:0:0:
252,200,26839,1,0,0:2:0:0:
187,234,26957,1,0,0:2:0:0:
219,104,27075,2,0,B|235:61|235:61|288:45|288:45|307:-4,1,145.312505543232,2|0,1:2|0:0,0:2:0:0:
303,3,27430,2,0,L|235:-10,1,58.1250022172929,2|8,0:2|0:2,0:0:0:0:
397,184,27784,5,2,0:2:0:0:
488,155,27902,1,8,0:2:0:0:
373,108,28020,5,2,0:1:0:0:
480,228,28138,1,8,0:2:0:0:
373,108,28256,2,0,P|332:113|307:142,1,58.1250022172929,0|0,0:0|0:2,0:0:0:0:
257,188,28493,2,0,P|216:185|138:240,1,116.250004434586,8|0,0:2|0:2,0:2:0:0:
241,98,28965,6,0,L|225:38,1,58.1250022172929,4|0,1:2|0:0,0:2:0:0:
124,69,29201,2,0,L|165:116,1,58.1250022172929,0|0,0:2|1:2,0:0:0:0:
151,219,29437,2,0,B|111:210|111:210|81:223|81:223|26:211,1,116.250004434586,8|0,0:2|0:2,0:2:0:0:
291,268,29792,1,10,0:2:0:0:
212,291,29910,2,0,P|171:338|195:394,1,116.250004434586,0|2,1:2|1:2,0:2:0:0:
212,168,30382,2,0,L|248:42,1,116.250004434586,10|0,0:2|0:2,0:2:0:0:
154,88,30737,2,0,L|127:17,1,58.1250022172929,2|0,0:2|1:2,0:2:0:0:
323,146,31091,6,0,P|364:137|385:144,1,58.1250022172929,2|0,0:2|1:2,0:2:0:0:
456,94,31327,2,0,P|489:102|516:136,1,58.1250022172929,10|0,0:2|0:2,0:2:0:0:
420,203,31563,1,2,0:2:0:0:
357,255,31681,2,0,L|291:234,1,58.1250022172929,8|0,0:2|0:2,0:2:0:0:
256,60,31918,1,10,0:2:0:0:
207,127,32036,2,0,P|226:212|231:260,1,116.250004434586,0|8,1:2|0:2,0:2:0:0:
112,214,32508,2,0,L|168:198,1,58.1250022172929,2|0,0:2|0:2,0:2:0:0:
119,4,32744,6,0,P|80:2|54:86,1,116.250004434586,2|0,1:2|0:2,0:2:0:0:
169,65,33099,1,2,1:2:0:0:
94,124,33217,2,0,P|133:126|159:42,1,116.250004434586,8|2,0:2|2:2,0:0:0:0:
241,104,33571,1,8,0:2:0:0:
315,221,33689,2,0,B|381:203|359:236|451:207,1,116.250004434586,2|0,1:2|0:2,0:2:0:0:
487,314,34044,2,0,L|422:299,1,58.1250022172929,2|8,1:2|0:2,0:2:0:0:
360,341,34280,1,0,1:2:0:0:
393,123,34398,6,0,P|422:42|429:-6,1,127.875003902435,4|0,1:2|0:0,0:2:0:0:
512,58,34870,2,0,L|503:11,1,42.6250013008118
241,80,35343,6,0,L|289:66,1,42.6250013008118,8|0,0:2|0:0,0:0:0:0:
251,207,35579,1,2,1:2:0:0:
156,171,35697,1,8,0:2:0:0:
306,148,35815,2,0,L|384:167,1,77.5,0|0,1:2|1:2,0:2:0:0:
315,303,36052,5,10,0:2:0:0:
454,200,36170,1,8,0:2:0:0:
315,303,36288,2,0,P|252:326|224:342,1,77.5,2|0,1:2|0:0,0:2:0:0:
94,288,36524,6,2,B|15:227|15:227|126:239,1,170.500005203247,4|0,1:2|0:2,0:1:0:0:
179,288,36878,1,0,1:2:0:0:
125,147,36996,2,0,P|113:127|170:54,1,116.250004434586,8|0,0:2|0:2,0:2:0:0:
219,143,37351,1,10,0:2:0:0:
219,143,37469,2,0,L|203:210,1,58.1250022172929,0|8,0:0|0:2,0:0:0:0:
299,263,37705,2,0,L|284:201,1,58.1250022172929,0|0,1:2|0:0,0:0:0:0:
401,95,37941,6,0,L|521:130,1,116.250004434586,10|0,0:2|0:2,0:2:0:0:
409,176,38296,2,0,L|369:236,2,58.1250022172929,2|0|0,0:2|1:2|0:0,0:2:0:0:
412,360,38650,2,0,P|374:338|338:345,1,58.1250022172929,2|0,0:2|1:2,0:2:0:0:
311,275,38886,2,0,P|266:263|201:286,1,116.250004434586,8|0,0:2|0:0,0:0:0:0:
192,361,39241,1,8,0:2:0:0:
82,283,39359,1,2,0:2:0:0:
156,218,39477,1,8,0:2:0:0:
82,283,39595,2,0,L|18:309,1,58.1250022172929,0|2,0:3|0:2,0:0:0:0:
83,168,39831,2,0,B|95:121|95:121|140:105|140:105|162:15,1,174.375006651879,8|0,0:2|0:0,0:2:0:0:
277,165,40304,6,0,B|364:148|347:209|468:168,1,174.375006651879,2|0,1:2|1:0,0:2:0:0:
320,251,40776,2,0,P|269:275|216:267,1,58.1250022172929,8|0,0:2|0:0,0:2:0:0:
173,243,41012,5,0,0:2:0:0:
190,169,41130,1,10,0:2:0:0:
115,182,41248,1,0,0:0:0:0:
187,94,41367,1,8,0:2:0:0:
121,51,41485,2,0,L|61:35,1,58.1250022172929,2|0,1:2|0:2,0:2:0:0:
316,152,41721,6,0,B|375:137|375:137|380:132|380:132|373:71,1,116.250004434586,8|0,0:2|1:2,0:2:0:0:
350,7,42075,1,0,0:2:0:0:
278,18,42193,2,0,L|302:87,1,58.1250022172929,2|0,2:2|0:0,0:2:0:0:
223,221,42430,2,0,L|233:147,1,58.1250022172929,0|2,1:2|0:2,0:0:0:0:
370,218,42666,6,0,P|416:250|383:314,1,116.250004434586,8|2,0:2|0:2,0:2:0:0:
335,345,43020,1,8,0:2:0:0:
469,374,43138,1,2,0:1:0:0:
335,345,43256,1,8,0:2:0:0:
256,381,43374,2,0,P|232:356|226:323,1,58.1250022172929,0|0,0:0|0:2,0:0:0:0:
150,314,43611,2,0,P|132:277|144:203,1,116.250004434586,8|0,0:2|0:2,0:2:0:0:
304,88,44083,6,0,B|390:64|378:130|479:92,1,174.375006651879,4|0,1:2|1:2,0:2:0:0:
330,198,44556,1,8,0:2:0:0:
450,179,44674,1,0,0:0:0:0:
386,252,44792,2,0,L|364:313,1,58.1250022172929,0|10,0:2|0:2,0:0:0:0:
237,252,45028,2,0,P|272:268|294:288,2,58.1250022172929,0|8|2,1:2|0:2|1:2,0:2:0:0:
231,176,45382,1,0,0:2:0:0:
83,363,45500,6,0,P|108:331|197:330,1,116.250004434586,10|0,0:2|0:2,0:2:0:0:
179,320,45855,2,0,P|157:279|157:243,1,58.1250022172929,2|0,0:2|1:2,0:2:0:0:
152,92,46209,5,2,0:2:0:0:
110,161,46327,1,0,1:2:0:0:
231,176,46445,2,0,P|263:147|228:76,1,116.250004434586,10|2,0:2|0:2,0:2:0:0:
359,147,46800,2,0,L|425:131,1,58.1250022172929,8|0,0:2|0:2,0:2:0:0:
374,222,47036,1,10,0:2:0:0:
466,197,47154,2,0,L|531:215,1,58.1250022172929,0|0,1:2|0:0,0:2:0:0:
385,312,47390,2,0,B|328:302|335:336|250:312,1,116.250004434586,8|2,0:2|0:2,0:0:0:0:
201,260,47744,1,0,0:2:0:0:
250,132,47863,6,0,P|279:181|273:243,1,116.250004434586,2|0,1:2|0:2,0:2:0:0:
271,318,48217,1,2,1:2:0:0:
146,326,48335,2,0,P|121:295|118:266,1,58.1250022172929,8|0,0:2|0:0,0:0:0:0:
63,216,48571,1,2,1:2:0:0:
63,216,48689,2,0,L|-4:235,1,58.1250022172929,8|0,0:0|0:0,0:0:0:0:
87,125,48926,2,0,L|25:100,1,58.1250022172929,8|0,0:0|0:0,0:0:0:0:
155,198,49162,1,0,1:2:0:0:
208,61,49280,2,0,L|172:122,1,58.1250022172929,8|0,0:0|1:2,0:0:0:0:
391,268,49516,6,0,P|437:259|463:364,1,155,4|0,1:2|0:0,0:2:0:0:
409,374,49870,1,0,0:0:0:0:
300,268,49989,2,0,L|314:224,3,38.75,0|0|0|0,3:2|3:2|3:2|3:2,0:0:0:0:
390,164,50225,1,12,2:2:0:0:
300,268,50343,2,0,P|280:197|315:147,1,131.750002512932,0|0,0:0|1:2,0:0:0:0:
420,60,50697,5,8,0:3:0:0:
314,22,50815,1,0,0:0:0:0:
272,89,50933,5,4,0:3:0:0:
191,121,51052,1,0,0:0:0:0:
58,18,51170,6,0,P|106:34|142:68,1,77.5,12|8,0:2|0:3,0:2:0:0:
81,172,51406,1,8,0:2:0:0:
81,172,51465,2,0,P|108:217|110:254,1,77.5,0|0,3:3|0:0,0:0:0:0:
197,234,51642,2,2,B|271:209|256:267|354:226,1,127.875003902435,4|0,1:1|0:0,0:1:0:0:
388,274,51878,1,0,1:2:0:0:
434,159,51996,2,2,P|396:137|342:151,1,85.2500026016236,12|0,0:2|0:2,0:1:0:0:
293,78,52233,2,2,P|248:84|219:126,1,85.2500026016236,8|0,0:2|0:2,0:1:0:0:
35,56,52469,2,0,P|76:121|72:200,1,127.875003902435,4|0,1:2|0:0,0:2:0:0:
80,171,52705,2,0,P|23:181|-23:192,1,85.2500026016236,0|0,1:2|0:0,0:0:0:0:
144,247,52941,5,0,1:2:0:0:
269,301,53059,1,8,0:2:0:0:
118,365,53178,1,8,0:2:0:0:
269,301,53296,2,0,P|313:292|354:291,1,85.2500026016236,2|0,1:2|0:0,0:2:0:0:
242,197,53532,6,0,B|259:153|291:144|291:144|253:170|269:217,1,127.875003902435,2|0,1:2|0:0,0:2:0:0:
361,206,53768,1,0,3:2:0:0:
361,206,53827,1,0,3:2:0:0:
361,206,53886,2,0,L|410:219,2,42.6250013008118,0|0|0,3:2|3:2|3:2,0:0:0:0:
419,131,54122,2,0,L|511:108,1,85.2500026016236,8|0,0:3|0:2,0:2:0:0:
347,2,54359,2,0,B|372:63|372:63|248:43,1,170.500005203247,2|8,1:2|0:2,0:2:0:0:
165,4,54713,2,0,P|188:58|192:101,1,85.2500026016236,0|0,0:0|1:2,0:0:0:0:
123,150,54949,1,8,0:2:0:0:
277,136,55067,2,0,P|274:183|247:216,1,85.2500026016236,8|8,0:2|0:3,0:0:0:0:
0,288,55343,5,0,0:0:0:0:
0,288,55422,1,6,1:2:0:0:
93,383,55579,1,0,0:0:0:0:
93,383,55658,1,0,0:2:0:0:
173,310,55815,1,0,0:0:0:0:
173,310,55894,1,2,0:2:0:0:
262,375,56052,1,0,0:2:0:0:
262,375,56130,1,0,0:0:0:0:
334,314,56288,5,10,0:2:0:0:
334,314,56367,2,0,P|305:266|310:217,1,77.5000029563905,0|0,0:0|0:2,0:0:0:0:
374,197,56603,2,0,P|403:245|398:294,1,77.5000029563905,2|0,0:2|0:0,0:0:0:0:
423,357,56839,5,2,0:2:0:0:
502,271,56996,1,8,0:2:0:0:
502,271,57075,1,0,0:0:0:0:
449,144,57233,1,10,0:2:0:0:
449,144,57311,2,0,L|367:115,1,77.5000029563905
337,57,57548,1,0,0:2:0:0:
225,202,57705,5,0,0:0:0:0:
225,202,57784,2,0,B|257:191|257:191|293:206|293:206|365:183,1,116.250004434586,10|0,0:2|0:2,0:2:0:0:
301,304,58138,2,0,B|269:293|269:293|233:308|233:308|161:285,1,116.250004434586,2|0,1:2|0:0,0:2:0:0:
127,248,58493,1,2,0:2:0:0:
166,101,58650,5,8,0:2:0:0:
166,101,58729,1,8,2:3:0:0:
64,191,58847,1,8,0:2:0:0:
80,75,58965,2,0,L|102:0,1,58.1250022172929
217,164,59201,6,0,B|282:155|275:194|360:180,1,116.25,4|0,1:1|0:0,0:0:0:0:
330,183,59437,2,0,P|310:143|317:89,1,77.5,10|0,0:2|0:2,0:2:0:0:
405,125,59674,1,2,0:2:0:0:
451,52,59792,2,0,P|480:85|487:127,1,77.5,0|8,1:2|0:2,0:2:0:0:
411,257,60028,5,2,0:2:0:0:
411,257,60087,1,0,0:0:0:0:
411,257,60146,2,0,P|368:283|295:252,1,116.25,0|0,1:2|0:0,0:2:0:0:
307,266,60382,2,0,P|346:310|336:358,1,77.5,10|0,0:2|1:2,0:2:0:0:
148,360,60619,1,2,0:2:0:0:
201,302,60737,1,0,1:2:0:0:
85,207,60855,2,0,L|113:293,1,77.5,10|0,0:2|0:2,0:2:0:0:
255,185,61091,6,0,B|304:172|304:172|348:184|348:184|421:160,1,155,2|8,1:2|0:2,0:2:0:0:
279,22,61445,2,0,P|258:90|246:114,1,77.5,2|0,0:2|0:0,2:2:0:0:
168,174,61681,1,0,1:2:0:0:
83,126,61800,1,8,0:2:0:0:
127,51,61918,1,0,0:2:0:0:
255,185,62036,6,0,P|264:262|203:309,1,155,2|8,1:2|0:2,0:2:0:0:
122,296,62390,2,0,P|113:219|174:172,1,155,0|0,1:2|1:2,0:2:0:0:
352,196,62744,2,0,L|434:225,1,77.5,8|0,0:2|0:2,0:2:0:0:
321,94,62981,6,0,L|402:63,1,77.5,2|0,1:2|0:0,0:0:0:0:
182,17,63217,2,0,B|196:97|243:78|253:169,1,155,10|2,0:2|0:2,0:2:0:0:
217,327,63571,1,0,1:2:0:0:
168,185,63689,1,8,0:2:0:0:
354,207,63807,1,2,0:2:0:0:
354,207,63926,2,0,P|298:228|276:264,1,77.5,0|0,1:2|0:2,0:2:0:0:
139,274,64162,2,0,P|97:286|74:337,1,77.5,10|0,0:2|0:2,0:2:0:0:
314,322,64398,1,2,0:2:0:0:
229,78,64516,2,0,L|257:175,1,77.5,0|8,1:2|0:2,0:2:0:0:
418,274,64752,5,8,2:3:0:0:
464,206,64870,2,0,P|483:150|435:66,1,155,6|0,1:2|0:0,0:0:0:0:
352,224,65225,2,0,P|329:276|325:328,1,77.5,8|0,0:2|0:0,0:0:0:0:
249,280,65461,1,8,0:3:0:0:
138,132,65579,2,0,B|218:114|198:172|312:138,1,155,2|0,1:2|3:2,0:0:0:0:
307,130,65874,1,0,3:2:0:0:
306,130,65933,2,0,L|287:85,1,38.75,0|0,3:2|3:2,0:0:0:0:
242,0,66052,1,0,3:2:0:0:
30,230,66288,5,2,1:1:0:0:
94,39,66406,1,8,0:2:0:0:
0,109,66524,5,8,1:2:0:0:
126,169,66642,1,8,0:2:0:0:
294,304,66996,5,2,0:1:0:0:
288,310,67233,2,0,L|253:320,1,29.0625011086464,2|0,0:2|0:0,0:0:0:0:
234,233,67351,2,0,L|251:162,1,58.1250022172929,0|0,0:2|0:0,0:0:0:0:
65,322,67587,2,0,B|125:300|117:337|197:305,1,116.250004434586,2|0,1:2|0:0,0:0:0:0:
135,172,67941,2,0,L|155:230,1,58.1250022172929,10|0,0:2|0:0,0:0:0:0:
323,231,68178,1,2,1:2:0:0:
329,153,68296,2,0,L|319:27,1,116.250004434586,8|6,0:2|1:2,0:0:0:0:
256,192,68591,12,0,69595,0:0:0:0:
2,167,70067,6,0,P|36:146|86:149,1,54.2499983444214,10|0,0:2|0:0,0:0:0:0:
87,78,70185,2,0,P|138:87|154:109,1,58.1250022172929,10|0,0:2|0:0,0:0:0:0:
87,221,70422,6,2,B|180:189|170:269|274:218,1,170.500005203247,4|0,1:1|0:2,0:1:0:0:
407,360,70776,2,0,P|366:356|318:316,1,85.2500026016236,8|0,0:2|1:2,0:2:0:0:
254,359,71012,1,2,0:2:0:0:
412,284,71130,2,0,P|451:276|494:241,1,73.6249980340005,0|8,1:2|0:2,0:2:0:0:
295,82,71367,5,2,0:2:0:0:
244,29,71485,2,0,P|206:29|217:124,1,127.875003902435,0|0,1:0|0:0,0:0:0:0:
136,221,71721,2,0,L|46:197,1,85.2500026016236,8|0,0:2|0:2,0:2:0:0:
132,324,71957,1,2,1:2:0:0:
268,244,72075,1,0,1:2:0:0:
343,314,72193,2,0,P|402:329|440:358,1,85.2500026016236,8|0,0:2|0:2,0:2:0:0:
344,202,72430,6,2,B|364:129|399:180|424:63,1,127.875003902435,2|0,1:2|0:0,0:1:0:0:
414,98,72666,2,0,P|451:87|510:89,1,85.2500026016236,8|0,0:2|0:0,0:0:0:0:
427,244,72902,1,2,1:2:0:0:
243,167,73020,1,0,0:0:0:0:
359,35,73138,1,8,0:2:0:0:
276,257,73256,6,2,L|131:288,1,127.875003902435,2|0,1:2|0:0,0:1:0:0:
93,332,73493,1,0,1:2:0:0:
306,339,73611,2,0,L|394:367,1,85.2500026016236,8|0,0:2|0:0,0:0:0:0:
163,189,73847,2,0,P|143:155|188:87,1,127.875003902435,2|0,1:2|0:0,0:0:0:0:
185,87,74083,2,0,P|128:104|96:78,1,85.2500026016236,8|0,0:2|0:2,0:0:0:0:
24,284,74319,6,0,B|97:271|86:303|165:279,1,127.875003902435,2|0,1:2|0:0,0:2:0:0:
226,311,74556,1,8,0:2:0:0:
413,69,74674,2,0,P|351:61|363:157,1,178.250003399849,2|0,1:2|1:2,0:2:0:0:
349,267,75028,1,8,0:2:0:0:
400,337,75146,1,0,0:2:0:0:
425,193,75264,6,0,P|480:206|522:223,1,89.1250016999245,2|0,1:2|0:0,0:2:0:0:
270,249,75500,1,8,0:2:0:0:
143,130,75619,2,0,B|40:92|40:92|89:204,1,193.75,2|0,0:2|1:2,0:2:0:0:
64,249,75973,2,0,P|-4:273|-33:283,1,89.1250016999245,8|0,0:2|0:0,0:0:0:0:
251,0,76209,6,2,B|263:30|263:30|220:95|220:95|244:148,1,133.687502549887,4|0,1:1|0:0,0:1:0:0:
270,249,76445,2,0,P|278:204|290:151,1,89.1250016999245,8|0,0:2|0:0,0:0:0:0:
329,97,76622,1,0,0:0:0:0:
329,97,76681,1,4,1:2:0:0:
169,213,76800,1,0,0:0:0:0:
358,315,76918,1,8,0:2:0:0:
177,296,77036,6,0,P|110:316|57:341,1,89.1250016999245,4|0,1:1|0:0,0:2:0:0:
13,364,77272,1,8,0:3:0:0:
205,139,77390,5,8,0:2:0:0:
282,339,77508,1,4,1:3:0:0:
47,110,77626,6,0,P|79:135|110:139,1,54.2499983444214,2|0,1:1|0:0,0:0:0:0:
113,218,77744,2,0,P|150:221|180:203,1,58.1250022172929,10|0,1:1|0:0,0:0:0:0:
316,67,77981,6,0,B|332:109|332:109|317:144|317:144|352:245,1,170.500005203247,4|0,1:1|0:2,0:2:0:0:
424,154,78335,1,8,0:2:0:0:
512,202,78453,1,0,1:2:0:0:
345,226,78571,2,0,P|285:241|322:304,1,127.875003902435,2|0,0:2|0:0,0:2:0:0:
219,340,78807,2,0,P|177:348|144:382,1,85.2500026016236,8|0,0:2|0:2,0:2:0:0:
146,99,79044,6,0,P|114:166|159:230,1,127.875003902435,2|0,1:2|0:0,0:2:0:0:
106,284,79280,1,8,0:2:0:0:
285,160,79398,1,2,0:2:0:0:
226,111,79516,1,0,0:0:0:0:
295,294,79634,5,0,1:2:0:0:
366,240,79752,2,0,P|433:225|510:239,1,133.687502549887,8|0,0:2|0:0,0:2:0:0:
458,104,79989,2,0,L|429:196,1,85.2500026016236,2|0,1:2|0:0,0:0:0:0:
305,61,80225,2,0,L|395:32,1,85.2500026016236,8|0,0:2|0:2,0:0:0:0:
354,208,80461,2,0,L|271:150,1,85.2500026016236,2|0,1:2|0:0,0:2:0:0:
370,121,80697,1,8,0:2:0:0:
144,252,80815,6,0,P|92:251|52:153,1,170.500005203247,2|0,1:2|1:2,0:2:0:0:
118,89,81170,2,0,P|184:94|208:201,1,170.500005203247,8|2,0:2|1:2,0:0:0:0:
231,275,81524,1,0,1:2:0:0:
326,377,81642,5,8,0:2:0:0:
159,329,81760,1,0,0:2:0:0:
304,221,81878,2,0,L|401:195,1,85.2500026016236,2|0,1:2|0:0,0:2:0:0:
456,269,82115,1,8,0:2:0:0:
217,182,82233,2,0,B|123:153|149:219|40:177,1,170.500005203247,2|0,1:2|1:2,0:2:0:0:
178,306,82587,5,10,0:0:0:0:
305,132,82705,1,0,0:2:0:0:
326,375,82823,2,0,L|279:289,1,85.2500026016236,2|0,1:2|0:0,0:2:0:0:
379,219,83059,1,8,0:2:0:0:
247,27,83178,2,0,B|167:59|167:59|235:143,1,185.999994323731,2|0,2:2|1:2,0:2:0:0:
131,254,83532,1,10,0:2:0:0:
293,215,83650,1,0,0:2:0:0:
476,365,83768,6,2,P|447:337|351:352,1,139.499995742798,4|0,1:1|0:0,0:1:0:0:
326,375,84004,1,8,0:2:0:0:
90,374,84122,2,2,P|133:353|187:340,1,92.9999971618653,6|0,0:2|0:0,0:1:0:0:
251,308,84300,1,0,0:0:0:0:
263,312,84359,1,0,0:2:0:0:
131,254,84477,2,2,B|120:187|215:189|171:88,1,145.3125,14|0,0:2|0:0,0:1:0:0:
240,46,84713,5,8,0:3:0:0:
299,95,84792,2,0,L|329:167,1,64.5833333333333,8|8,0:3|0:3,0:0:0:0:
85,147,84949,1,4,0:3:0:0:
38,185,85028,2,0,L|14:282,1,64.5833333333333,4|4,0:3|0:3,0:0:0:0:
185,384,85185,6,0,L|173:329,1,54.2499983444214,10|0,0:1|0:0,0:0:0:0:
234,235,85304,2,0,L|254:165,1,58.1250022172929,6|0,1:1|0:0,0:0:0:0:
370,262,85540,6,2,B|463:228|463:228|362:159,1,185.999994323731,4|0,1:1|0:2,0:1:0:0:
445,328,85894,2,0,P|510:357|536:369,1,85.2500026016236,8|0,0:2|1:2,0:2:0:0:
362,362,86130,1,2,0:2:0:0:
185,297,86248,1,0,1:2:0:0:
316,129,86367,1,8,0:2:0:0:
124,222,86485,5,2,0:2:0:0:
124,222,86544,1,0,0:0:0:0:
124,222,86603,2,0,L|32:254,1,85.2500026016236,0|0,1:0|0:2,0:0:0:0:
100,24,86839,2,0,P|40:43|77:112,1,127.875003902435,8|0,0:2|0:0,0:2:0:0:
113,135,87075,2,0,P|156:117|149:55,1,85.2500026016236,2|0,1:2|1:2,0:0:0:0:
272,17,87311,1,8,0:2:0:0:
339,58,87430,1,0,0:2:0:0:
208,173,87548,6,2,B|276:155|263:194|360:161,1,127.875003902435,2|0,1:2|0:0,0:1:0:0:
335,168,87784,2,0,P|380:174|429:202,1,85.2500026016236,8|0,0:2|0:0,0:0:0:0:
406,347,88020,1,2,1:2:0:0:
207,264,88138,1,0,0:0:0:0:
322,382,88256,1,8,0:2:0:0:
94,298,88374,6,2,P|74:255|141:180,1,127.875003902435,2|0,1:2|0:0,0:1:0:0:
181,166,88611,1,0,1:2:0:0:
440,102,88729,2,0,L|343:75,1,85.2500026016236,8|0,0:2|0:0,0:0:0:0:
298,203,88965,2,0,L|386:177,1,85.2500026016236,2|0,1:2|1:2,0:0:0:0:
476,193,89201,1,8,0:2:0:0:
288,117,89319,1,0,0:2:0:0:
385,338,89437,6,0,P|439:377|485:325,1,127.875003902435,2|0,1:2|0:0,0:2:0:0:
449,278,89674,1,8,0:2:0:0:
204,306,89792,2,0,L|112:331,1,85.2500026016236,2|0,1:2|0:0,0:2:0:0:
262,380,90028,1,0,1:2:0:0:
300,258,90146,2,0,B|311:226|311:226|250:184|250:184|265:131,1,139.499995742798,8|0,0:2|0:0,0:2:0:0:
303,93,90382,6,0,P|331:86|366:142,1,92.9999971618653,2|0,1:2|0:0,0:2:0:0:
163,233,90619,1,8,0:2:0:0:
87,101,90737,1,2,0:2:0:0:
158,155,90855,1,0,0:0:0:0:
68,218,90973,1,0,1:2:0:0:
172,319,91091,2,0,P|231:335|262:348,1,92.9999971618653,8|0,0:2|0:0,0:0:0:0:
428,59,91327,6,2,P|481:83|456:174,1,145.3125,4|0,1:1|0:0,0:1:0:0:
403,192,91563,2,0,P|368:175|374:105,1,96.875,8|0,0:2|0:0,0:0:0:0:
347,38,91741,1,0,3:0:0:0:
337,23,91800,1,4,1:2:0:0:
239,180,91918,1,0,0:0:0:0:
76,86,92036,1,8,0:2:0:0:
116,321,92154,6,0,B|151:310|151:310|193:318|193:318|244:299,1,127.875003902435,4|0,1:2|0:0,0:2:0:0:
316,255,92390,1,8,0:3:0:0:
72,212,92508,1,8,0:2:0:0:
258,384,92626,1,4,1:3:0:0:
416,242,92744,6,0,P|412:205|384:180,1,54.2499983444214,2|0,1:1|0:0,0:0:0:0:
461,118,92863,2,0,P|444:82|412:66,1,58.1250022172929,10|0,1:1|0:0,0:0:0:0:
300,145,93099,6,0,B|203:114|229:188|110:133,1,178.250003399849,4|0,1:1|0:2,0:2:0:0:
332,267,93453,1,8,0:2:0:0:
262,229,93571,1,0,1:2:0:0:
69,298,93689,2,0,L|157:260,1,89.1250016999245,2|0,0:2|1:2,0:2:0:0:
42,151,93926,2,0,L|8:251,1,89.1250016999245,8|0,0:2|0:2,0:2:0:0:
220,125,94162,2,0,P|236:44|199:6,1,133.687502549887,2|0,1:2|0:0,0:2:0:0:
181,6,94398,1,8,0:2:0:0:
136,164,94516,1,2,0:2:0:0:
262,229,94634,1,0,0:0:0:0:
151,355,94752,5,0,1:2:0:0:
247,335,94870,2,0,B|321:319|300:361|399:326,1,133.687502549887,8|0,0:2|0:0,0:2:0:0:
477,273,95107,2,0,P|439:248|382:260,1,89.1250016999245,2|0,1:2|0:0,0:0:0:0:
344,139,95343,2,0,P|293:124|247:155,1,89.1250016999245,8|0,0:2|0:0,0:0:0:0:
77,309,95579,1,2,1:2:0:0:
242,226,95697,1,0,0:0:0:0:
54,165,95815,1,8,0:2:0:0:
103,30,95933,6,0,P|139:82|145:206,1,170.500005203247,2|0,1:2|1:2,0:2:0:0:
298,384,96288,2,0,L|398:359,1,85.2500026016236,8|0,0:2|0:0,0:0:0:0:
470,320,96524,2,0,L|385:282,1,85.2500026016236,0|0,1:2|0:0,0:0:0:0:
279,140,96760,2,0,P|264:105|354:93,1,127.875003902435,8|0,2:0|0:0,0:0:0:0:
386,198,96996,6,0,P|373:240|257:218,1,178.250003399849,4|8,1:1|0:0,0:0:0:0:
209,314,97351,1,0,0:0:0:0:
59,141,97469,1,2,1:2:0:0:
189,206,97587,1,8,0:0:0:0:
39,304,97705,1,0,1:0:0:0:
108,253,97823,5,2,1:2:0:0:
0,195,97941,2,0,L|50:27,1,145.3125,2|0,0:0|0:0,0:0:0:0:
126,9,98178,2,0,L|146:101,1,85.2500026016236,2|0,1:2|0:0,0:0:0:0:
384,217,98414,1,8,0:0:0:0:
335,161,98532,2,0,P|295:151|254:132,1,85.2500026016236,2|0,0:0|3:0,0:0:0:0:
231,106,98709,1,0,3:0:0:0:
231,106,98768,2,0,L|205:182,1,54.2499983444214,0|0,3:0|3:0,0:0:0:0:
0,301,98886,6,2,B|79:292|40:337|148:307,1,127.875003902435,12|0,0:1|0:0,0:1:0:0:
182,364,99122,1,0,1:0:0:0:
402,97,99241,2,2,B|450:138|450:138|411:202,1,127.875003902435,12|0,0:0|0:0,0:1:0:0:
466,257,99477,2,0,L|529:279,1,42.6250013008118,0|0,1:0|0:0,0:0:0:0:
366,384,99595,2,2,P|352:306|338:244,1,85.2500026016236,12|0,0:0|0:0,0:1:0:0:
247,0,99831,5,8,0:3:0:0:
287,28,99910,5,8,0:3:0:0:
270,83,99989,5,8,0:3:0:0:
205,122,100067,5,4,0:3:0:0:
170,190,100146,5,4,0:3:0:0:
220,252,100225,5,4,0:3:0:0:
281,202,100304,5,10,0:1:0:0:
197,98,100422,6,0,L|166:-14,1,116.250004434586,6|0,1:1|0:0,0:0:0:0:
340,129,100776,2,0,B|380:148|430:100|430:100|430:89|430:89|355:265|497:298|559:246|527:166|488:163,1,426.250013008118,6|0,1:2|0:0,0:2:0:0:
495,164,102193,1,0,0:2:0:0:
418,243,102666,2,0,B|332:220|353:290|248:252,1,170.500005203247,4|0,1:2|0:2,0:2:0:0:
122,298,103374,5,0,0:0:0:0:
187,347,103493,1,8,0:3:0:0:
199,189,103611,2,0,L|110:228,1,77.5,12|0,0:2|0:0,0:0:0:0:
47,220,103847,1,8,0:3:0:0:
265,117,103965,2,0,L|178:89,1,77.5,8|0,0:2|0:0,0:0:0:0:
101,122,104201,1,8,0:3:0:0:
247,274,104319,1,8,0:2:0:0:
369,203,104437,1,8,0:2:0:0:
174,339,104556,6,2,B|228:324|228:324|271:346|271:346|344:317,1,170.500005203247,4|0,1:2|0:2,0:1:0:0:
492,152,104910,2,0,L|401:123,1,85.2500026016236,2|8,1:1|0:2,0:2:0:0:
410,126,105264,2,2,P|336:110|342:198,1,170.500005203247,2|0,1:2|0:2,0:1:0:0:
251,215,105619,1,8,0:2:0:0:
415,252,105737,2,0,L|514:218,1,85.2500026016236,2|0,1:1|0:0,0:0:0:0:
512,362,105973,2,0,L|418:332,1,85.2500026016236,10|0,0:1|0:0,0:0:0:0:
140,157,106209,6,2,P|163:260|170:369,1,170.500005203247,4|0,1:2|0:0,0:1:0:0:
326,185,106563,1,0,0:2:0:0:
256,131,106681,2,2,P|249:209|276:257,1,85.2500026016236,0|0,1:2|0:2,0:1:0:0:
406,209,106918,2,2,P|406:151|378:106,1,85.2500026016236,8|0,0:2|0:2,0:1:0:0:
276,307,107154,1,2,1:2:0:0:
401,306,107272,2,2,P|462:330|486:226,1,170.500005203247,2|8,0:1|0:2,0:1:0:0:
306,207,107626,2,0,L|180:258,1,85.2500026016236,0|0,1:2|0:0,0:0:0:0:
86,292,107863,5,8,0:2:0:0:
22,212,107981,1,8,0:2:0:0:
163,328,108099,1,8,0:3:0:0:
17,354,108217,1,0,0:0:0:0:
126,195,108335,6,2,B|141:110|207:142|218:23,1,170.500005203247,2|0,1:1|0:2,0:1:0:0:
226,238,108689,2,0,L|246:347,1,85.2500026016236,2|8,1:1|0:2,0:2:0:0:
241,321,109044,2,2,B|293:304|293:304|345:336|345:336|419:313,1,170.500005203247,2|0,1:2|0:0,0:1:0:0:
300,187,109398,1,8,0:2:0:0:
407,240,109516,2,0,L|505:260,1,85.2500026016236,2|0,1:1|0:0,0:0:0:0:
485,110,109752,2,0,L|379:151,1,85.2500026016236,10|0,0:1|0:0,0:0:0:0:
129,67,109989,6,2,B|62:138|62:138|173:145,1,185.999994323731,4|0,1:2|0:0,0:1:0:0:
198,204,110343,1,8,0:2:0:0:
50,246,110461,2,0,L|-55:281,1,77.5,0|0,1:2|0:0,0:0:0:0:
160,277,110697,2,0,P|177:330|186:371,1,77.5,10|0,0:1|0:0,0:0:0:0:
310,251,110933,5,2,1:1:0:0:
380,212,111052,1,0,0:0:0:0:
296,157,111170,5,10,0:1:0:0:
470,243,111288,1,0,0:0:0:0:
321,336,111406,1,0,1:0:0:0:
409,83,111524,5,10,0:1:0:0:
206,138,111642,1,0,0:0:0:0:
409,83,111760,1,8,0:0:0:0:
283,56,111878,5,2,1:1:0:0:
332,156,111996,1,0,0:0:0:0:
186,237,112115,6,2,B|102:210|125:279|6:230,1,155,4|0,1:2|1:2,2:1:0:0:
112,147,112469,2,2,L|89:57,1,77.5,2|8,0:1|0:1,0:2:0:0:
92,71,112823,2,2,P|166:43|196:121,1,155,2|0,0:2|1:2,0:1:0:0:
377,143,113178,1,8,0:2:0:0:
441,201,113296,2,0,P|458:164|452:109,1,77.5,2|0,0:1|0:0,0:0:0:0:
325,58,113532,2,0,P|291:117|295:164,1,77.5,10|0,0:1|0:0,0:0:0:0:
358,347,113768,6,2,L|520:295,1,155,4|0,1:2|0:0,0:1:0:0:
496,381,114122,1,0,0:2:0:0:
369,254,114241,2,2,B|353:227|353:227|363:161,1,77.5,0|0,1:1|0:2,0:1:0:0:
198,371,114477,2,2,L|79:351,1,77.5,8|0,0:2|0:2,0:1:0:0:
272,338,114713,1,2,1:2:0:0:
284,162,114831,2,2,P|178:200|160:211,1,116.25,2|0,0:1|0:0,0:1:0:0:
201,279,115067,1,8,0:2:0:0:
0,204,115185,2,0,P|17:146|29:106,1,77.5,0|0,1:2|0:0,0:0:0:0:
117,13,115422,5,8,0:2:0:0:
171,118,115540,1,8,0:2:0:0:
94,96,115658,1,8,0:3:0:0:
220,36,115776,1,0,0:0:0:0:
250,198,115894,6,2,B|140:187|194:247|68:216,1,174.375006651879,4|0,1:2|0:0,0:1:0:0:
360,283,116367,2,2,L|542:337,1,174.375006651879,0|0,1:3|0:0,0:1:0:0:
325,162,116839,2,2,P|302:91|287:-15,1,174.375006651879,0|0,1:2|0:0,0:1:0:0:
304,266,117311,2,2,L|236:297,1,58.1250022172929,0|0,1:2|0:0,0:1:0:0:
166,190,117548,2,0,L|242:213,1,58.1250022172929,0|0,0:2|0:0,0:0:0:0:
403,276,117784,1,0,1:2:0:0:
56,351,118020,5,8,0:2:0:0:
89,270,118138,1,8,0:2:0:0:
321,187,118493,6,0,B|310:153|310:153|264:127|264:127|249:59,1,155,2|0,1:3|3:2,2:2:0:0:
249,62,118788,1,0,3:2:0:0:
249,62,118847,2,0,L|316:44,1,38.75,0|0,3:2|3:2,0:0:0:0:
415,157,118965,2,0,L|494:172,1,77.5,10|0,0:1|0:0,0:1:0:0:
327,277,119201,1,0,1:2:0:0:
389,321,119319,2,0,L|479:294,1,77.5,10|8,0:1|0:2,0:0:0:0:
321,187,119556,1,8,0:2:0:0:
136,329,119674,5,4,1:2:0:0:
113,305,120146,1,0,1:2:0:0:
154,273,120619,1,0,1:2:0:0:
100,217,120855,2,0,L|76:134,1,77.5,2|0,3:1|0:0,0:0:0:0:
140,92,121032,1,0,0:0:0:0:
145,82,121091,1,8,0:2:0:0:
235,75,121209,1,0,1:1:0:0:
249,159,121327,5,8,2:3:0:0:
338,182,121445,1,4,2:3:0:0:
444,271,121563,6,2,B|359:252|376:292|267:264,1,155,10|0,0:2|1:2,0:1:0:0:
71,361,121918,2,2,B|156:342|139:382|248:354,1,155,12|0,0:2|1:2,0:1:0:0:
145,268,122272,2,2,L|159:175,1,77.5,10|0,0:2|0:0,0:1:0:0:
231,120,122508,1,0,1:2:0:0:
235,136,122744,1,8,0:2:0:0:
179,26,122863,1,8,0:2:0:0:
135,103,122981,1,8,0:3:0:0:
282,57,123099,1,8,0:2:0:0:
135,103,123217,2,0,L|54:130,1,77.5,4|0,0:3|0:0,0:0:0:0:
103,207,123453,6,0,P|157:198|214:252,1,116.250004434586,6|0,1:2|0:2,0:2:0:0:
160,307,123807,1,0,1:2:0:0:
293,267,123926,2,0,B|361:254|337:286|426:258,1,116.250004434586,8|0,0:2|0:2,0:2:0:0:
504,351,124280,2,0,P|477:339|435:332,1,58.1250022172929,10|0,0:2|0:0,0:2:0:0:
490,245,124516,1,8,0:2:0:0:
365,347,124634,2,0,P|332:354|293:375,1,58.1250022172929,2|0,1:2|0:2,0:2:0:0:
215,280,124870,2,0,P|194:254|230:188,1,116.250004434586,8|0,0:2|1:2,0:2:0:0:
227,188,125343,2,0,P|164:206|147:143,1,145.312505543232,2|0,1:2|0:0,0:2:0:0:
78,88,125697,2,0,L|55:159,1,58.1250022172929,2|8,0:2|0:2,0:0:0:0:
136,297,126052,5,2,0:2:0:0:
62,262,126170,1,8,0:2:0:0:
82,363,126288,5,2,0:1:0:0:
229,311,126406,1,8,0:2:0:0:
82,363,126524,2,0,L|16:388,1,58.1250022172929,0|0,0:0|0:2,0:0:0:0:
172,142,126760,2,0,L|190:232,1,87.1875033259393,8|0,0:2|0:0,0:2:0:0:
189,227,126996,2,0,P|230:220|256:231,1,58.1250022172929,0|0,3:2|0:0,0:0:0:0:
471,269,127233,6,0,B|390:294|390:294|421:189,1,174.375006651879,4|0,1:2|1:2,0:2:0:0:
350,162,127705,2,0,L|272:198,1,58.1250022172929,8|0,0:2|0:0,0:2:0:0:
472,140,127941,1,0,0:2:0:0:
347,71,128059,2,0,L|433:87,2,58.1250022172929,10|0|8,0:2|1:2|0:2,0:0:0:0:
476,54,128414,2,0,P|492:11|487:-32,1,58.1250022172929,2|0,1:2|0:2,0:2:0:0:
221,0,128650,2,0,P|257:73|256:132,1,116.250004434586,10|0,0:2|0:2,0:2:0:0:
259,106,129004,2,0,L|191:90,1,58.1250022172929,2|0,0:2|1:2,0:2:0:0:
97,172,129359,5,2,0:2:0:0:
146,224,129477,1,0,1:2:0:0:
65,275,129595,2,0,P|17:270|18:211,1,116.250004434586,10|0,0:2|0:2,0:2:0:0:
332,218,129949,2,0,L|363:284,1,58.1250022172929,10|0,0:2|0:2,0:2:0:0:
327,341,130185,1,10,0:2:0:0:
235,218,130304,2,0,L|202:329,1,116.250004434586,0|8,1:2|0:2,0:2:0:0:
465,297,130776,6,0,P|480:245|491:217,1,58.1250022172929,2|0,0:2|0:2,0:0:0:0:
423,112,131012,2,0,P|443:147|527:151,1,116.250004434586,2|0,1:2|0:2,0:2:0:0:
405,234,131367,2,0,L|342:255,1,58.1250022172929,2|8,1:2|0:2,0:2:0:0:
295,193,131603,1,0,0:0:0:0:
346,51,131721,1,2,1:2:0:0:
346,51,131839,2,0,L|326:127,1,58.1250022172929,8|0,0:0|0:0,0:0:0:0:
212,57,132075,2,0,L|279:26,1,58.1250022172929,8|0,0:0|0:0,0:0:0:0:
295,193,132311,1,0,1:2:0:0:
226,152,132430,2,0,L|156:120,1,58.1250022172929,8|0,0:0|1:2,0:0:0:0:
72,384,132666,6,0,B|84:346|84:346|141:327|141:327|166:258,1,155,4|0,1:2|0:0,0:2:0:0:
132,204,133020,1,0,0:0:0:0:
61,220,133138,2,0,L|76:271,3,38.75,0|0|0|0,3:2|3:2|3:2|3:2,0:0:0:0:
4,309,133374,1,12,2:2:0:0:
71,257,133493,2,0,P|95:156|116:117,1,131.750002512932,0|0,0:0|1:2,0:0:0:0:
85,43,133847,5,8,0:3:0:0:
160,18,133965,1,0,0:0:0:0:
200,89,134083,5,4,0:3:0:0:
297,125,134201,1,0,0:0:0:0:
208,235,134319,6,0,B|219:272|229:324,1,77.5,12|8,0:2|0:3,0:2:0:0:
320,293,134556,1,8,0:2:0:0:
320,293,134615,2,0,P|303:353|298:378,1,77.5
393,357,134792,6,2,B|481:320|481:320|393:264,1,170.500005203247,4|0,1:1|1:2,0:1:0:0:
431,180,135146,2,2,P|445:148|425:97,1,85.2500026016236,12|0,0:2|0:2,0:1:0:0:
334,78,135382,2,2,P|356:37|344:-5,1,85.2500026016236,8|0,0:2|0:2,0:1:0:0:
264,210,135619,2,0,B|187:184|212:243|119:207,1,127.875003902435,4|0,1:2|0:0,0:2:0:0:
140,214,135855,2,0,P|89:203|53:205,1,85.2500026016236,0|0,1:2|0:0,0:0:0:0:
213,292,136091,1,0,1:2:0:0:
349,236,136209,1,8,0:2:0:0:
255,125,136327,1,8,0:2:0:0:
322,337,136445,2,0,P|381:355|409:371,1,85.2500026016236,2|0,1:2|0:0,0:2:0:0:
429,229,136681,6,0,P|451:186|397:104,1,127.875003902435,2|0,1:2|0:0,0:2:0:0:
338,98,136918,1,0,3:2:0:0:
338,98,136977,1,0,3:2:0:0:
338,98,137036,2,0,L|353:30,2,42.6250013008118,0|0|0,3:2|3:2|3:2,0:0:0:0:
180,165,137272,2,0,L|143:62,1,85.2500026016236,8|0,0:3|0:2,0:2:0:0:
311,213,137508,2,0,P|264:205|239:306,1,170.500005203247,2|8,1:2|0:2,0:2:0:0:
138,320,137863,2,0,L|36:351,1,85.2500026016236,0|0,0:0|1:2,0:0:0:0:
18,274,138099,1,8,0:2:0:0:
98,219,138217,2,0,L|189:249,1,85.2500026016236,8|8,0:2|0:3,0:0:0:0:
442,320,138493,5,0,0:0:0:0:
442,320,138571,1,6,1:2:0:0:
352,249,138729,1,0,0:0:0:0:
352,249,138807,1,0,0:2:0:0:
413,205,138965,1,0,0:0:0:0:
413,205,139044,1,2,0:2:0:0:
363,123,139201,1,0,0:2:0:0:
363,123,139280,1,0,0:0:0:0:
448,0,139437,5,10,0:2:0:0:
448,0,139516,2,0,P|436:49|431:86,1,77.5000029563905,0|0,0:0|0:2,0:0:0:0:
337,50,139752,2,0,P|356:111|365:127,1,77.5000029563905,2|0,0:2|0:0,0:0:0:0:
287,179,139989,1,2,0:2:0:0:
198,126,140146,1,8,0:2:0:0:
198,126,140225,1,0,0:0:0:0:
111,240,140382,5,10,0:2:0:0:
111,240,140461,2,0,L|30:263,1,77.5000029563905
97,324,140697,2,0,L|147:341,1,51.6666666666667,2|0,0:2|0:0,0:0:0:0:
202,295,140933,1,10,0:2:0:0:
217,65,141091,6,0,L|187:182,1,116.250004434586
264,217,141406,6,0,L|326:199,1,58.1250022172929,0|4,0:0|3:3,0:0:0:0:
316,114,141642,2,0,L|388:135,1,58.1250022172929
400,241,141878,5,8,2:3:0:0:
480,284,141996,1,8,0:2:0:0:
463,185,142115,1,0,0:0:0:0:
407,320,142233,1,0,0:0:0:0:
289,308,142351,6,0,P|263:294|270:211,1,116.250004434586,4|0,1:1|0:0,0:0:0:0:
263,216,142587,2,0,P|207:247|168:232,1,77.5,10|0,0:2|0:2,0:2:0:0:
120,314,142823,1,2,0:2:0:0:
31,147,142941,2,0,L|116:127,1,77.5,0|8,1:2|0:2,0:2:0:0:
183,118,143178,1,2,0:2:0:0:
94,212,143296,2,0,L|47:379,1,155,0|10,1:2|0:2,0:2:0:0:
277,369,143650,1,0,1:2:0:0:
224,303,143768,2,0,P|268:290|314:302,1,77.5,2|0,0:2|1:2,0:2:0:0:
348,218,144004,2,0,P|407:235|418:278,1,77.5,10|0,0:2|0:2,0:2:0:0:
412,352,144241,6,0,B|423:261|465:289|479:205,1,155,2|8,1:2|0:2,0:2:0:0:
227,90,144595,2,0,L|331:124,1,77.5,2|0,0:2|0:0,2:2:0:0:
510,132,144831,1,0,1:2:0:0:
477,64,144949,1,8,0:2:0:0:
396,103,145067,1,0,0:2:0:0:
321,228,145185,2,0,P|272:276|196:243,1,155,2|8,1:2|0:2,0:2:0:0:
178,171,145540,2,0,P|227:123|303:156,1,155,0|0,1:2|1:2,0:2:0:0:
392,270,145894,2,0,L|361:374,1,77.5,8|0,0:2|0:2,0:2:0:0:
60,349,146130,6,0,P|128:328|154:330,1,77.5,2|0,1:2|0:0,0:0:0:0:
47,207,146367,2,0,B|127:209|109:256|208:252,1,155,10|2,0:2|0:2,0:2:0:0:
0,271,146721,1,0,1:2:0:0:
161,144,146839,1,8,0:2:0:0:
64,24,146957,1,2,0:2:0:0:
64,24,147075,2,0,P|0:67|12:98,1,116.25,0|0,1:2|0:0,0:2:0:0:
5,174,147311,2,0,L|87:147,1,77.5,10|0,0:2|0:2,0:2:0:0:
192,252,147548,1,2,0:2:0:0:
86,283,147666,2,0,L|8:254,1,77.5,0|8,1:2|0:2,0:2:0:0:
246,114,147902,5,8,2:3:0:0:
299,175,148020,2,0,L|254:351,1,170.500005203247,6|0,1:2|0:0,0:0:0:0:
361,277,148374,2,0,P|314:262|287:259,1,58.1250022172929,8|0,0:2|0:0,0:0:0:0:
192,252,148611,1,8,0:3:0:0:
361,115,148729,2,0,B|446:97|433:163|539:119,1,170.500005203247,2|0,1:2|3:2,0:0:0:0:
503,105,149024,1,0,3:2:0:0:
503,105,149083,2,0,L|475:47,1,42.6250013008118,0|0,3:2|3:2,0:0:0:0:
418,20,149201,1,8,3:2:0:0:
177,92,149437,6,0,P|184:143|219:171,1,54.2499983444214,2|0,1:1|0:0,0:0:0:0:
109,254,149556,2,0,P|114:300|136:323,1,58.1250022172929,14|0,0:2|0:0,0:0:0:0:
310,164,150146,5,2,0:1:0:0:
307,171,150382,2,0,L|288:217,1,29.0625011086464,2|0,0:2|0:0,0:0:0:0:
206,219,150500,2,0,L|224:281,1,58.1250022172929,0|0,0:2|0:0,0:0:0:0:
318,284,150737,2,0,P|352:298|423:359,1,116.250004434586,2|0,1:2|0:0,0:0:0:0:
444,236,151091,2,0,P|431:201|430:167,1,58.1250022172929,10|0,0:2|0:0,0:0:0:0:
268,364,151327,1,2,1:2:0:0:
477,305,151445,2,0,L|533:289,1,58.1250022172929,8|0,0:2|0:0,0:0:0:0:
223,114,151681,5,6,1:2:0:0:
256,192,151741,12,0,152744,0:0:0:0:
227,251,153217,6,0,P|206:197|226:159,1,54.2499983444214,10|0,0:2|0:0,0:0:0:0:
127,206,153335,2,0,P|116:166|122:131,1,58.1250022172929,10|0,0:2|0:0,0:0:0:0:
296,163,153571,6,2,B|365:107|365:107|272:82,1,170.500005203247,4|0,1:1|0:2,0:1:0:0:
401,180,153926,2,0,P|448:197|493:224,1,85.2500026016236,8|0,0:2|1:2,0:2:0:0:
471,296,154103,1,0,0:0:0:0:
478,309,154162,1,2,0:2:0:0:
321,252,154280,1,0,1:2:0:0:
456,92,154398,1,8,0:2:0:0:
226,226,154516,5,2,0:2:0:0:
226,226,154575,1,0,0:0:0:0:
226,226,154634,2,0,B|145:218|167:253|82:240,1,127.875003902435
0,128,154870,2,0,L|98:101,1,85.2500026016236,8|0,0:2|0:2,0:2:0:0:
98,25,155107,2,0,L|-14:-6,1,85.2500026016236,2|0,1:2|1:2,0:0:0:0:
224,6,155343,1,8,0:2:0:0:
195,85,155461,1,0,0:2:0:0:
319,170,155579,6,2,P|371:193|378:116,1,127.875003902435,2|0,1:2|0:0,0:1:0:0:
443,81,155815,2,0,P|426:32|453:-23,1,85.2500026016236,8|0,0:2|0:0,0:0:0:0:
287,304,156052,1,2,1:2:0:0:
484,154,156170,1,0,0:0:0:0:
378,384,156288,1,8,0:2:0:0:
232,208,156406,6,2,B|246:168|246:168|277:160|277:160|312:54,1,170.500005203247,2|0,1:2|1:2,0:1:0:0:
191,281,156760,2,0,P|128:285|100:243,1,85.2500026016236,8|0,0:2|0:0,0:0:0:0:
36,221,156996,1,2,1:2:0:0:
154,179,157115,1,0,1:2:0:0:
12,135,157233,2,0,P|48:114|103:137,1,85.2500026016236,8|0,0:2|0:2,0:0:0:0:
285,326,157469,6,0,B|368:311|368:311|309:244,1,170.500005203247,2|8,1:2|0:2,0:2:0:0:
418,240,157823,2,0,L|505:223,1,85.2500026016236,2|0,1:2|0:0,0:2:0:0:
433,357,158059,1,0,1:2:0:0:
219,235,158178,2,0,P|198:200|253:134,1,127.875003902435,8|0,0:2|0:0,0:2:0:0:
245,139,158414,2,0,P|191:155|155:123,1,96.875,2|0,1:2|0:0,0:2:0:0:
33,303,158650,5,8,0:2:0:0:
121,250,158768,1,2,0:2:0:0:
212,320,158886,5,0,0:0:0:0:
330,383,159004,1,0,1:2:0:0:
105,371,159122,2,0,L|138:282,1,77.5,8|0,0:2|0:0,0:0:0:0:
494,300,159359,6,2,P|435:267|370:289,1,133.687502549887,4|0,1:1|0:0,0:1:0:0:
305,308,159595,2,0,P|339:260|328:218,1,89.1250016999245,8|0,0:2|0:0,0:0:0:0:
332,153,159772,1,0,0:0:0:0:
336,157,159831,1,4,1:2:0:0:
106,284,159949,1,0,0:0:0:0:
360,380,160067,1,8,0:2:0:0:
144,101,160185,6,0,P|172:161|183:211,1,96.875,4|0,1:2|0:0,0:2:0:0:
196,275,160422,1,8,0:3:0:0:
284,65,160540,1,8,0:2:0:0:
55,177,160658,1,4,1:3:0:0:
441,248,160776,2,0,P|410:233|355:235,1,54.2499983444214,2|0,1:1|0:0,0:0:0:0:
341,164,160894,2,0,P|305:155|269:158,1,58.1250022172929,10|0,1:1|0:0,0:0:0:0:
171,351,161130,6,0,P|115:368|108:268,1,170.500005203247,4|0,1:1|0:2,0:2:0:0:
179,70,161485,1,8,0:2:0:0:
124,128,161603,1,0,1:2:0:0:
192,239,161721,2,0,L|289:264,1,85.2500026016236,2|0,0:2|1:2,0:2:0:0:
330,37,161957,2,0,P|370:102|338:156,1,127.875003902435,8|0,0:2|0:0,0:2:0:0:
281,174,162193,2,0,P|252:139|277:87,1,85.2500026016236,2|0,1:2|0:0,0:2:0:0:
390,325,162430,5,8,0:2:0:0:
493,241,162548,1,2,0:2:0:0:
407,198,162666,1,0,0:0:0:0:
477,354,162784,1,0,1:2:0:0:
319,363,162902,6,0,L|227:345,1,85.2500026016236,8|0,0:2|0:0,0:2:0:0:
140,81,163138,2,0,P|161:126|202:156,1,85.2500026016236,2|0,1:2|0:0,0:0:0:0:
10,182,163374,2,0,P|34:153|52:96,1,85.2500026016236,8|0,0:2|0:2,0:0:0:0:
167,253,163611,2,0,P|113:254|74:278,1,85.2500026016236,2|0,1:2|0:0,0:2:0:0:
110,181,163847,1,8,0:2:0:0:
288,132,163965,6,0,P|365:161|387:226,1,85.2500026016236,2|0,1:2|0:0,0:2:0:0:
187,148,164201,1,0,1:2:0:0:
378,297,164319,2,0,P|346:313|291:281,1,85.2500026016236,8|0,0:2|0:0,0:0:0:0:
228,244,164556,1,2,1:2:0:0:
300,218,164674,1,0,1:2:0:0:
465,145,164792,5,8,0:2:0:0:
330,47,164910,1,0,0:2:0:0:
422,231,165028,2,0,P|388:168|376:135,1,85.2500026016236,2|0,1:2|0:0,0:2:0:0:
512,216,165264,1,8,0:2:0:0:
505,337,165382,2,0,P|488:296|366:315,1,170.500005203247,2|0,1:2|1:2,0:2:0:0:
143,355,165737,5,10,0:2:0:0:
299,185,165855,2,0,P|284:223|283:253,1,42.6250013008118,0|0,0:2|0:0,0:0:0:0:
335,365,165973,2,0,B|293:351|293:351|277:311|277:311|213:280,1,139.499995742798,2|0,1:2|0:0,0:2:0:0:
156,260,166209,1,8,0:2:0:0:
59,62,166327,2,0,B|28:114|28:114|175:77,1,193.75,2|0,2:2|1:2,0:2:0:0:
388,218,166681,5,10,0:2:0:0:
223,128,166800,1,0,0:2:0:0:
441,0,166918,2,2,P|453:25|360:55,1,145.3125,4|0,1:1|0:0,0:1:0:0:
303,123,167154,1,8,0:2:0:0:
30,234,167272,2,2,P|80:198|140:194,1,96.875,6|0,0:2|0:0,0:1:0:0:
195,211,167449,1,0,3:0:0:0:
210,221,167508,1,0,3:2:0:0:
292,369,167626,6,2,B|266:330|266:330|311:268|311:268|288:228,1,170.500005203247,14|8,0:2|0:3,0:1:0:0:
389,260,167941,2,0,L|455:281,1,56.8333350677491,8|8,0:3|0:3,0:0:0:0:
477,107,168099,1,4,0:3:0:0:
425,162,168178,2,0,L|358:190,1,56.8333350677491,4|4,0:3|0:3,0:0:0:0:
150,57,168335,6,0,P|200:78|215:101,1,54.2499983444214,10|0,0:1|0:0,0:0:0:0:
264,34,168453,2,0,P|303:47|323:81,1,58.1250022172929,6|0,1:1|0:0,0:0:0:0:
287,227,168689,6,2,B|188:204|211:269|97:229,1,170.500005203247,4|0,1:1|0:2,0:1:0:0:
302,350,169044,2,0,L|393:326,1,85.2500026016236,8|0,0:2|1:2,0:2:0:0:
444,384,169280,1,2,0:2:0:0:
449,262,169398,2,0,P|392:246|351:229,1,85.2500026016236,0|8,1:2|0:2,0:2:0:0:
392,66,169634,5,2,0:2:0:0:
444,0,169752,2,0,P|506:9|492:91,1,127.875003902435
312,108,169989,2,0,P|300:63|307:8,1,85.2500026016236,8|0,0:2|0:2,0:2:0:0:
485,96,170225,2,0,P|487:142|470:185,1,85.2500026016236,2|0,1:2|1:2,0:0:0:0:
277,230,170461,2,0,P|244:217|235:134,1,127.875003902435,8|0,0:2|0:0,0:2:0:0:
78,120,170697,6,2,L|-11:143,1,77.5,2|0,1:2|0:0,0:1:0:0:
28,232,170933,2,0,L|117:262,1,77.5,8|0,0:2|0:0,0:0:0:0:
245,312,171170,5,2,1:2:0:0:
128,188,171288,1,0,0:0:0:0:
35,330,171406,1,8,0:2:0:0:
241,225,171524,2,2,P|228:168|197:92,1,127.875003902435,2|0,1:2|0:0,0:1:0:0:
164,68,171760,1,0,1:2:0:0:
318,163,171878,2,0,L|414:184,1,85.2500026016236,8|0,0:2|0:0,0:0:0:0:
452,69,172115,2,0,L|370:90,1,85.2500026016236,2|0,1:2|1:2,0:0:0:0:
407,271,172351,1,8,0:2:0:0:
486,228,172469,1,0,0:2:0:0:
268,231,172587,6,0,P|307:290|270:349,1,127.875003902435,2|0,1:2|0:0,0:2:0:0:
207,360,172823,1,8,0:2:0:0:
175,122,172941,2,0,B|195:83|195:83|229:83|229:83|276:-12,1,170.500005203247,2|0,1:2|1:2,0:2:0:0:
58,278,173296,2,0,B|3:241|3:241|73:176,1,127.875003902435,8|0,0:2|0:0,0:2:0:0:
73,65,173532,2,0,L|102:150,1,85.2500026016236,2|0,1:2|0:0,0:2:0:0:
134,321,173768,1,8,0:2:0:0:
334,256,173886,5,2,0:2:0:0:
293,181,174004,2,0,P|264:171|208:256,1,139.499995742798
120,244,174241,2,0,P|83:248|55:300,1,77.5,8|0,0:2|0:0,0:0:0:0:
419,384,174477,6,2,B|404:362|404:362|450:308|450:308|430:265,1,145.3125,4|0,1:1|0:0,0:1:0:0:
405,81,174713,2,0,L|387:188,1,96.875,8|0,0:2|0:0,0:0:0:0:
351,272,174890,1,0,3:0:0:0:
345,288,174949,1,4,1:2:0:0:
512,178,175067,1,0,0:0:0:0:
326,371,175185,1,8,0:2:0:0:
86,199,175304,6,0,P|144:150|213:177,1,145.3125,4|0,1:2|0:0,0:2:0:0:
247,239,175540,1,8,0:3:0:0:
480,351,175658,1,8,0:2:0:0:
247,239,175776,1,4,1:3:0:0:
512,178,175894,2,0,P|474:198|439:199,1,54.2499983444214,2|0,1:1|0:0,0:0:0:0:
271,353,176012,2,0,P|310:368|343:372,1,58.1250022172929,10|0,1:1|0:0,0:0:0:0:
384,196,176248,6,0,P|366:104|339:15,1,170.500005203247,4|0,1:1|0:2,0:2:0:0:
168,172,176603,1,8,0:2:0:0:
126,109,176721,1,0,1:2:0:0:
267,145,176839,2,0,L|352:107,1,85.2500026016236,2|0,0:2|1:2,0:2:0:0:
229,0,177075,2,0,L|200:93,1,85.2500026016236,8|0,0:2|0:2,0:2:0:0:
207,271,177311,6,0,B|118:252|138:301|41:268,1,127.875003902435,2|0,1:2|0:0,0:2:0:0:
6,243,177548,1,8,0:2:0:0:
139,376,177666,1,2,0:2:0:0:
225,348,177784,1,0,0:0:0:0:
305,237,177902,5,0,1:2:0:0:
173,187,178020,1,8,0:2:0:0:
326,327,178138,1,0,0:0:0:0:
326,327,178197,1,0,0:0:0:0:
326,327,178256,2,0,L|421:295,1,85.2500026016236,2|0,1:2|0:0,0:0:0:0:
475,213,178493,2,0,L|372:180,1,85.2500026016236,8|0,0:2|0:0,0:0:0:0:
224,95,178729,1,2,1:2:0:0:
302,57,178847,2,0,P|368:44|384:119,1,127.875003902435
293,207,179083,6,0,B|273:261|273:261|232:273|232:273|203:344,1,170.500005203247,2|0,1:2|1:2,0:2:0:0:
119,215,179437,2,0,P|64:194|63:140,1,85.2500026016236,8|0,0:2|0:0,0:0:0:0:
224,95,179674,2,0,P|216:144|168:161,1,85.2500026016236,0|0,1:2|0:0,0:0:0:0:
76,94,179910,2,0,P|101:61|166:83,1,85.2500026016236,8|0,2:0|0:0,0:0:0:0:
333,316,180146,2,0,P|408:335|468:360,1,127.875003902435,4|0,1:1|0:0,0:0:0:0:
492,218,180382,2,0,L|395:249,1,85.2500026016236,8|0,0:0|0:0,0:0:0:0:
209,308,180619,1,2,1:2:0:0:
340,210,180737,1,8,0:0:0:0:
137,119,180855,1,0,1:0:0:0:
292,33,180973,5,2,1:2:0:0:
252,103,181091,2,0,P|233:154|227:193,1,85.2500026016236,2|8,0:0|2:0,0:0:0:0:
354,126,181327,2,0,L|456:149,1,85.2500026016236,2|0,1:2|0:0,0:0:0:0:
340,210,181563,1,8,0:0:0:0:
162,247,181681,2,0,L|64:280,1,85.2500026016236,2|0,0:0|3:0,0:0:0:0:
73,237,181859,1,0,3:0:0:0:
73,237,181918,2,0,L|91:163,1,42.6250013008118,0|0,3:0|3:0,0:0:0:0:
228,0,182036,5,14,0:2:0:0:
254,74,182154,2,0,B|271:125|271:125|240:201|240:201|264:256,1,191.812494146347,0|0,1:0|0:0,0:0:0:0:
148,179,182981,2,0,L|63:206,1,77.5
116,273,183453,2,0,L|200:294,1,77.5,0|0,0:0|0:2,0:0:0:0:
268,337,183768,1,0,0:2:0:0:
268,337,183847,1,0,0:2:0:0:
268,337,183926,1,2,0:2:0:0:
301,299,185815,5,2,0:2:0:0:
268,272,187469,5,0,0:2:0:0:
268,272,187548,1,0,0:2:0:0:
268,272,187626,1,0,0:2:0:0:
268,272,187705,1,2,0:2:0:0:
307,237,189595,5,2,0:2:0:0:
238,192,191248,5,0,0:2:0:0:
238,192,191327,1,0,0:2:0:0:
238,192,191406,1,0,0:2:0:0:
238,192,191485,1,2,0:2:0:0:
351,160,193374,5,2,0:2:0:0:
236,128,195028,5,0,0:2:0:0:
236,128,195107,1,0,0:2:0:0:
236,128,195185,1,0,0:2:0:0:
236,128,195264,1,2,0:2:0:0:
368,125,197154,5,2,0:2:0:0:
303,0,197863,6,0,L|279:96,1,77.5,2|0,1:2|0:2,0:2:0:0:
195,292,198099,5,8,2:2:0:0:
375,227,198217,1,8,2:2:0:0:
152,179,198335,5,8,3:3:0:0:
121,197,198414,5,8,3:3:0:0:
79,201,198493,5,8,3:3:0:0:
51,217,198571,5,8,0:2:0:0:
87,118,198689,2,0,L|109:29,1,77.5,8|0,0:0|0:0,0:0:0:0:
279,181,198926,6,2,B|319:176|319:176|354:201|354:201|389:178|389:178|426:200|482:198,1,216.999993377686,6|0,1:1|0:2,0:1:0:0:
335,97,199280,2,0,P|284:73|238:97,1,92.9999971618653,10|0,0:2|1:2,0:2:0:0:
297,267,199516,2,0,P|345:258|375:225,1,92.9999971618653,2|0,0:2|1:2,0:2:0:0:
179,154,199752,2,0,P|185:214|237:245,1,92.9999971618653,10|0,0:2|0:2,0:2:0:0:
282,177,199930,1,0,0:0:0:0:
282,177,199989,1,2,1:2:0:0:
148,303,200107,1,0,0:0:0:0:
45,209,200225,6,0,P|80:98|85:57,1,139.499995742798,8|0,0:2|0:0,0:0:0:0:
109,5,200461,1,0,0:0:0:0:
206,235,200579,1,0,1:2:0:0:
278,304,200697,2,0,L|391:337,1,92.9999971618653,8|0,0:2|0:2,0:2:0:0:
405,257,200874,1,0,0:0:0:0:
405,257,200933,2,0,B|492:224|492:224|479:220|479:220|415:224,1,162.749995033264,2|0,1:2|0:0,0:0:0:0:
252,93,201170,2,0,L|276:189,1,77.5,8|0,0:2|0:0,0:2:0:0:
114,344,201406,5,0,1:2:0:0:
67,281,201524,2,0,L|110:128,1,139.499995742798,2|0,0:2|0:0,0:0:0:0:
200,265,201760,2,0,P|153:245|120:232,1,77.5,0|0,1:2|0:0,0:2:0:0:
178,160,201996,1,0,1:2:0:0:
353,264,202115,6,2,B|400:268|435:305|435:305|415:240|450:206,1,174.375006651879,10|0,0:1|0:0,0:1:0:0:
447,207,202351,1,0,1:2:0:0:
353,167,202469,1,0,1:2:0:0:
510,283,202587,2,0,P|447:296|335:400,1,201.499990776062,8|2,0:2|1:2,0:2:0:0:
207,352,202941,1,0,0:0:0:0:
75,300,203059,1,8,0:2:0:0:
155,245,203178,6,0,L|237:282,1,77.5,0|0,1:1|0:0,0:1:0:0:
227,258,203374,1,0,0:0:0:0:
234,224,203453,1,0,0:0:0:0:
236,198,203532,1,10,0:2:0:0:
83,98,203650,5,0,0:0:0:0:
138,35,203768,2,0,P|202:30|201:117,1,139.499995742798,0|0,1:2|0:0,0:0:0:0:
100,198,204004,2,0,L|28:220,1,46.4999985809327,10|0,0:2|0:0,0:0:0:0:
293,132,204122,2,2,P|338:134|371:180,1,92.9999971618653,2|0,0:1|1:2,0:1:0:0:
180,351,204359,5,2,1:1:0:0:
351,269,204477,1,10,0:2:0:0:
236,198,204595,1,0,0:2:0:0:
270,384,204713,5,6,1:2:0:0:
355,357,204831,1,0,0:2:0:0:
426,314,204949,5,8,0:2:0:0:
512,341,205067,1,0,0:2:0:0:
376,194,205185,5,2,1:1:0:0:
196,276,205304,1,0,0:2:0:0:
376,194,205422,1,8,0:2:0:0:
140,77,205540,6,2,B|54:146|54:146|162:166,1,201.499990776062,2|0,1:2|1:2,0:1:0:0:
100,285,205894,1,8,0:2:0:0:
21,232,206012,1,8,0:3:0:0:
230,83,206130,2,0,P|215:40|221:16,1,50.3749976940156,2|0,1:1|0:0,0:0:0:0:
220,40,206248,2,0,P|270:87|247:141,1,116.25,14|0,0:2|0:0,0:0:0:0:
342,197,206485,6,2,B|369:195|394:180|394:180|442:209|442:209|470:187|525:175,1,185.999994323731,6|0,1:1|0:2,0:1:0:0:
415,81,206780,1,0,0:0:0:0:
415,81,206839,2,2,P|429:144|418:182,1,77.5,10|0,0:2|1:2,0:1:0:0:
326,288,207075,1,2,0:2:0:0:
266,203,207193,2,2,P|257:170|268:106,1,77.5,2|8,1:1|0:2,0:1:0:0:
143,271,207430,5,2,0:1:0:0:
95,206,207548,2,2,B|17:178|17:178|11:180|11:180|54:239,1,139.499995742798,2|0,1:2|0:0,0:1:0:0:
131,364,207784,2,2,P|178:349|221:341,1,77.5,8|0,0:2|0:2,0:1:0:0:
434,332,208020,5,0,1:2:0:0:
309,273,208138,1,0,1:2:0:0:
409,234,208256,1,10,0:1:0:0:
331,368,208374,1,0,0:2:0:0:
409,234,208493,5,2,1:1:0:0:
329,174,208611,1,0,0:2:0:0:
260,211,208729,1,8,0:2:0:0:
151,179,208847,5,2,0:1:0:0:
151,179,208906,2,0,P|76:208|30:249,1,116.25,0|2,0:0|0:1,0:0:0:0:
14,141,209201,1,8,0:2:0:0:
263,0,209319,2,2,B|278:39|278:39|228:103|228:103|249:150,1,162.749995033264,2|0,1:1|0:0,0:1:0:0:
249,172,209556,1,0,1:2:0:0:
168,371,209674,2,0,L|200:277,1,77.5,8|0,0:2|0:0,0:0:0:0:
363,103,209910,2,2,L|420:128,1,51.6666666666667,2|0,1:1|0:0,0:1:0:0:
355,183,210067,2,0,L|369:240,1,51.6666666666667,0|10,0:0|0:1,0:0:0:0:
249,172,210225,2,0,P|277:144|298:138,1,51.6666666666667
433,48,210382,6,2,P|457:123|366:233,1,232.500008869171,2|8,1:1|0:2,0:1:0:0:
118,263,210737,2,2,L|220:286,1,85.2500026016236,0|0,1:2|0:0,0:1:0:0:
262,331,210973,1,0,0:2:0:0:
249,172,211091,2,2,L|161:191,1,85.2500026016236,10|0,0:1|0:2,0:1:0:0:
0,49,211327,6,2,P|-6:116|76:177,1,155,2|8,1:2|0:2,0:1:0:0:
127,125,211681,2,2,P|133:57|50:-3,1,155,2|0,0:1|1:2,0:1:0:0:
9,257,212036,2,2,B|46:268|46:268|103:242,1,77.5,10|0,0:1|0:2,0:1:0:0:
331,124,212272,6,2,B|397:95|386:148|475:107,1,139.499995742798,6|0,1:2|0:0,0:1:0:0:
273,191,212508,1,8,0:2:0:0:
389,203,212626,2,0,L|479:227,1,92.9999971618653,0|0,2:2|1:2,0:0:0:0:
479,227,212863,1,0,0:2:0:0:
374,296,212981,5,8,0:2:0:0:
305,344,213099,1,0,0:2:0:0:
206,264,213217,5,8,3:3:0:0:
192,238,213296,5,8,3:3:0:0:
165,192,213374,5,8,3:3:0:0:
149,162,213453,6,0,P|161:114|161:72,1,77.5,4|0,3:3|0:0,0:0:0:0:
345,25,213689,5,8,0:2:0:0:
271,169,213807,1,8,0:2:0:0:
56,124,213926,5,8,0:2:0:0:
178,332,214044,1,8,0:2:0:0:
375,130,214162,6,0,L|288:82,1,77.5,8|0,0:2|0:0,0:0:0:0:
271,169,214398,1,8,0:3:0:0:
409,207,214516,2,0,L|314:239,1,77.5,8|0,0:2|0:0,0:0:0:0:
272,305,214752,1,0,1:2:0:0:
272,305,214811,1,0,1:2:0:0:
272,305,214870,2,0,L|374:343,1,77.5,8|0,0:2|0:0,0:0:0:0:
461,323,215107,5,8,3:3:0:0:
500,262,215185,2,0,L|478:201,1,51.6666666666667,8|8,3:3|3:3,0:0:0:0:
373,137,215343,1,0,3:2:0:0:
343,96,215421,2,0,L|365:35,1,51.6666666666667,4|4,3:3|3:3,0:0:0:0:
442,0,215579,6,0,P|439:46|448:83,1,54.2499983444214,10|0,0:2|0:0,0:0:0:0:
373,216,215697,2,0,P|390:257|393:293,1,58.1250022172929,10|0,0:2|0:0,0:0:0:0:
253,136,215933,6,2,B|209:128|185:100|185:100|132:116|132:116|115:145|85:152,1,185.999994323731,4|0,1:1|0:2,0:1:0:0:
88,250,216229,1,0,0:0:0:0:
88,250,216288,2,0,L|173:204,1,85.2500026016236,8|0,0:2|1:2,0:2:0:0:
259,220,216524,1,2,0:2:0:0:
199,354,216642,2,0,L|109:331,1,85.2500026016236,0|8,1:2|0:2,0:2:0:0:
253,53,216878,5,2,0:2:0:0:
314,113,216996,2,0,L|344:260,1,127.875003902435,0|0,1:0|0:0,0:0:0:0:
364,315,217233,2,0,B|402:302|402:302|424:240,1,85.2500026016236,8|0,0:2|0:2,0:2:0:0:
259,220,217469,2,0,B|250:259|250:259|293:309,1,85.2500026016236,2|0,1:2|1:2,0:0:0:0:
392,176,217705,2,0,B|362:149|362:149|296:161,1,85.2500026016236,8|0,0:2|0:2,0:2:0:0:
0,256,217941,6,2,B|85:235|46:287|163:244,1,133.687502549887,2|0,1:2|0:0,0:1:0:0:
177,184,218178,2,0,P|128:159|84:174,1,85.2500026016236,8|0,0:2|0:0,0:0:0:0:
188,350,218414,1,2,1:2:0:0:
399,275,218532,1,0,0:0:0:0:
235,122,218650,1,8,0:2:0:0:
390,368,218768,6,2,P|476:356|468:277,1,170.500005203247,2|0,1:2|1:2,0:1:0:0:
348,114,219122,2,0,L|426:189,1,85.2500026016236,8|0,0:2|0:0,0:0:0:0:
450,4,219359,1,2,1:2:0:0:
364,40,219477,1,0,1:2:0:0:
487,141,219595,2,0,L|516:41,1,85.2500026016236,8|0,0:2|0:2,0:0:0:0:
245,129,219831,6,0,B|205:95|205:95|116:136,1,127.875003902435,2|0,1:2|0:0,0:2:0:0:
53,129,220067,1,8,0:2:0:0:
186,229,220185,2,0,P|152:265|102:249,1,85.2500026016236,2|0,1:2|0:0,0:2:0:0:
51,228,220422,1,0,1:2:0:0:
346,207,220540,6,0,P|401:220|414:266,1,85.2500026016236,8|0,0:2|0:2,0:2:0:0:
379,340,220776,2,0,P|330:350|294:317,1,85.2500026016236,2|0,1:2|0:0,0:2:0:0:
280,258,220953,1,0,0:0:0:0:
264,252,221012,1,8,0:2:0:0:
352,31,221130,1,2,0:2:0:0:
427,0,221248,2,0,L|459:90,1,85.2500026016236,0|0,0:0|1:2,0:0:0:0:
346,207,221485,1,8,0:2:0:0:
384,110,221603,1,0,0:0:0:0:
128,201,221721,6,2,B|41:182|63:227|-31:203,1,139.499995742798,4|0,1:1|0:0,0:1:0:0:
134,100,221957,2,0,L|221:131,1,77.5,8|0,0:2|0:0,0:0:0:0:
420,321,222193,5,4,1:2:0:0:
235,207,222311,1,0,0:0:0:0:
336,361,222430,1,8,0:2:0:0:
435,180,222548,6,0,P|408:150|419:82,1,92.9999971618653,4|0,1:2|0:0,0:2:0:0:
463,39,222725,1,0,0:0:0:0:
475,36,222784,1,8,0:3:0:0:
348,241,222902,1,8,0:2:0:0:
207,126,223020,1,4,1:3:0:0:
489,211,223138,6,0,P|466:196|441:189,1,54.2499983444214,2|0,1:1|0:0,0:0:0:0:
383,113,223256,2,0,P|354:120|330:135,1,58.1250022172929,10|0,1:1|0:0,0:0:0:0:
219,310,223493,6,0,B|116:343|116:343|167:223,1,193.75,4|0,1:1|0:2,0:2:0:0:
156,155,223847,1,8,0:2:0:0:
96,90,223965,1,0,1:2:0:0:
0,266,224083,2,0,L|92:228,1,85.2500026016236,2|0,0:2|1:2,0:2:0:0:
240,112,224319,2,0,B|232:145|232:145|282:194|282:194|265:238,1,127.875003902435,8|0,0:2|0:0,0:2:0:0:
339,294,224556,2,0,L|366:195,1,85.2500026016236,2|0,1:2|0:0,0:2:0:0:
395,31,224792,5,8,0:2:0:0:
491,198,224910,1,2,0:2:0:0:
504,73,225028,1,0,0:0:0:0:
368,133,225146,1,0,1:2:0:0:
504,73,225264,1,8,0:2:0:0:
270,206,225382,5,0,0:0:0:0:
221,130,225500,2,0,P|192:84|237:17,1,127.875003902435,2|0,1:2|0:0,0:0:0:0:
106,132,225737,2,0,L|3:168,1,85.2500026016236,8|0,0:2|0:2,0:0:0:0:
159,306,225973,2,0,L|184:207,1,85.2500026016236,2|0,1:2|0:0,0:2:0:0:
58,251,226209,1,8,0:2:0:0:
257,282,226327,2,0,B|351:260|324:334|439:295,1,170.500005203247,2|0,1:2|1:2,0:2:0:0:
512,159,226681,2,0,B|418:137|445:211|330:172,1,170.500005203247,8|2,0:2|1:2,0:0:0:0:
270,143,227036,1,0,1:2:0:0:
387,56,227154,5,8,0:2:0:0:
335,1,227272,1,0,0:2:0:0:
191,172,227390,2,0,P|226:151|280:143,1,85.2500026016236,2|0,1:2|0:0,0:2:0:0:
429,229,227626,1,8,0:2:0:0:
269,271,227744,2,0,B|224:262|224:262|192:286|192:286|94:265,1,170.500005203247,2|0,1:2|1:2,0:2:0:0:
85,109,228099,6,0,L|108:155,1,42.6250013008118,10|0,0:2|0:0,0:0:0:0:
232,349,228217,1,0,0:2:0:0:
191,172,228335,2,0,L|210:84,1,85.2500026016236,2|0,1:2|0:0,0:2:0:0:
87,343,228571,1,8,0:2:0:0:
308,185,228689,2,0,B|404:153|404:153|362:256,1,185.999994323731,2|0,2:2|1:2,0:2:0:0:
430,328,229044,5,10,0:2:0:0:
512,384,229162,1,0,0:2:0:0:
509,203,229280,2,2,P|475:120|481:27,1,139.499995742798,4|0,1:1|0:0,0:1:0:0:
497,28,229516,1,8,0:2:0:0:
374,262,229634,2,2,L|298:293,1,77.5,6|0,0:2|0:0,0:1:0:0:
430,328,229870,1,0,0:2:0:0:
364,62,229989,2,2,P|425:91|381:162,1,139.499995742798,14|0,0:2|0:0,0:1:0:0:
104,301,230225,5,8,0:3:0:0:
65,235,230304,2,0,L|84:167,1,61.9999981079102,8|8,0:3|0:3,0:0:0:0:
252,150,230461,1,4,0:3:0:0:
286,86,230540,2,0,L|267:18,1,61.9999981079102,4|4,0:3|0:3,0:0:0:0:
144,110,230697,6,0,P|157:150|164:178,1,54.2499983444214,10|0,0:1|0:0,0:0:0:0:
297,263,230815,2,0,P|279:301|268:335,1,58.1250022172929,6|0,1:1|0:0,0:0:0:0:
104,301,231052,6,2,P|152:321|201:235,1,170.500005203247,4|0,1:1|0:2,0:1:0:0:
470,261,231406,2,0,P|428:244|386:232,1,85.2500026016236,8|0,0:2|1:2,0:2:0:0:
252,150,231642,1,2,0:2:0:0:
445,163,231760,2,0,P|479:164|538:147,1,85.2500026016236,0|8,1:2|0:2,0:2:0:0:
425,54,231996,1,2,0:2:0:0:
368,0,232115,2,0,P|309:23|323:85,1,127.875003902435,0|0,1:0|0:0,0:0:0:0:
252,150,232351,2,0,P|225:132|161:151,1,85.2500026016236,8|0,0:2|0:2,0:2:0:0:
217,340,232587,5,2,1:2:0:0:
304,292,232705,1,0,1:2:0:0:
223,227,232823,1,8,0:2:0:0:
314,384,232941,1,0,0:2:0:0:
462,248,233059,2,2,P|441:206|413:125,1,127.875003902435,2|0,1:2|0:0,0:1:0:0:
414,129,233296,2,0,P|465:145|509:131,1,85.2500026016236,8|0,0:2|0:0,0:0:0:0:
329,11,233532,5,2,1:2:0:0:
135,125,233650,1,0,0:0:0:0:
346,217,233768,1,8,0:2:0:0:
76,211,233886,2,2,B|-10:185|-10:185|77:123,1,170.500005203247,2|0,1:2|1:2,0:1:0:0:
218,336,234241,2,0,B|146:348|162:382|96:385,1,127.875003902435,8|0,0:2|0:0,0:0:0:0:
14,334,234477,2,0,L|123:292,1,85.2500026016236,2|0,1:2|1:2,0:0:0:0:
274,246,234713,2,0,L|189:224,1,85.2500026016236,8|0,0:2|0:2,0:0:0:0:
118,25,234949,6,0,B|129:54|129:54|82:106|82:106|102:149,1,127.875003902435,2|0,1:2|0:0,0:2:0:0:
72,209,235185,1,8,0:2:0:0:
306,15,235304,2,0,P|312:45|420:22,1,170.500005203247,2|0,1:2|1:2,0:2:0:0:
280,125,235658,2,0,P|213:137|187:157,1,85.2500026016236,8|0,0:2|0:2,0:2:0:0:
492,112,235894,6,0,L|446:252,1,127.875003902435,2|0,1:2|0:0,0:2:0:0:
429,374,236130,1,8,0:2:0:0:
324,307,236248,1,2,0:2:0:0:
300,384,236367,1,0,0:0:0:0:
512,287,236485,1,0,1:2:0:0:
275,221,236603,2,0,P|220:238|176:244,1,85.2500026016236,8|0,0:2|0:0,0:0:0:0:
0,360,236839,6,2,B|34:351|34:351|67:364|67:364|165:338,1,145.3125,4|0,1:1|0:0,0:1:0:0:
51,135,237075,2,0,P|98:160|136:167,1,77.5,8|0,0:2|0:0,0:0:0:0:
348,189,237311,1,4,1:2:0:0:
82,237,237430,1,0,0:0:0:0:
186,29,237548,1,8,0:2:0:0:
296,380,237666,6,0,B|289:315|240:330|228:238,1,145.3125,4|0,1:2|0:0,0:2:0:0:
283,150,237902,1,8,0:3:0:0:
139,344,238020,1,8,0:2:0:0:
283,150,238138,1,4,1:3:0:0:
33,281,238256,6,0,P|65:260|118:260,1,54.2499983444214,2|0,1:1|0:0,0:0:0:0:
58,171,238374,2,0,P|93:156|125:162,1,58.1250022172929,10|0,1:1|0:0,0:0:0:0:
377,279,238611,6,0,P|458:293|509:207,1,170.500005203247,4|0,1:1|0:2,0:2:0:0:
446,162,238906,1,0,0:0:0:0:
446,162,238965,2,0,L|352:191,1,85.2500026016236,8|0,0:2|1:2,0:0:0:0:
227,55,239201,1,2,0:2:0:0:
323,113,239319,1,0,1:2:0:0:
271,277,239437,1,8,0:2:0:0:
226,170,239556,1,0,0:2:0:0:
371,3,239674,6,0,B|430:38|430:38|380:114,1,127.875003902435,2|0,1:2|0:0,0:2:0:0:
446,162,239910,1,8,0:2:0:0:
379,232,240028,2,0,P|441:246|474:262,1,85.2500026016236,2|0,0:2|0:0,0:2:0:0:
242,79,240264,1,0,1:2:0:0:
163,105,240382,2,0,B|117:119|117:119|98:147|98:147|30:172,1,127.875003902435,8|0,0:2|0:0,0:2:0:0:
120,222,240619,2,0,L|216:245,1,85.2500026016236,2|0,1:2|0:0,0:0:0:0:
327,384,240855,2,0,P|346:358|326:295,1,85.2500026016236,8|0,0:2|0:0,0:0:0:0:
228,158,241091,5,2,1:2:0:0:
411,259,241209,1,0,0:0:0:0:
238,384,241327,1,8,0:2:0:0:
480,303,241445,2,0,L|440:157,1,127.875003902435,2|0,1:2|0:0,0:2:0:0:
354,9,241681,1,0,1:2:0:0:
354,9,241741,1,0,1:0:0:0:
354,9,241800,2,0,L|452:47,1,85.2500026016236,8|0,0:2|0:0,0:0:0:0:
318,170,242036,2,0,L|303:64,1,85.2500026016236,0|0,1:2|0:0,0:0:0:0:
484,111,242272,2,0,L|401:153,1,85.2500026016236,8|0,2:0|0:0,0:0:0:0:
155,81,242508,6,0,P|93:76|87:149,1,127.875003902435,4|0,1:1|0:0,0:0:0:0:
175,241,242744,2,0,P|201:192|157:160,1,85.2500026016236,8|0,0:0|0:0,0:0:0:0:
32,227,242981,1,2,1:2:0:0:
136,311,243099,1,8,0:0:0:0:
58,383,243217,1,0,1:0:0:0:
278,242,243335,5,2,1:2:0:0:
339,294,243453,2,0,P|386:314|459:277,1,127.875003902435,2|0,0:0|0:0,0:0:0:0:
476,200,243689,2,0,L|378:182,1,85.2500026016236,2|0,1:2|0:0,0:0:0:0:
126,154,243926,1,8,0:0:0:0:
182,93,244044,2,0,L|269:80,1,85.2500026016236,2|0,0:0|3:0,0:0:0:0:
302,62,244221,1,0,3:0:0:0:
302,62,244280,2,0,L|289:124,1,42.6250013008118,0|0,3:0|3:0,0:0:0:0:
404,341,244398,6,2,B|328:340|361:383|262:375,1,127.875003902435,12|0,0:1|0:0,0:1:0:0:
215,341,244634,1,0,1:0:0:0:
98,159,244752,2,2,B|165:196|165:196|109:267,1,127.875003902435,12|0,0:0|0:0,0:1:0:0:
123,325,244989,2,0,L|54:347,1,42.6250013008118,0|0,1:0|0:0,0:0:0:0:
285,302,245107,2,2,L|258:214,1,85.2500026016236,12|0,0:0|0:0,0:1:0:0:
477,28,245343,5,8,0:3:0:0:
510,53,245422,5,8,0:3:0:0:
497,101,245500,5,8,0:3:0:0:
442,141,245579,5,4,0:3:0:0:
380,197,245658,5,4,0:3:0:0:
403,268,245737,5,4,0:3:0:0:
482,243,245815,5,10,0:1:0:0:
318,112,245933,2,0,P|251:131|184:137,1,116.250004434586,6|0,3:1|3:0,3:0:0:0:
103,187,246288,6,0,B|160:192|207:100|207:100|206:93|206:93|133:222|144:355|320:354|308:206|248:221,1,511.500015609742,6|0,1:2|0:2,0:2:0:0:
90,321,247941,5,0,0:2:0:0:
90,321,248020,1,0,0:2:0:0:
90,321,248099,1,0,0:2:0:0:
90,321,248178,2,0,P|134:301|219:301,1,113.666670135498,2|0,0:2|0:0,0:2:0:0:
365,355,248650,5,0,1:2:0:0:
344,324,249595,1,0,1:2:0:0:
382,295,250067,1,4,1:2:0:0:
351,267,250894,1,8,0:3:0:0:
236,232,251012,5,8,0:3:0:0:
243,209,251091,5,8,0:3:0:0:
264,180,251170,5,8,0:3:0:0:
272,150,251248,6,0,L|358:129,1,77.5,4|0,0:3|0:0,0:0:0:0:
398,196,251485,5,10,0:1:0:0:
231,65,251603,1,8,0:2:0:0:
397,55,251721,5,10,0:1:0:0:
157,180,251839,1,8,0:2:0:0:
332,294,251957,5,6,1:2:0:0:
370,323,252036,1,0,0:2:0:0:
416,303,252115,1,0,0:2:0:0:
453,313,252193,5,8,0:2:0:0:
408,272,252272,1,0,0:2:0:0:
360,282,252351,1,0,0:2:0:0:
331,314,252430,1,2,0:1:0:0:
276,320,252508,1,0,0:2:0:0:
238,285,252587,1,0,0:2:0:0:
243,239,252666,1,8,0:2:0:0:
274,215,252744,1,0,0:2:0:0:
302,222,252823,1,0,0:2:0:0:
312,236,252902,5,2,1:2:0:0:
274,258,252981,1,0,0:2:0:0:
227,228,253059,1,0,0:2:0:0:
239,171,253138,1,8,0:2:0:0:
299,151,253217,1,0,0:2:0:0:
351,136,253296,1,0,0:2:0:0:
378,89,253374,1,2,1:1:0:0:
347,42,253453,1,0,0:2:0:0:
306,48,253532,1,0,0:2:0:0:
290,71,253611,2,0,B|298:98|298:98|304:110|304:110|323:158,1,77.5,8|0,0:2|0:2,0:2:0:0:
126,225,253847,6,2,B|88:235|88:235|28:204|28:204|87:175|82:141,1,162.749995033264,2|0,1:2|0:0,0:1:0:0:
118,63,254083,2,0,L|151:148,1,77.5,8|0,0:0|0:2,0:0:0:0:
305,300,254319,2,0,B|352:310|352:310|385:285|385:285|451:302,1,145.3125,2|0,1:2|0:0,0:2:0:0:
498,257,254556,2,0,B|515:249|515:249|528:267|528:267|493:282,1,58.1250022172929,10|0,0:2|0:0,0:0:0:0:
301,115,254674,2,2,B|288:45|346:-8|346:-8|350:-3|350:-3|308:56|335:121,1,232.500008869171,2|0,1:1|1:2,0:1:0:0:
399,125,255028,2,0,L|508:161,1,85.2500026016236,8|0,0:2|0:0,0:0:0:0:
341,199,255264,5,2,1:1:0:0:
259,232,255382,1,0,1:2:0:0:
200,294,255500,5,10,0:2:0:0:
110,261,255619,1,0,0:2:0:0:
317,372,255737,5,2,1:1:0:0:
275,309,255855,1,0,0:2:0:0:
378,309,255973,5,10,0:2:0:0:
416,232,256091,1,0,1:2:0:0:
329,195,256209,5,2,0:1:0:0:
354,122,256327,1,0,1:2:0:0:
269,111,256445,5,10,0:2:0:0:
244,37,256563,1,0,0:2:0:0:
191,106,256681,5,2,1:1:0:0:
56,44,256800,1,0,0:2:0:0:
179,0,256918,5,10,0:2:0:0:
0,132,257036,1,0,0:2:0:0:
230,214,257154,6,2,P|269:226|303:246,1,56.8333350677491,2|0,1:1|0:0,0:1:0:0:
376,184,257311,2,0,P|420:202|437:233,1,56.8333350677491,2|8,0:1|0:0,0:0:0:0:
361,325,257469,2,0,P|322:328|300:315,1,56.8333350677491,2|0,0:1|0:0,0:0:0:0:
101,237,257626,6,2,B|5:281|5:281|4:276|4:276|66:204,1,174.375006651879,6|0,1:1|0:0,0:1:0:0:
141,150,257863,2,0,B|106:136|106:136|58:153|58:153|-17:125,1,151.124993082047,8|0,0:0|0:0,0:0:0:0:
161,299,258099,1,6,1:2:0:0:
381,159,258217,1,0,1:0:0:0:
125,20,258335,1,8,0:2:0:0:
291,201,258453,2,2,B|329:304|329:304|319:306|319:306|276:219,1,201.499990776062,2|8,1:1|0:3,0:1:0:0:
231,155,258748,1,0,0:0:0:0:
237,141,258807,1,10,0:2:0:0:
409,280,258926,1,8,0:2:0:0:
175,218,259044,5,2,1:1:0:0:
324,86,259162,1,8,0:2:0:0:
175,218,259280,1,0,1:2:0:0:
372,200,259398,6,2,B|450:160|528:213|525:306,1,201.499990776062,6|0,1:1|0:2,0:1:0:0:
494,382,259752,2,0,L|475:336,1,50.3749976940156,8|0,0:2|0:0,0:0:0:0:
300,243,259870,2,0,B|293:229|305:181|352:171|387:164|431:112|401:68,1,201.499990776062,0|0,1:2|1:2,0:2:0:0:
215,63,260225,2,0,P|238:122|252:174,1,85.2500026016236,8|0,0:2|0:0,0:2:0:0:
367,30,260461,2,0,P|329:17|280:-1,1,85.2500026016236,2|0,1:2|0:0,0:0:0:0:
328,169,260697,2,0,P|369:133|410:102,1,85.2500026016236,8|0,0:2|0:0,0:0:0:0:
306,88,260933,5,2,1:2:0:0:
153,193,261052,2,0,L|205:319,1,127.875003902435,2|0,0:1|0:0,0:1:0:0:
23,223,261288,5,2,3:2:0:0:
23,223,261347,1,0,3:0:0:0:
23,223,261406,2,2,B|77:175|77:175|20:94,1,170.500005203247,2|8,1:1|0:0,0:1:0:0:
87,288,261760,1,0,0:2:0:0:
224,136,261878,2,2,L|294:105,1,56.8333350677491,2|0,1:2|0:2,0:1:0:0:
179,20,262036,2,2,L|165:95,1,56.8333350677491,2|8,0:1|0:2,0:1:0:0:
292,197,262193,2,2,L|317:255,1,56.8333350677491,2|0,0:1|0:2,0:1:0:0:
123,199,262351,6,2,P|159:209|192:221,1,56.8333350677491,2|0,1:1|0:2,0:1:0:0:
260,342,262508,2,2,P|302:354|329:358,1,56.8333350677491,2|8,0:1|0:2,0:1:0:0:
175,324,262666,2,2,L|296:289,1,113.666670135498,2|0,0:2|1:0,0:1:0:0:
460,325,262941,1,0,1:2:0:0:
369,169,263059,2,2,B|398:200|398:200|473:215,1,85.2500026016236,10|0,0:2|0:2,0:1:0:0:
154,108,263296,5,2,1:1:0:0:
278,188,263414,1,0,0:2:0:0:
300,101,263532,5,10,0:2:0:0:
144,195,263650,1,0,1:2:0:0:
313,309,263768,5,2,0:1:0:0:
221,268,263886,1,0,1:2:0:0:
313,309,264004,1,10,0:2:0:0:
161,345,264122,5,2,0:1:0:0:
358,236,264241,1,0,1:1:0:0:
161,345,264359,1,0,0:2:0:0:
115,242,264477,5,10,0:1:0:0:
369,384,264595,1,0,0:2:0:0:
355,152,264713,6,2,P|344:120|335:79,2,56.8333350677491,2|0|0,1:2|0:0|0:0,0:1:0:0:
194,163,264949,2,0,L|240:145,1,42.6250013008118,8|0,3:2|3:2,0:0:0:0:
214,61,265067,2,0,L|267:79,1,42.6250013008118,0|0,3:2|3:2,0:0:0:0:
474,17,265185,6,2,P|452:83|425:202,1,174.375006651879,6|0,1:2|0:0,0:1:0:0:
431,262,265422,1,8,0:2:0:0:
98,311,265540,2,2,B|137:299|155:270|155:270|216:282|241:314|241:314|202:341|207:377,1,232.500008869171,2|0,0:1|1:2,0:1:0:0:
349,238,265894,2,2,P|285:224|248:206,1,85.2500026016236,10|0,0:1|1:2,0:1:0:0:
156,88,266130,5,2,3:2:0:0:
128,65,266209,1,0,3:3:0:0:
136,21,266288,1,0,3:3:0:0:
183,0,266367,1,8,3:2:0:0:
234,25,266445,1,0,3:3:0:0:
266,76,266524,1,0,3:3:0:0:
252,134,266603,1,10,3:2:0:0:
214,186,266681,1,0,3:2:0:0:
226,249,266760,1,0,3:2:0:0:
274,278,266839,1,0,1:3:0:0:
319,258,266918,1,0,3:2:0:0:
323,223,266996,1,0,3:2:0:0:
321,205,267075,37,6,1:1:0:0:
297,192,267154,1,0,0:2:0:0:
271,198,267233,1,0,0:2:0:0:
252,217,267311,1,8,0:2:0:0:
244,244,267390,1,0,0:2:0:0:
253,272,267469,1,0,0:2:0:0:
272,295,267548,1,2,0:2:0:0:
301,305,267626,1,0,0:2:0:0:
334,301,267705,1,0,0:2:0:0:
364,286,267784,1,8,0:2:0:0:
386,260,267863,1,0,0:2:0:0:
397,223,267941,1,0,0:2:0:0:
394,188,268020,1,2,1:1:0:0:
377,155,268099,1,0,0:2:0:0:
344,129,268178,1,0,0:2:0:0:
307,119,268256,1,8,0:2:0:0:
265,120,268335,1,0,0:2:0:0:
225,138,268414,1,0,0:2:0:0:
194,170,268493,1,2,1:1:0:0:
176,211,268571,1,0,0:2:0:0:
170,258,268650,1,0,0:2:0:0:
187,308,268729,1,8,0:2:0:0:
219,347,268807,1,0,0:2:0:0:
264,374,268886,1,0,0:2:0:0:
319,381,268965,1,2,1:1:0:0:
374,370,269044,1,0,0:2:0:0:
421,335,269122,1,0,0:2:0:0:
457,286,269201,1,8,0:2:0:0:
472,225,269280,1,0,0:2:0:0:
467,162,269359,1,0,0:2:0:0:
432,104,269437,1,2,1:1:0:0:
378,63,269516,1,0,0:2:0:0:
311,43,269595,1,0,0:2:0:0:
237,50,269674,1,8,0:2:0:0:
172,83,269752,1,0,0:2:0:0:
120,142,269831,1,0,0:2:0:0:
96,223,269910,6,2,P|92:290|123:345,1,116.250004434586,2|0,1:1|0:0,0:1:0:0:
240,221,270146,2,0,B|317:202|304:258|410:222,1,139.499995742798,8|0,0:0|0:0,0:0:0:0:
418,147,270382,2,0,B|436:135|436:135|451:151|451:151|422:177,1,58.1250022172929,2|0,1:2|0:0,0:0:0:0:
281,322,270500,2,2,L|178:291,1,77.5,2|8,1:1|0:0,0:1:0:0:
358,93,270737,5,0,0:2:0:0:
258,1,270855,2,0,P|249:75|306:163,1,151.124993082047,2|0,1:1|0:0,0:2:0:0:
378,214,271091,2,0,P|350:204|302:214,1,67.1666635920208,8|0,0:2|0:0,0:2:0:0:
194,158,271248,2,0,P|145:175|125:227,1,100.749995388031
84,298,271445,1,2,1:2:0:0:
0,42,271563,6,2,B|61:93|61:93|-22:142,1,151.124993082047,10|0,0:1|0:0,0:1:0:0:
110,35,271800,2,0,P|181:60|218:67,1,100.749995388031,0|0,1:2|0:0,0:0:0:0:
262,149,272036,5,10,0:2:0:0:
358,103,272154,1,0,0:2:0:0:
411,167,272272,5,2,1:1:0:0:
508,206,272390,1,0,1:2:0:0:
339,228,272508,5,10,0:2:0:0:
470,100,272626,1,0,0:2:0:0:
240,14,272744,5,6,1:1:0:0:
411,167,272863,1,0,0:2:0:0:
217,288,272981,1,10,0:2:0:0:
411,167,273099,1,0,0:2:0:0:
222,109,273217,6,2,B|197:103|184:85|184:85|136:108|136:108|125:161|83:174,1,174.375006651879,6|0,1:2|0:0,0:1:0:0:
18,160,273453,1,8,0:2:0:0:
130,17,273571,2,2,P|159:75|188:194,1,185.999994323731,2|0,1:2|1:2,0:1:0:0:
446,237,273926,2,2,P|427:291|423:341,1,85.2500026016236,10|0,0:2|0:2,0:1:0:0:
127,256,274162,2,0,P|158:287|175:316,1,54.2499983444214,2|0,1:1|0:0,0:0:0:0:
405,146,274280,2,0,P|381:191|371:220,1,58.1250022172929,14|0,0:1|0:0,0:0:0:0:
251,291,274516,6,2,B|332:341|332:341|336:336|336:336|303:229,1,193.75,6|0,1:2|0:0,0:1:0:0:
325,89,274870,2,0,L|228:129,1,89.1250016999245,10|0,0:2|1:2,0:2:0:0:
172,16,275107,2,0,L|262:37,1,89.1250016999245,2|0,0:2|1:2,0:2:0:0:
466,171,275343,2,2,P|406:160|369:167,1,89.1250016999245,10|0,0:1|0:2,0:1:0:0:
87,196,275579,6,2,P|108:239|109:264,1,59.4166677999497,2|0,1:1|0:2,0:1:0:0:
232,269,275737,2,2,P|248:317|238:344,1,59.4166677999497,2|8,0:1|0:2,0:1:0:0:
151,328,275894,2,2,P|144:355|116:382,1,59.4166677999497,2|0,0:1|0:2,0:1:0:0:
38,286,276052,1,2,1:1:0:0:
225,170,276170,2,0,P|263:183|321:204,1,89.1250016999245,2|8,1:1|0:0,0:2:0:0:
372,255,276406,1,0,0:2:0:0:
241,89,276524,6,2,B|286:40|286:40|277:39|277:39|130:108,1,209.250000798225,2|8,1:2|0:0,0:1:0:0:
133,205,276878,1,0,0:2:0:0:
357,96,276996,2,2,P|404:103|407:181,1,133.687502549887,2|0,1:2|0:0,0:1:0:0:
458,238,277233,1,8,0:2:0:0:
236,312,277351,2,2,B|222:301|222:301|258:237|258:237|270:236|270:236|318:186|318:186|280:150,1,222.812504249811,2|0,1:2|0:0,0:1:0:0:
194,119,277705,2,0,L|215:185,1,44.5625008499623,10|0,0:2|0:0,0:0:0:0:
97,318,277823,2,0,P|51:337|17:234,1,178.250003399849,2|0,0:1|1:2,0:2:0:0:
44,89,278178,6,0,L|88:118,1,44.5625008499623,10|0,0:1|0:0,0:0:0:0:
80,202,278296,2,0,L|127:181,1,44.5625008499623,0|0,0:2|0:0,0:0:0:0:
313,100,278414,6,2,B|394:82|371:125|459:98,1,145.3125,2|0,1:1|0:0,0:1:0:0:
500,204,278650,1,10,0:1:0:0:
390,176,278768,1,0,0:1:0:0:
328,245,278886,5,2,0:1:0:0:
178,307,279004,1,0,1:1:0:0:
328,245,279122,1,10,0:1:0:0:
192,199,279241,1,0,0:1:0:0:
406,344,279359,5,2,1:1:0:0:
299,337,279477,1,0,0:1:0:0:
456,240,279595,5,10,0:1:0:0:
208,301,279713,1,0,0:1:0:0:
512,323,279831,5,2,1:1:0:0:
265,157,279949,1,0,1:1:0:0:
490,85,280067,2,2,P|468:129|454:172,1,81.3749975166322,10|0,0:1|0:1,0:1:0:0:
147,227,280304,6,2,B|106:255|30:248|30:248|83:239|111:198,1,209.250000798225,6|8,1:1|0:2,0:1:0:0:
164,0,280658,2,2,P|196:73|198:115,1,104.625000399113,6|0,0:2|0:0,0:1:0:0:
186,113,280835,1,0,0:0:0:0:
186,113,280894,2,0,L|129:130,1,52.3125001995564,0|0,0:2|0:0,0:0:0:0:
237,339,281012,2,2,B|239:309|216:296|216:296|236:209|332:254,1,156.937500598669,14|0,0:2|0:0,0:1:0:0:
456,346,281248,5,8,3:3:0:0:
496,318,281327,5,8,3:3:0:0:
479,263,281406,5,8,3:3:0:0:
414,224,281484,5,4,3:3:0:0:
379,156,281563,5,4,3:3:0:0:
429,94,281642,5,4,3:3:0:0:
490,144,281721,5,8,0:2:0:0:
405,240,281839,6,0,L|373:364,1,116.250004434586,8|0,0:2|0:0,0:0:0:0:
153,189,282636,1,2,0:2:0:0:
159,200,282732,1,2,0:2:0:0:
162,214,282830,1,2,0:1:0:0:
256,192,282889,12,0,289916,0:2:0:0:
