osu file format v14

[General]
AudioFilename: audio.mp3
AudioLeadIn: 0
PreviewTime: 168217
Countdown: 0
SampleSet: Soft
StackLeniency: 0.6
Mode: 0
LetterboxInBreaks: 0
WidescreenStoryboard: 1

[Editor]
Bookmarks: 21406,49516,49575,49634,49693,70422,85540,100776,103493,103611,104556,119674,132666,153571,183453,183926,198926,206485,215933,216052,216170,216288,216406,231052,246288,251957,261878
DistanceSpacing: 0.3
BeatDivisor: 4
GridSize: 32
TimelineZoom: 2.400001

[Metadata]
Title:secret deep blue
TitleUnicode:secret deep blue
Artist:Nakae Mitsuki
ArtistUnicode:中恵光城
Creator:Deca
Version:lasse's expert
Source:カスタムオーダーメイド3D2
Tags:sdb silky kanau fuyuyu- kowari shizuku- shikibe mayu kazato asa lasse brasse EPiDOTE eroge hentai video game one custom order maid 3d 2 it's a night magic best works album japanese rock masaru teramae tokunan 寺前 甲 Shigetoshi Yamada 山田 重利
BeatmapID:2996556
BeatmapSetID:1451629

[Difficulty]
HPDrainRate:6
CircleSize:4
OverallDifficulty:9
ApproachRate:9.5
SliderMultiplier:3.2
SliderTickRate:1

[Events]
//Background and Video events
0,0,"bglasse.jpg",0,0
//Break Periods
2,184126,185290
2,186015,186944
2,187906,189070
2,189795,190723
2,191685,192849
2,193574,194503
2,195465,196629
//Storyboard Layer 0 (Background)
//Storyboard Layer 1 (Fail)
//Storyboard Layer 2 (Pass)
//Storyboard Layer 3 (Foreground)
//Storyboard Layer 4 (Overlay)
//Storyboard Sound Samples

[TimingPoints]
619,472.44094488189,4,2,34,50,1,0
2508,-111.111111111111,4,2,34,55,0,0
3453,-111.111111111111,4,2,34,60,0,0
4044,-133.333333333333,4,2,34,55,0,0
4398,-90.9090909090909,4,2,34,65,0,0
15737,-90.9090909090909,4,2,34,60,0,0
17626,-90.9090909090909,4,2,34,65,0,0
19044,-111.111111111111,4,2,34,60,0,0
19280,-200,4,2,34,55,0,0
19516,-200,4,2,34,40,0,0
19634,-200,4,2,34,20,0,0
20343,-200,4,2,34,25,0,0
20461,-200,4,2,34,50,0,0
20697,-133.333333333333,4,2,34,55,0,0
21288,-133.333333333333,4,2,34,50,0,0
21406,-111.111111111111,4,2,34,55,0,0
21642,-133.333333333333,4,2,34,55,0,0
34398,-200,4,2,34,55,0,0
34634,-200,4,2,34,20,0,0
35107,-200,4,2,34,30,0,0
35343,-133.333333333333,4,2,34,50,0,0
35579,-166.666666666667,4,2,34,50,0,0
36465,-166.666666666667,4,2,34,5,0,0
36524,-111.111111111111,4,2,34,55,0,0
36760,-133.333333333333,4,2,34,55,0,0
49516,-153.846153846154,4,2,34,55,0,0
49575,-153.846153846154,4,2,34,20,0,0
49989,-114.942528735632,4,2,34,50,0,0
50697,-117.647058823529,4,2,34,55,0,0
51170,-111.111111111111,4,2,34,60,0,0
51642,-90.9090909090909,4,2,34,65,0,0
52469,-111.111111111111,4,2,34,60,0,0
53473,-111.111111111111,4,2,34,5,0,0
53532,-90.9090909090909,4,2,34,65,0,0
55422,-133.333333333333,4,2,34,50,0,0
59201,-100,4,2,34,55,0,0
62981,-100,4,2,34,60,0,0
66996,-133.333333333333,4,2,34,45,0,0
68532,-166.666666666667,4,2,34,60,0,0
69831,-166.666666666667,4,2,34,50,0,0
70067,-71.4285714285714,4,2,34,60,0,0
70185,-133.333333333333,4,2,34,60,0,0
70422,-83.3333333333333,4,2,34,70,0,1
75973,-83.3333333333333,4,2,34,70,0,0
76209,-66.6666666666667,4,2,34,70,0,1
77744,-66.6666666666667,4,2,34,70,0,0
77981,-83.3333333333333,4,2,34,70,0,1
83532,-83.3333333333333,4,2,34,70,0,0
83768,-62.5,4,2,34,70,0,1
85304,-66.6666666666667,4,2,34,70,0,0
85540,-83.3333333333333,4,2,34,70,0,1
91091,-83.3333333333333,4,2,34,70,0,0
91327,-66.6666666666667,4,2,34,70,0,1
92863,-66.6666666666667,4,2,34,70,0,0
93099,-83.3333333333333,4,2,34,70,0,1
96996,-76.9230769230769,4,2,34,70,0,1
98650,-76.9230769230769,4,2,34,70,0,0
98886,-66.6666666666667,4,2,34,70,0,1
100422,-133.333333333333,4,2,34,70,0,0
100776,-181.818181818181,4,2,34,50,0,0
100894,-181.818181818181,4,2,34,20,0,0
102193,-181.818181818181,4,2,34,40,0,0
102666,-181.818181818181,4,2,34,50,0,0
103493,-100,4,2,34,60,0,0
104556,-90.9090909090909,4,2,34,65,0,0
115894,-133.333333333333,4,2,34,55,0,0
118493,-100,4,2,34,60,0,0
119674,-133.333333333333,4,2,34,60,0,0
120855,-100,4,2,34,65,0,0
123453,-133.333333333333,4,2,34,55,0,0
132666,-153.846153846153,4,2,34,55,0,0
132725,-153.846153846153,4,2,34,20,0,0
133138,-111.111111111111,4,2,34,50,0,0
133847,-111.111111111111,4,2,34,55,0,0
134319,-111.111111111111,4,2,34,60,0,0
134792,-90.9090909090909,4,2,34,65,0,0
135619,-111.111111111111,4,2,34,60,0,0
136622,-111.111111111111,4,2,34,5,0,0
136681,-90.9090909090909,4,2,34,65,0,0
138571,-133.333333333333,4,2,34,50,0,0
142351,-100,4,2,34,55,0,0
146130,-100,4,2,34,60,0,0
148020,-100,4,2,34,60,0,0
148729,-100,4,2,34,60,0,0
149437,-71.4285714285714,4,2,34,60,0,0
149556,-133.333333333333,4,2,34,60,0,0
150146,-133.333333333333,4,2,34,45,0,0
151681,-133.333333333333,4,2,34,60,0,0
152981,-133.333333333333,4,2,34,50,0,0
153217,-71.4285714285714,4,2,34,60,0,0
153571,-83.3333333333333,4,2,34,70,0,1
159122,-83.3333333333333,4,2,34,70,0,0
159359,-66.6666666666667,4,2,34,70,0,1
160894,-66.6666666666667,4,2,34,70,0,0
161130,-83.3333333333333,4,2,34,70,0,1
166681,-83.3333333333333,4,2,34,70,0,0
166918,-62.5,4,2,34,70,0,1
168099,-62.5,4,2,34,70,0,1
168453,-66.6666666666667,4,2,34,70,0,0
168689,-83.3333333333333,4,2,34,70,0,1
174241,-83.3333333333333,4,2,34,70,0,0
174477,-66.6666666666667,4,2,34,70,0,1
176012,-66.6666666666667,4,2,34,70,0,0
176248,-83.3333333333333,4,2,34,70,0,1
180146,-76.9230769230769,4,2,34,70,0,1
182036,-153.846153846154,4,2,34,65,0,0
182154,-153.846153846154,4,2,34,30,0,0
183571,-133.333333333333,4,2,34,40,0,0
197863,-111.111111111111,4,2,34,55,0,0
198099,-111.111111111111,4,2,34,60,0,0
198571,-111.111111111111,4,2,34,65,0,0
198867,-111.111111111111,4,2,34,5,0,0
198926,-58.8235294117647,4,2,34,75,0,1
199162,-58.8235294117647,4,2,34,65,0,1
199280,-83.3333333333333,4,2,34,70,0,0
206485,-71.4285714285714,4,2,34,70,0,1
206839,-83.3333333333333,4,2,34,70,0,0
215933,-83.3333333333333,4,2,34,70,0,1
221485,-83.3333333333333,4,2,34,70,0,0
221721,-66.6666666666667,4,2,34,70,0,1
223256,-66.6666666666667,4,2,34,70,0,0
223493,-83.3333333333333,4,2,34,70,0,1
229044,-83.3333333333333,4,2,34,70,0,0
229280,-62.5,4,2,34,70,0,1
230815,-66.6666666666667,4,2,34,70,0,0
231052,-83.3333333333333,4,2,34,70,0,1
236603,-83.3333333333333,4,2,34,70,0,0
236839,-66.6666666666667,4,2,34,70,0,1
238374,-66.6666666666667,4,2,34,70,0,0
238611,-83.3333333333333,4,2,34,70,0,1
242508,-76.9230769230769,4,2,34,70,0,1
244162,-66.6666666666667,4,2,34,70,0,0
244398,-66.6666666666667,4,2,34,70,0,1
245933,-133.333333333333,4,2,34,70,0,0
246288,-181.818181818181,4,2,34,50,0,0
246406,-181.818181818181,4,2,34,20,0,0
247705,-181.818181818181,4,2,34,30,0,0
247941,-153.846153846153,4,2,34,40,0,0
248178,-153.846153846153,4,2,34,50,0,0
250894,-153.846153846153,4,2,34,55,0,0
251012,-90.9090909090909,4,2,34,60,0,0
251957,-76.9230769230769,4,2,34,70,0,1
253374,-90.9090909090909,4,2,34,70,0,1
253847,-76.9230769230769,4,2,34,70,0,1
257154,-90.9090909090909,4,2,34,70,0,1
257626,-66.6666666666667,4,2,34,70,0,1
258099,-71.4285714285714,4,2,34,70,0,1
258453,-83.3333333333333,4,2,34,70,0,1
259398,-71.4285714285714,4,2,34,70,0,1
259752,-83.3333333333333,4,2,34,70,0,1
261406,-76.9230769230769,4,2,34,70,0,1
265185,-66.6666666666667,4,2,34,70,0,1
266130,-66.6666666666667,4,2,34,65,0,1
267075,-66.6666666666667,4,2,34,70,0,1
270382,-76.9230769230769,4,2,34,70,0,1
273217,-66.6666666666667,4,2,34,70,0,1
273926,-83.3333333333333,4,2,34,70,0,1
274280,-133.333333333333,4,2,34,70,0,0
274516,-66.6666666666667,4,2,34,70,0,1
274870,-83.3333333333333,4,2,34,70,0,1
277705,-71.4285714285714,4,2,34,70,0,1
278414,-76.9230769230769,4,2,34,70,0,1
279359,-71.4285714285714,4,2,34,70,0,1
280304,-58.8235294117647,4,2,34,75,0,1
280658,-62.5,4,2,34,75,0,1
282636,576.923076923077,4,2,34,50,1,0
282830,472.44094488189,4,2,34,50,1,0
282830,-250,4,2,34,50,0,0
282889,-250,4,2,34,40,0,0
284719,-250,4,2,34,30,0,0
286609,-250,4,2,34,20,0,0
288499,-250,4,2,34,10,0,0
289916,-250,4,2,35,20,0,0

[Colours]
Combo1 : 200,180,220
Combo2 : 240,140,140
Combo3 : 255,225,140
Combo4 : 180,220,160

[HitObjects]
46,69,619,5,0,1:2:0:0:
14,146,1091,5,0,1:2:0:0:
29,241,1563,5,0,1:2:0:0:
107,313,2036,5,0,1:2:0:0:
377,226,2508,6,0,P|467:241|482:301,1,143.999995605469,4|0,1:2|3:2,0:2:0:0:
482,300,2804,1,0,3:2:0:0:
476,317,2863,1,0,3:2:0:0:
465,331,2922,1,0,3:2:0:0:
449,339,2981,1,0,3:2:0:0:
333,307,3099,2,0,P|332:242|309:158,1,143.999995605469,0|0,1:2|1:2,2:2:0:0:
235,70,3453,5,8,0:3:0:0:
213,95,3532,1,8,0:3:0:0:
179,101,3611,1,8,0:3:0:0:
153,125,3689,5,4,0:3:0:0:
128,101,3768,1,4,0:3:0:0:
94,96,3847,1,4,0:3:0:0:
70,67,3926,6,0,P|52:100|35:151,1,71.9999978027344,8|8,0:2|2:3,0:2:0:0:
0,324,4398,6,2,B|106:297|106:297|117:329|146:349,1,176.000005371094,4|0,1:1|0:2,0:1:0:0:
282,384,4752,2,0,P|270:348|264:296,1,88.000002685547,2|8,1:1|0:2,0:2:0:0:
407,134,5107,2,2,P|481:156|445:89,1,176.000005371094,2|0,1:2|0:2,0:1:0:0:
463,91,5461,1,8,0:2:0:0:
479,203,5579,1,2,1:1:0:0:
264,298,5815,5,10,0:1:0:0:
103,101,6052,6,2,P|5:144|13:297,1,264.000008056641,4|0,1:2|0:2,0:1:0:0:
20,363,6524,2,2,P|67:342|107:337,1,88.000002685547,0|0,1:2|0:2,0:1:0:0:
264,298,6760,2,2,P|217:277|177:272,1,88.000002685547,8|0,0:2|0:2,0:1:0:0:
277,108,6996,1,2,1:2:0:0:
362,181,7115,2,2,B|439:179|439:179|345:131,1,176.000005371094,2|8,0:1|0:2,0:1:0:0:
277,108,7469,1,0,1:2:0:0:
502,14,7705,5,8,0:2:0:0:
417,60,7823,1,8,0:2:0:0:
499,109,7941,1,8,0:3:0:0:
281,195,8178,6,2,P|244:297|263:377,1,176.000005371094,2|0,1:1|0:2,0:1:0:0:
362,306,8532,2,0,P|412:295|478:300,1,88.000002685547,2|8,1:1|0:2,0:2:0:0:
184,121,8886,2,2,B|203:199|136:234|136:234|77:189,1,176.000005371094,2|0,1:2|0:2,0:1:0:0:
102,208,9241,1,8,0:2:0:0:
129,333,9359,1,2,1:1:0:0:
9,130,9595,5,10,0:1:0:0:
244,35,9831,6,2,B|256:80|305:86|305:86|339:46|394:55,1,176.000005371094,4|0,1:2|0:2,0:1:0:0:
465,109,10185,1,8,0:2:0:0:
473,12,10304,1,0,1:2:0:0:
267,179,10540,5,10,0:1:0:0:
478,310,10776,5,2,1:1:0:0:
478,310,10894,1,8,0:2:0:0:
404,266,11012,5,2,1:1:0:0:
419,372,11130,1,8,0:2:0:0:
346,329,11248,5,2,1:1:0:0:
478,310,11367,1,8,0:2:0:0:
398,238,11485,6,0,L|381:151,1,88.000002685547,2|8,1:1|0:2,0:2:0:0:
229,298,11721,2,0,L|212:384,1,88.000002685547,2|8,1:2|0:3,0:2:0:0:
115,202,11957,6,2,B|75:225|75:225|6:207|11:124,1,176.000005371094,4|0,1:2|1:2,2:1:0:0:
144,86,12311,2,2,P|154:41|146:-1,1,88.000002685547,2|8,0:1|0:1,0:2:0:0:
381,151,12666,2,2,B|421:174|421:174|490:156|485:73,1,176.000005371094,2|0,0:2|1:2,0:1:0:0:
485,74,13020,1,8,0:2:0:0:
459,202,13138,1,2,0:1:0:0:
262,39,13374,5,10,0:1:0:0:
89,197,13611,6,2,B|31:291|122:371|122:371|147:346|185:346,1,264.000008056641,4|0,1:2|0:2,0:1:0:0:
313,298,14083,2,2,P|327:340|331:384,1,88.000002685547,0|0,1:1|0:2,0:1:0:0:
175,239,14319,2,2,P|178:195|192:153,1,88.000002685547,8|0,0:2|0:2,0:1:0:0:
320,60,14556,1,2,1:2:0:0:
407,96,14674,2,2,B|494:136|494:136|489:102|489:102|448:80,1,176.000005371094,2|8,0:1|0:2,0:1:0:0:
320,60,15028,1,0,1:2:0:0:
463,325,15264,5,8,0:2:0:0:
402,249,15382,1,8,0:2:0:0:
367,340,15500,1,8,0:3:0:0:
249,143,15737,6,2,P|201:134|135:237,1,176.000005371094,0|0,1:2|1:2,0:1:0:0:
33,325,16091,2,0,P|74:314|127:309,1,88.000002685547,2|8,0:1|0:2,0:2:0:0:
434,384,16445,2,2,P|385:361|247:353,1,176.000005371094,2|0,1:2|1:2,0:1:0:0:
175,374,16800,1,8,0:2:0:0:
263,265,16918,2,2,P|271:221|266:178,1,88.000002685547,2|0,0:2|0:2,0:1:0:0:
224,52,17154,1,10,0:2:0:0:
149,104,17272,2,2,B|66:139|66:139|-20:69,1,176.000005371094,2|0,1:1|0:2,0:1:0:0:
235,19,17626,6,2,B|347:-5|297:61|430:37,1,176.000005371094,6|0,1:1|0:2,0:1:0:0:
503,136,17981,2,0,P|505:89|489:50,1,88.000002685547,10|0,0:1|0:2,0:2:0:0:
258,184,18335,2,2,B|146:160|196:226|63:202,1,176.000005371094,0|0,1:2|3:2,0:1:0:0:
71,199,18630,1,0,3:2:0:0:
55,191,18689,1,0,3:2:0:0:
41,179,18748,1,0,3:2:0:0:
29,165,18807,1,0,3:2:0:0:
187,1,19044,6,2,P|207:55|183:154,1,143.999995605469,10|0,0:1|1:3,0:1:0:0:
192,138,19516,6,0,B|234:78|336:96|297:148|400:178|442:88,1,280,2|0,0:2|0:2,0:2:0:0:
480,20,20461,5,8,0:3:0:0:
439,250,20697,1,8,0:2:0:0:
512,300,20933,5,8,0:3:0:0:
439,250,21052,1,8,0:2:0:0:
375,308,21170,2,0,P|360:349|360:369,1,60.0000022888184,2|0,1:2|0:2,0:2:0:0:
291,238,21406,6,2,B|211:239|253:187|150:197,1,143.999995605469,4|0,1:2|0:2,0:1:0:0:
111,132,21760,1,0,1:2:0:0:
174,275,21878,2,0,P|132:294|45:278,1,120.000004577637,8|0,0:2|0:2,0:2:0:0:
111,132,22233,2,0,P|153:113|240:129,1,120.000004577637,10|8,0:2|0:2,0:2:0:0:
282,68,22587,1,0,1:2:0:0:
378,227,22823,2,0,P|358:283|375:370,1,120.000004577637,10|0,0:2|0:2,0:2:0:0:
426,384,23178,2,0,P|459:372|483:368,1,60.0000022888184,2|0,0:2|1:2,0:2:0:0:
363,209,23532,6,0,P|330:197|306:193,1,60.0000022888184,2|0,0:2|1:2,0:2:0:0:
185,207,23768,1,8,0:2:0:0:
240,148,23886,2,0,P|260:91|254:32,1,120.000004577637,2|8,1:2|0:2,0:2:0:0:
342,89,24241,2,0,P|384:78|435:74,2,60.0000022888184,2|8|0,0:2|0:2|0:3,0:2:0:0:
176,33,24595,1,2,0:2:0:0:
176,33,24713,2,0,P|105:41|52:7,1,120.000004577637,8|0,0:2|0:2,0:2:0:0:
130,238,25185,6,0,P|76:213|17:224,1,120.000004577637,2|0,1:2|0:2,0:2:0:0:
18,223,25540,1,0,1:2:0:0:
153,253,25658,2,0,P|200:218|220:162,1,120.000004577637,8|0,0:2|0:2,0:2:0:0:
129,266,26012,2,0,P|135:324|173:370,1,120.000004577637,10|8,0:2|0:2,0:2:0:0:
300,318,26367,6,0,L|290:381,1,60.0000022888184,2|0,1:2|0:2,0:2:0:0:
396,298,26603,2,0,L|386:361,1,60.0000022888184,8|0,0:2|0:2,0:2:0:0:
287,239,26839,2,0,L|277:302,1,60.0000022888184,0|0,0:2|0:2,0:2:0:0:
421,204,27075,6,0,P|479:205|510:129,1,120.000004577637,2|0,1:2|1:2,0:2:0:0:
499,80,27430,1,2,0:2:0:0:
388,29,27548,2,0,P|420:23|452:20,1,60.0000022888184,8|0,0:2|1:2,0:2:0:0:
301,125,27784,2,0,P|330:128|360:133,1,60.0000022888184,2|8,0:2|0:2,0:2:0:0:
218,17,28020,5,2,0:1:0:0:
136,82,28138,2,0,P|118:115|131:232,1,120.000004577637,8|0,0:2|0:2,0:1:0:0:
280,239,28493,2,0,P|303:184|301:125,1,120.000004577637,8|0,0:2|0:2,0:2:0:0:
443,366,28965,6,0,P|383:333|308:338,1,120.000004577637,4|0,1:2|0:2,0:2:0:0:
280,239,29319,1,0,1:2:0:0:
213,370,29437,2,0,P|153:365|102:335,1,120.000004577637,8|0,0:2|0:2,0:2:0:0:
88,195,29792,1,10,0:2:0:0:
16,243,29910,2,0,P|6:271|1:305,1,60.0000022888184,0|8,1:2|0:2,0:2:0:0:
185,285,30146,2,0,P|180:255|170:227,1,60.0000022888184,2|0,1:2|0:2,0:2:0:0:
15,162,30382,2,0,P|21:116|51:36,1,120.000004577637,10|0,0:2|0:2,0:2:0:0:
157,57,30737,2,0,P|151:27|138:1,1,60.0000022888184,2|0,0:2|1:2,0:2:0:0:
334,140,31091,6,0,P|362:130|392:127,1,60.0000022888184,2|0,0:2|1:2,0:2:0:0:
510,207,31327,2,0,P|487:187|469:162,1,60.0000022888184,10|0,0:2|0:2,0:2:0:0:
481,22,31563,1,2,0:2:0:0:
481,22,31681,2,0,P|475:51|462:78,1,60.0000022888184,8|0,0:2|0:2,0:2:0:0:
338,144,31918,1,10,0:2:0:0:
338,144,32036,2,0,P|274:119|198:130,1,120.000004577637,0|8,1:2|0:2,0:2:0:0:
0,351,32508,6,0,P|28:342|58:337,1,60.0000022888184,2|0,0:2|0:2,0:2:0:0:
153,256,32744,2,0,P|93:256|39:231,1,120.000004577637,2|0,1:2|0:2,0:2:0:0:
0,151,33099,2,0,P|6:122|16:92,1,60.0000022888185,2|8,1:2|0:2,0:2:0:0:
299,15,33453,5,2,2:2:0:0:
299,15,33571,1,8,0:2:0:0:
385,50,33689,2,0,P|444:50|498:25,1,120.000004577637,2|0,1:2|0:2,0:2:0:0:
364,135,34044,2,0,P|353:155|340:219,1,60.0000022888184,2|8,1:2|0:2,0:2:0:0:
342,278,34280,1,0,1:2:0:0:
448,207,34398,6,0,B|511:246|496:346|438:376|438:376|399:358,1,240,4|0,1:2|0:2,0:2:0:0:
256,192,35343,5,8,0:2:0:0:
92,375,35579,5,2,1:2:0:0:
1,333,35697,1,8,0:2:0:0:
82,275,35815,2,0,L|104:228,1,47.9999985351563,0|0,1:2|1:2,0:2:0:0:
256,192,36052,5,10,0:2:0:0:
372,233,36170,1,8,0:2:0:0:
349,105,36288,2,0,B|340:80|340:80|343:66|343:66|330:24,1,71.9999978027344,2|0,1:2|0:2,0:2:0:0:
321,18,36524,6,2,B|316:79|261:89|261:89|245:74|204:59,1,143.999995605469,4|0,1:2|0:2,0:1:0:0:
150,38,36878,1,0,1:2:0:0:
197,146,36996,2,0,P|141:164|92:134,1,120.000004577637,8|0,0:2|0:2,0:2:0:0:
199,256,37351,2,0,P|241:275|312:228,1,120.000004577637,10|8,0:2|0:2,0:2:0:0:
364,191,37705,1,0,1:2:0:0:
512,355,37941,2,0,P|470:374|399:327,1,120.000004577637,10|0,0:2|0:2,0:2:0:0:
469,252,38296,2,0,P|480:216|488:165,1,60.0000022888184,2|0,0:2|1:2,0:2:0:0:
344,17,38650,6,0,P|353:45|359:74,1,60.0000022888184,2|0,0:2|1:2,0:2:0:0:
266,147,38886,1,8,0:2:0:0:
199,94,39004,2,0,P|134:73|67:89,1,120.000004577637,2|8,1:2|0:2,0:2:0:0:
189,180,39359,2,0,P|179:208|173:237,1,60.0000022888184,2|8,0:2|0:2,0:2:0:0:
341,268,39595,2,0,P|334:238|325:210,1,60.0000022888184,0|2,0:3|0:2,0:0:0:0:
239,346,39831,2,0,P|183:366|124:358,1,120.000004577637,8|0,0:2|0:2,0:2:0:0:
116,101,40304,6,0,P|57:93|1:113,1,120.000004577637,2|0,1:2|0:2,0:2:0:0:
1,113,40658,1,0,1:2:0:0:
192,150,40776,2,0,P|200:91|180:35,1,120.000004577637,8|0,0:2|0:2,0:2:0:0:
67,178,41130,2,0,P|59:237|79:293,1,120.000004577637,10|8,0:2|0:2,0:2:0:0:
183,374,41485,6,0,L|191:308,1,60.0000022888184,2|0,1:2|0:2,0:2:0:0:
297,230,41721,2,0,L|289:289,1,60.0000022888184,8|0,0:2|0:2,0:2:0:0:
384,384,41957,2,0,L|391:324,1,60.0000022888184,0|0,1:2|0:2,0:2:0:0:
487,209,42193,6,0,P|506:264|498:323,1,120.000004577637,2|0,2:2|1:2,0:2:0:0:
498,323,42548,1,2,0:2:0:0:
398,244,42666,2,0,L|390:184,1,60.0000022888184,8|0,0:2|1:2,0:2:0:0:
289,301,42902,2,0,L|281:360,1,60.0000022888184,2|8,0:2|0:2,0:2:0:0:
181,193,43138,5,2,0:1:0:0:
98,258,43256,2,0,P|48:262|-3:212,1,120.000004577637,8|0,0:2|0:2,0:1:0:0:
120,104,43611,2,0,P|66:82|13:107,1,120.000004577637,8|0,0:2|0:2,0:2:0:0:
300,209,44083,6,0,P|240:203|181:192,1,120.000004577637,4|0,1:2|0:2,0:2:0:0:
98,258,44437,1,0,1:2:0:0:
242,331,44556,2,0,P|300:321|379:314,1,120.000004577637,8|0,0:2|0:2,0:2:0:0:
457,236,44910,1,10,0:2:0:0:
507,320,45028,2,0,P|511:344|512:388,1,60.0000022888184,0|8,1:2|0:2,0:2:0:0:
360,314,45264,2,0,P|360:284|365:254,1,60.0000022888184,2|0,1:2|0:2,0:2:0:0:
477,153,45500,2,0,P|473:96|441:27,1,120.000004577637,10|0,0:2|0:2,0:2:0:0:
314,61,45855,2,0,P|317:31|328:3,1,60.0000022888185,2|0,0:2|1:2,0:2:0:0:
172,193,46209,5,2,0:2:0:0:
101,225,46327,1,0,1:2:0:0:
41,174,46445,2,0,P|45:117|77:48,1,120.000004577637,10|2,0:2|0:2,0:2:0:0:
182,0,46800,2,0,P|231:23|259:23,1,60.0000022888184,8|0,0:2|0:2,0:2:0:0:
304,124,47036,1,10,0:2:0:0:
381,76,47154,2,0,P|444:56|520:67,1,120.000004577637,0|8,1:2|0:2,0:2:0:0:
271,202,47626,5,2,0:2:0:0:
271,202,47744,1,0,0:2:0:0:
346,254,47863,2,0,P|375:306|376:367,1,120.000004577637,2|0,1:2|0:2,0:2:0:0:
257,260,48217,2,0,P|263:223|271:200,1,60.0000022888184,2|8,1:2|0:2,0:2:0:0:
89,15,48571,5,2,1:2:0:0:
16,101,48689,2,0,P|20:130|29:159,1,60.0000022888184,8|0,0:0|0:0,0:0:0:0:
150,246,48926,2,0,P|159:217|163:187,1,60.0000022888184,8|0,0:0|0:0,0:0:0:0:
162,187,49162,1,0,1:2:0:0:
47,306,49280,2,0,P|51:335|60:364,1,60.0000022888184,8|0,0:0|1:2,0:0:0:0:
264,316,49516,6,0,B|385:285|338:376|471:352,1,207.999990478516,4|0,1:2|3:2,0:2:0:0:
473,348,50048,1,0,3:2:0:0:
485,340,50107,1,0,3:2:0:0:
492,326,50166,1,0,3:2:0:0:
496,311,50225,6,0,B|515:219|447:219|485:98,1,208.800001752319,12|0,2:2|1:2,0:2:0:0:
420,19,50697,5,8,0:3:0:0:
392,43,50776,1,8,0:3:0:0:
356,52,50855,1,8,0:3:0:0:
337,79,50933,5,4,0:3:0:0:
297,55,51012,1,4,0:3:0:0:
251,55,51091,1,4,0:3:0:0:
211,82,51170,6,0,B|196:114|196:114|202:150,1,71.9999978027344,12|8,0:2|0:3,0:2:0:0:
377,259,51406,2,0,B|392:227|392:227|385:190,1,71.9999978027344,8|4,0:2|0:3,0:2:0:0:
201,318,51642,6,2,B|137:306|137:306|109:272|109:272|40:259,1,176.000005371094,4|0,1:1|1:2,0:1:0:0:
207,179,51996,2,2,L|308:157,1,88.000002685547,12|0,0:2|0:2,0:1:0:0:
99,88,52233,2,2,L|-2:66,1,88.000002685547,8|0,0:2|0:2,0:1:0:0:
181,1,52469,6,0,P|198:65|271:64,2,143.999995605469,4|0|0,1:2|1:2|1:2,0:2:0:0:
20,47,53059,5,8,0:2:0:0:
97,110,53177,1,8,0:2:0:0:
30,182,53296,2,0,P|17:226|5:296,1,107.999996704102,2|0,1:2|0:2,0:2:0:0:
9,313,53532,6,0,B|116:326|65:253|186:260,1,176.000005371094,2|0,1:2|3:2,0:2:0:0:
181,263,53827,1,0,3:2:0:0:
191,270,53886,1,0,3:2:0:0:
200,279,53945,1,0,3:2:0:0:
206,290,54004,1,0,3:2:0:0:
284,363,54122,2,0,P|327:364|376:340,1,88.000002685547,8|0,0:3|0:2,0:2:0:0:
448,229,54359,6,0,B|427:279|460:322|475:305|509:336|499:385,2,176.000005371094,2|8|0,1:2|0:2|1:2,0:2:0:0:
512,111,54949,1,8,0:2:0:0:
400,63,55067,1,8,0:2:0:0:
464,0,55185,1,8,0:3:0:0:
308,130,55422,6,0,P|241:139|195:106,1,120.000004577637,6|0,1:2|0:2,0:2:0:0:
65,12,55894,1,2,0:2:0:0:
0,118,56052,2,0,P|-6:154|0:197,1,80.0000030517579,0|0,0:2|0:2,0:2:0:0:
45,262,56288,2,0,P|112:271|158:238,1,120.000004577637,10|0,0:2|0:2,0:2:0:0:
225,275,56603,1,2,0:2:0:0:
335,159,56839,1,2,0:2:0:0:
394,263,56996,2,0,P|399:301|381:336,1,80.0000030517579,8|0,0:2|0:2,0:2:0:0:
307,370,57233,6,0,P|238:355|113:356,1,160.000006103516,10|0,0:2|0:2,0:2:0:0:
109,161,57784,2,0,P|44:196|-19:187,1,120.000004577637,10|0,0:2|0:2,0:2:0:0:
109,161,58138,2,0,P|106:84|155:35,1,140.000005340576,2|8,1:2|0:2,0:2:0:0:
218,16,58493,2,0,P|245:42|292:36,1,80.0000030517579,2|8,0:2|0:2,0:2:0:0:
357,0,58729,5,8,2:3:0:0:
379,131,58847,1,8,0:2:0:0:
0,264,59201,5,4,1:1:0:0:
178,383,59437,2,0,P|177:343|165:306,1,80,10|0,0:2|0:2,0:2:0:0:
314,329,59674,1,2,0:2:0:0:
314,329,59792,2,0,P|314:289|328:251,1,80,0|8,1:2|0:2,0:2:0:0:
475,360,60028,1,2,0:2:0:0:
475,360,60146,2,0,P|474:320|460:282,1,80,0|0,1:2|0:2,0:2:0:0:
308,149,60382,6,0,P|273:159|220:152,1,80,10|0,0:2|1:2,0:2:0:0:
304,8,60619,2,0,P|330:33|350:82,1,80,2|0,0:2|1:2,0:2:0:0:
184,82,60855,2,0,P|192:46|225:4,1,80,10|0,0:2|0:2,0:2:0:0:
341,167,61091,6,0,B|242:141|277:196|184:169,1,160,2|8,1:2|0:2,0:2:0:0:
32,97,61445,2,0,P|-5:166|10:242,1,160,2|0,0:2|1:2,2:2:0:0:
189,173,61800,1,8,0:2:0:0:
189,173,61918,1,0,0:2:0:0:
270,235,62036,2,0,P|285:311|248:380,1,160,2|8,1:2|0:2,0:2:0:0:
113,238,62390,2,0,P|97:314|134:383,1,160,0|0,1:2|1:2,0:2:0:0:
189,173,62744,2,0,P|188:131|172:79,1,80,8|0,0:2|0:2,0:2:0:0:
124,14,62981,5,2,1:2:0:0:
369,171,63217,2,0,P|324:170|263:148,1,80,10|0,0:2|0:2,0:2:0:0:
409,24,63453,1,2,0:2:0:0:
409,24,63571,2,0,P|430:63|442:127,1,80,0|8,1:2|0:2,0:2:0:0:
262,63,63807,1,2,0:2:0:0:
262,63,63926,2,0,P|285:24|334:-17,1,80,0|0,1:2|0:2,0:2:0:0:
388,186,64162,2,0,P|409:225|421:289,1,80,10|0,0:2|0:2,0:2:0:0:
218,233,64398,1,2,0:2:0:0:
218,233,64516,2,0,P|173:231|112:210,1,80,0|8,1:2|0:2,0:2:0:0:
88,88,64752,5,8,2:3:0:0:
76,10,64870,1,6,1:2:0:0:
13,109,64989,2,0,P|-9:200|4:278,2,160,2|8|8,0:1|0:2|0:3,0:2:0:0:
248,0,65579,5,2,1:2:0:0:
312,106,65697,2,0,P|323:144|327:183,1,80,2|0,0:1|3:2,0:2:0:0:
326,195,65874,1,0,3:2:0:0:
323,206,65933,1,0,3:2:0:0:
320,217,65993,1,0,3:2:0:0:
316,228,66052,1,0,3:2:0:0:
13,123,66288,5,2,1:1:0:0:
153,146,66406,1,8,0:2:0:0:
76,36,66524,5,8,1:2:0:0:
88,231,66642,1,8,0:2:0:0:
406,19,66996,5,2,0:1:0:0:
467,83,67233,5,2,0:2:0:0:
467,83,67351,1,0,0:2:0:0:
470,166,67587,5,2,1:2:0:0:
436,243,67941,5,10,0:2:0:0:
360,281,68178,5,2,1:2:0:0:
277,86,68296,1,8,0:2:0:0:
200,384,68532,5,6,1:2:0:0:
256,192,68591,12,8,69831,0:2:0:0:
188,148,70067,5,10,0:2:0:0:
161,384,70185,1,10,0:2:0:0:
11,173,70422,6,2,P|49:88|137:60,1,191.999994140625,4|0,1:1|0:2,0:1:0:0:
4,285,70776,2,0,P|44:260|90:246,1,95.9999970703126,8|0,0:2|1:2,0:2:0:0:
287,314,71012,1,2,0:2:0:0:
161,384,71130,2,0,P|169:317|206:249,1,95.9999970703126,0|8,1:2|0:2,0:2:0:0:
500,242,71367,2,0,P|463:156|374:128,1,191.999994140625,2|0,0:2|0:2,0:1:0:0:
510,359,71721,2,0,P|470:334|424:320,1,95.9999970703126,8|0,0:2|0:2,0:2:0:0:
255,162,71957,1,2,1:2:0:0:
255,162,72075,1,0,1:2:0:0:
183,232,72193,2,0,B|142:253|142:253|95:233,1,95.9999970703126,8|0,0:2|0:2,0:2:0:0:
115,61,72430,6,2,P|51:63|4:182,1,191.999994140625,2|8,1:2|0:2,0:1:0:0:
512,122,72902,2,2,P|485:34|396:15,1,191.999994140625,2|8,1:2|0:2,0:1:0:0:
440,193,73256,2,2,P|380:112|255:103,1,191.999994140625,2|0,1:2|1:2,0:1:0:0:
205,29,73611,1,8,0:2:0:0:
7,350,73847,5,2,1:2:0:0:
135,330,73965,1,0,1:2:0:0:
54,230,74083,1,8,0:2:0:0:
54,230,74201,1,0,0:2:0:0:
190,157,74319,6,0,B|301:163|255:101|384:111,1,191.999994140625,2|8,1:2|0:2,0:2:0:0:
468,307,74674,2,0,P|377:296|349:210,1,191.999994140625,2|0,1:2|1:2,0:2:0:0:
468,86,75028,2,0,P|467:136|445:179,1,95.9999970703126,8|0,0:2|0:2,0:2:0:0:
311,26,75264,2,0,P|220:36|192:122,1,191.999994140625,2|8,1:2|0:2,0:2:0:0:
0,248,75619,2,0,P|85:212|198:224,1,191.999994140625,2|0,0:2|1:2,0:2:0:0:
249,294,75973,1,8,0:2:0:0:
431,25,76209,6,2,B|496:14|496:14|556:104|484:173,1,240.000009155274,4|8,1:1|0:2,0:1:0:0:
93,230,76681,2,2,B|27:219|27:219|-32:309|39:378,1,240.000009155274,4|8,1:2|0:2,0:1:0:0:
249,294,77036,2,0,B|295:186|165:185|236:36,1,240.000009155274,4|8,1:2|0:3,0:2:0:0:
399,14,77390,5,8,0:2:0:0:
341,219,77508,1,4,1:3:0:0:
224,66,77626,5,2,1:1:0:0:
503,158,77744,1,10,1:1:0:0:
0,239,77981,6,0,P|16:149|104:123,1,191.999994140625,4|0,1:1|0:2,0:2:0:0:
158,336,78335,1,8,0:2:0:0:
158,336,78453,1,0,1:2:0:0:
75,287,78571,2,0,P|64:334|75:381,1,95.9999970703126,2|0,0:2|1:2,0:2:0:0:
236,291,78807,2,0,P|245:333|228:403,1,95.9999970703126,8|0,0:2|0:2,0:2:0:0:
162,220,79044,2,0,B|196:127|111:119|158:33,1,191.999994140625,2|8,1:2|0:2,0:2:0:0:
373,17,79398,2,0,P|337:91|237:77,1,191.999994140625,2|0,0:2|1:2,0:2:0:0:
380,238,79752,6,0,P|415:312|516:298,2,191.999994140625,8|2|8,0:2|1:2|0:2,0:2:0:0:
319,185,80343,1,0,0:2:0:0:
187,362,80461,2,0,P|276:360|386:387,1,191.999994140625,2|8,1:2|0:2,0:2:0:0:
217,276,80815,2,0,P|239:182|238:87,1,191.999994140625,2|0,1:2|1:2,0:2:0:0:
200,4,81170,1,8,0:2:0:0:
0,294,81406,5,2,1:2:0:0:
92,261,81524,1,0,1:2:0:0:
18,198,81642,1,8,0:2:0:0:
74,357,81760,1,0,0:2:0:0:
222,270,81878,6,0,B|342:243|299:323|409:290,1,191.999994140625,2|8,1:2|0:2,0:2:0:0:
484,85,82233,2,0,B|548:126|521:216|521:216|463:233,1,191.999994140625,2|0,1:2|1:2,0:2:0:0:
322,0,82587,5,10,0:2:0:0:
280,162,82705,1,0,0:2:0:0:
96,11,82823,6,0,B|32:52|59:142|59:142|101:154,1,191.999994140625,2|8,1:2|0:2,0:2:0:0:
212,292,83178,2,0,B|92:264|145:334|10:303,1,191.999994140625,2|0,2:2|1:2,0:2:0:0:
292,176,83532,5,10,0:2:0:0:
310,372,83650,1,0,0:2:0:0:
472,178,83768,6,2,B|542:198|554:310|504:338|504:338|465:335|448:309,1,256,4|8,1:1|0:2,0:1:0:0:
193,154,84122,2,2,B|122:174|110:286|160:314|160:314|199:311|216:285,1,256,6|0,0:2|0:2,0:1:0:0:
434,102,84477,2,2,B|445:144|481:146|481:146|485:112|445:91,1,128,14|0,0:2|0:2,0:1:0:0:
296,11,84713,5,8,0:3:0:0:
280,36,84792,1,8,0:3:0:0:
257,55,84870,1,8,0:3:0:0:
230,68,84949,1,4,0:3:0:0:
200,68,85028,1,4,0:3:0:0:
171,59,85107,1,4,0:3:0:0:
148,39,85185,5,10,0:1:0:0:
55,314,85304,1,6,1:1:0:0:
418,150,85540,6,2,P|500:191|512:282,1,191.999994140625,4|0,1:1|0:2,0:1:0:0:
341,384,85894,2,0,P|395:376|451:378,1,95.9999970703126,8|0,0:2|1:2,0:2:0:0:
297,215,86130,1,2,0:2:0:0:
185,291,86248,2,0,P|173:321|172:395,1,95.9999970703126,0|8,1:2|0:2,0:2:0:0:
93,233,86485,2,0,P|11:192|0:101,1,191.999994140625,2|0,0:2|0:2,0:1:0:0:
170,9,86839,2,0,P|116:17|60:15,1,95.9999970703126,8|0,0:2|0:2,0:2:0:0:
215,169,87075,1,2,1:2:0:0:
215,169,87193,1,0,1:2:0:0:
327,93,87311,2,0,P|339:63|340:-11,1,95.9999970703126,8|0,0:2|0:2,0:2:0:0:
495,207,87548,6,2,B|530:167|519:103|465:80|465:80|427:105,1,191.999994140625,2|8,1:2|0:2,0:1:0:0:
94,366,88020,2,2,B|59:326|70:262|124:239|124:239|162:264,1,191.999994140625,2|8,1:2|0:2,0:1:0:0:
377,377,88374,2,2,P|278:352|152:348,1,191.999994140625,2|0,1:2|1:2,0:1:0:0:
284,249,88729,1,8,0:2:0:0:
128,17,88965,5,2,1:2:0:0:
68,131,89083,1,0,1:2:0:0:
0,24,89201,1,8,0:2:0:0:
0,24,89319,1,0,0:2:0:0:
178,110,89437,6,0,B|289:116|243:54|372:64,1,191.999994140625,2|8,1:2|0:2,0:2:0:0:
512,202,89792,2,0,B|401:208|447:146|318:156,1,191.999994140625,2|0,1:2|1:2,0:2:0:0:
491,106,90146,2,0,P|509:62|502:15,1,95.9999970703126,8|0,0:2|0:2,0:2:0:0:
358,250,90382,2,0,P|392:347|490:351,1,191.999994140625,2|8,1:2|0:2,0:2:0:0:
240,221,90737,2,0,P|206:318|108:322,1,191.999994140625,2|0,0:2|1:2,0:2:0:0:
51,384,91091,1,8,0:2:0:0:
203,95,91327,6,2,P|66:16|-4:62,1,240.000009155274,4|8,1:1|0:2,0:1:0:0:
309,289,91800,2,2,P|446:368|516:322,1,240.000009155274,4|8,1:2|0:2,0:1:0:0:
371,198,92154,2,0,B|242:144|264:250|139:196,1,240.000009155274,4|8,1:2|0:3,0:2:0:0:
8,47,92508,5,8,0:2:0:0:
32,235,92626,1,4,1:3:0:0:
203,95,92744,5,2,1:1:0:0:
118,353,92862,1,10,1:1:0:0:
402,199,93099,6,0,B|445:219|445:219|517:194|511:103,1,191.999994140625,4|0,1:1|0:2,0:2:0:0:
370,7,93453,1,8,0:2:0:0:
370,7,93571,1,0,1:2:0:0:
257,41,93689,2,0,P|207:42|163:14,1,95.9999970703126,2|0,0:2|1:2,0:2:0:0:
348,102,93926,2,0,P|398:103|442:75,1,95.9999970703126,8|0,0:2|0:2,0:2:0:0:
265,191,94162,2,0,B|221:285|298:294|257:385,1,191.999994140625,2|8,1:2|0:2,0:2:0:0:
97,204,94516,2,0,P|96:294|179:330,1,191.999994140625,2|0,0:2|1:2,0:2:0:0:
335,249,94870,2,0,P|405:239|454:237,1,95.9999970703126,8|0,0:2|0:0,0:2:0:0:
426,55,95107,6,0,P|512:96|507:184,1,191.999994140625,2|8,1:2|0:2,0:0:0:0:
197,23,95579,2,0,P|110:64|115:152,1,191.999994140625,2|8,1:2|0:2,0:2:0:0:
2,239,95933,2,0,P|98:205|189:201,1,191.999994140625,2|0,1:2|1:2,0:2:0:0:
318,339,96288,2,0,P|253:346|214:367,1,95.9999970703126,8|0,0:2|0:0,0:0:0:0:
409,292,96524,2,0,P|416:357|437:396,1,95.9999970703126,0|0,1:2|0:0,0:0:0:0:
362,201,96760,2,0,P|427:194|466:173,1,95.9999970703126,8|0,2:0|0:0,0:0:0:0:
271,248,96996,5,4,1:1:0:0:
98,47,97233,2,0,P|76:99|74:151,1,103.999995239258,8|0,0:0|0:0,0:0:0:0:
254,101,97469,1,2,1:2:0:0:
254,101,97587,2,0,P|250:49|229:2,1,103.999995239258,8|0,0:0|1:0,0:0:0:0:
98,226,97823,5,2,1:2:0:0:
230,267,97941,2,0,P|281:264|328:236,1,103.999995239258,2|8,0:0|2:0,0:0:0:0:
349,72,98178,2,0,P|297:74|253:100,1,103.999995239258,2|0,1:2|0:0,0:0:0:0:
431,298,98414,1,8,0:0:0:0:
512,218,98532,2,0,P|509:166|481:120,1,103.999995239258,2|0,0:0|3:0,0:0:0:0:
469,114,98709,1,0,3:0:0:0:
453,110,98768,1,0,3:0:0:0:
437,111,98827,1,0,3:0:0:0:
421,117,98886,6,2,B|411:159|374:159|374:159|360:96|292:74|292:74|275:94|243:103,1,240.000009155274,12|0,0:1|1:0,0:1:0:0:
0,223,99241,2,2,B|10:265|47:265|47:265|61:202|129:180|129:180|146:200|178:209,1,240.000009155274,12|0,0:0|1:0,0:1:0:0:
345,311,99595,2,2,B|341:371|287:376|287:376|268:361,1,120.000004577637,12|0,0:0|0:0,0:1:0:0:
167,206,99831,5,8,0:3:0:0:
191,186,99910,1,8,0:3:0:0:
209,160,99988,1,8,0:3:0:0:
215,127,100067,1,4,0:3:0:0:
211,95,100146,1,4,0:3:0:0:
205,63,100225,1,4,0:3:0:0:
183,39,100303,5,10,0:1:0:0:
0,223,100422,1,6,1:1:0:0:
0,223,100776,6,0,B|69:171|187:209|159:290|124:360|363:452|511:245|328:153|258:164|249:249|249:249,1,528.000016113282,6|0,1:2|0:2,0:2:0:0:
341,384,102666,6,0,P|344:300|381:190,1,176.000005371094,4|0,1:2|0:2,0:2:0:0:
475,8,103493,5,8,0:3:0:0:
504,144,103611,1,12,0:2:0:0:
512,166,103847,5,8,0:3:0:0:
367,63,103965,1,8,0:2:0:0:
376,41,104201,5,8,0:3:0:0:
300,181,104319,1,8,0:2:0:0:
160,105,104437,1,8,0:2:0:0:
59,168,104556,6,2,P|21:283|46:347,1,176.000005371094,4|0,1:2|0:2,0:1:0:0:
161,305,104910,2,0,B|177:331|177:331|155:389,1,88.000002685547,2|8,1:1|0:2,0:2:0:0:
345,204,105264,2,2,B|448:197|392:138|499:131,1,176.000005371094,2|0,1:2|0:2,0:1:0:0:
497,131,105618,1,8,0:2:0:0:
377,58,105736,1,2,1:1:0:0:
179,227,105972,5,10,0:1:0:0:
354,384,106209,6,2,P|332:276|283:125,1,264.000008056641,4|0,1:2|0:2,0:1:0:0:
161,225,106681,2,2,P|144:265|133:308,1,88.000002685547,0|0,1:2|0:2,0:1:0:0:
49,173,106918,2,2,P|38:130|21:89,1,88.000002685547,8|0,0:2|0:2,0:1:0:0:
199,3,107153,1,2,1:2:0:0:
277,99,107272,2,2,B|307:119|361:108|361:108|360:61|312:25,1,176.000005371094,2|8,0:1|0:2,0:1:0:0:
199,3,107626,1,0,1:2:0:0:
437,108,107862,5,8,0:2:0:0:
352,154,107980,1,8,0:2:0:0:
434,203,108098,1,8,0:3:0:0:
269,384,108335,6,2,B|234:309|294:289|263:212,1,176.000005371094,2|0,1:1|0:2,0:1:0:0:
346,329,108689,2,0,P|389:328|429:308,1,88.000002685547,2|8,1:1|0:2,0:2:0:0:
167,372,109044,2,2,P|74:363|23:180,1,264.000008056641,2|8,1:2|0:2,0:1:0:0:
51,157,109516,1,2,1:1:0:0:
256,0,109752,5,10,0:1:0:0:
493,129,109989,6,2,P|454:249|332:279,1,264.000008056641,4|8,1:2|0:2,0:1:0:0:
255,261,110461,1,0,1:2:0:0:
256,0,110697,5,10,0:1:0:0:
42,157,110933,5,2,1:1:0:0:
42,157,111052,1,0,0:0:0:0:
140,92,111170,5,10,0:1:0:0:
210,127,111288,1,0,0:0:0:0:
283,100,111406,1,0,1:0:0:0:
346,193,111524,5,10,0:1:0:0:
431,171,111642,1,0,0:0:0:0:
503,220,111760,1,8,0:0:0:0:
442,86,111878,5,2,1:1:0:0:
442,86,111996,1,0,0:0:0:0:
392,262,112115,6,2,P|293:218|194:232,1,176.000005371094,4|0,1:2|1:2,2:1:0:0:
219,349,112468,2,2,P|179:368|136:372,1,88.000002685547,2|8,0:1|0:1,0:2:0:0:
10,168,112823,2,2,B|42:76|42:76|84:90|123:68,1,176.000005371094,2|0,0:2|1:2,0:1:0:0:
118,70,113177,1,8,0:2:0:0:
13,0,113295,1,2,0:1:0:0:
224,224,113531,5,10,0:1:0:0:
476,80,113768,6,2,B|430:93|411:138|411:138|236:93,1,264.000008056641,4|0,1:2|0:2,0:1:0:0:
345,244,114240,2,2,P|346:198|332:156,1,88.000002685547,0|0,1:1|0:2,0:1:0:0:
130,197,114477,2,2,P|128:242|142:284,1,88.000002685547,8|0,0:2|0:2,0:1:0:0:
214,52,114713,1,2,1:2:0:0:
107,91,114831,2,2,B|33:118|33:118|53:86|53:86|121:62,1,176.000005371094,2|8,0:1|0:2,0:1:0:0:
214,52,115185,1,0,1:2:0:0:
345,244,115421,5,8,0:2:0:0:
284,320,115539,1,8,0:2:0:0:
249,229,115657,1,8,0:3:0:0:
472,190,115894,6,2,P|467:132|449:58,1,120.000004577637,4|0,1:2|0:2,0:1:0:0:
345,244,116367,2,2,P|331:302|326:362,1,120.000004577637,0|0,1:3|0:2,0:1:0:0:
167,140,116839,2,2,P|180:81|185:21,1,120.000004577637,0|0,1:2|0:2,0:1:0:0:
40,194,117311,2,2,P|45:252|63:326,1,120.000004577637,0|0,1:2|0:2,0:1:0:0:
326,362,117784,5,0,1:2:0:0:
291,100,118020,5,8,0:2:0:0:
244,291,118138,1,8,0:2:0:0:
482,15,118493,6,0,P|520:101|499:181,1,160,2|0,1:3|3:2,2:2:0:0:
502,178,118788,1,0,3:2:0:0:
491,189,118847,1,0,3:2:0:0:
477,198,118906,1,0,3:2:0:0:
463,206,118965,2,0,B|372:176|372:176|352:199|318:210,1,160,10|0,0:1|1:2,0:1:0:0:
161,180,119319,5,10,0:1:0:0:
237,265,119437,1,8,0:2:0:0:
196,69,119556,1,8,0:2:0:0:
44,201,119674,5,4,1:2:0:0:
33,222,120146,5,0,1:2:0:0:
30,245,120619,5,0,1:2:0:0:
80,352,120855,5,2,3:1:0:0:
99,344,120933,1,0,3:2:0:0:
120,343,121012,1,0,3:2:0:0:
140,348,121091,2,2,P|182:353|231:332,1,80,8|0,0:2|1:1,0:1:0:0:
298,376,121327,2,2,L|305:272,1,80,8|4,2:3|2:3,0:1:0:0:
378,244,121563,6,2,P|454:256|512:205,1,160,10|0,0:2|1:2,0:1:0:0:
338,160,121918,2,2,P|289:220|304:296,1,160,12|0,0:2|1:2,0:1:0:0:
429,167,122272,2,2,P|401:94|327:69,1,160,10|0,0:2|1:2,0:1:0:0:
110,4,122744,5,8,0:2:0:0:
110,4,122863,1,8,0:2:0:0:
150,117,122981,1,8,0:3:0:0:
212,28,123099,1,8,0:2:0:0:
45,90,123217,1,4,0:3:0:0:
252,199,123453,6,0,P|308:178|366:186,1,120.000004577637,6|0,1:2|0:2,0:2:0:0:
366,186,123807,1,0,1:2:0:0:
187,262,123926,2,0,P|166:205|174:147,1,120.000004577637,8|0,0:2|0:2,0:2:0:0:
250,327,124280,2,0,P|193:347|135:339,1,120.000004577637,10|8,0:2|0:2,0:2:0:0:
252,199,124634,6,0,P|290:189|330:189,1,60.0000022888184,2|0,1:2|0:2,0:2:0:0:
386,228,124870,2,0,P|404:253|426:274,1,60.0000022888184,8|0,0:2|0:2,0:2:0:0:
384,142,125107,2,0,P|396:115|403:86,1,60.0000022888184,0|0,1:2|0:2,0:2:0:0:
305,11,125343,6,0,B|295:38|257:45|257:45|237:26|203:21,1,120.000004577637,2|0,2:2|1:2,0:2:0:0:
204,22,125697,1,2,0:2:0:0:
155,133,125815,2,0,L|162:192,1,60.0000022888184,8|0,0:2|1:2,0:2:0:0:
67,84,126052,2,0,L|7:91,1,60.0000022888184,2|8,0:2|0:2,0:2:0:0:
208,26,126287,5,2,0:1:0:0:
281,95,126405,2,0,P|345:102|403:56,1,120.000004577637,8|0,0:2|0:2,0:1:0:0:
512,161,126760,2,0,P|454:152|403:182,1,120.000004577637,8|0,0:2|0:2,0:2:0:0:
301,374,127233,6,0,P|354:357|428:358,1,120.000004577637,4|0,1:2|0:2,0:2:0:0:
484,292,127586,1,0,1:2:0:0:
340,263,127705,2,0,P|311:211|309:152,1,120.000004577637,8|0,0:2|0:2,0:2:0:0:
361,23,128059,1,10,0:2:0:0:
451,78,128178,2,0,P|484:78|515:69,1,60.0000022888184,0|8,1:2|0:2,0:2:0:0:
361,23,128414,2,0,P|328:23|297:32,1,60.0000022888184,2|0,1:2|0:2,0:2:0:0:
216,129,128650,2,0,B|164:159|164:159|105:138,1,120.000004577637,10|0,0:2|0:2,0:2:0:0:
52,69,129004,2,0,P|58:43|73:12,1,60.0000022888184,2|0,0:2|1:2,0:2:0:0:
231,150,129358,5,2,0:2:0:0:
302,118,129476,1,0,1:2:0:0:
361,169,129594,2,0,P|379:223|361:305,1,120.000004577637,10|0,0:2|0:2,0:2:0:0:
458,384,129949,2,0,P|431:373|385:364,1,60.0000022888184,10|0,0:2|0:2,0:2:0:0:
287,275,130185,1,10,0:2:0:0:
225,333,130304,2,0,P|168:352|108:349,1,120.000004577637,0|8,1:2|0:2,0:2:0:0:
0,168,130775,5,2,0:2:0:0:
0,168,130893,1,0,0:2:0:0:
74,237,131012,2,0,P|133:239|190:220,1,120.000004577637,2|0,1:2|0:2,0:2:0:0:
287,275,131366,2,0,P|289:249|298:209,1,60.0000022888184,2|8,1:2|0:2,0:2:0:0:
449,56,131720,5,2,1:2:0:0:
512,146,131839,2,0,P|510:172|501:212,1,60.0000022888184,8|0,0:0|0:0,0:0:0:0:
404,321,132075,2,0,P|397:291|395:261,1,60.0000022888184,8|0,0:0|0:0,0:0:0:0:
426,188,132311,1,0,1:2:0:0:
357,80,132429,2,0,P|365:51|370:21,1,60.0000022888184,8|0,0:0|1:2,0:0:0:0:
247,113,132666,6,0,B|127:120|196:33|49:38,1,207.999990478516,4|0,1:2|3:2,0:2:0:0:
48,43,133197,1,0,3:2:0:0:
37,52,133256,1,0,3:2:0:0:
29,64,133315,1,0,3:2:0:0:
22,76,133374,6,0,B|7:219|7:219|27:252|27:290,1,215.999993408203,12|0,2:2|1:2,0:2:0:0:
111,377,133846,5,8,0:3:0:0:
139,353,133925,1,8,0:3:0:0:
175,344,134004,1,8,0:3:0:0:
194,317,134082,5,4,0:3:0:0:
234,341,134161,1,4,0:3:0:0:
280,341,134240,1,4,0:3:0:0:
320,314,134319,6,0,B|327:280|327:280|317:245,1,71.9999978027344,12|8,0:2|0:3,0:2:0:0:
181,132,134556,2,0,B|171:167|171:167|178:201,1,71.9999978027344,8|4,0:2|0:3,0:2:0:0:
340,108,134792,6,2,B|404:96|404:96|432:62|432:62|501:49,1,176.000005371094,4|0,1:1|1:2,0:1:0:0:
434,230,135145,2,2,L|453:340,1,88.000002685547,12|0,0:2|0:2,0:1:0:0:
275,211,135382,2,2,L|164:230,1,88.000002685547,8|0,0:2|0:2,0:1:0:0:
347,86,135619,6,0,B|427:104|403:47|482:58,2,143.999995605469,4|0|0,1:2|1:2|1:2,0:2:0:0:
204,0,136208,5,8,0:2:0:0:
237,102,136326,1,8,0:2:0:0:
137,153,136445,2,0,P|94:135|23:127,1,107.999996704102,2|0,1:2|0:2,0:2:0:0:
16,160,136681,6,0,B|31:233|-5:286|-5:286|-3:304|11:327,1,176.000005371094,2|0,1:2|3:2,0:2:0:0:
20,337,136976,1,0,3:2:0:0:
31,343,137035,1,0,3:2:0:0:
42,348,137094,1,0,3:2:0:0:
54,350,137153,1,0,3:2:0:0:
144,384,137271,2,0,P|147:338|162:286,1,88.000002685547,8|0,0:3|0:2,0:2:0:0:
282,239,137508,6,0,B|325:247|365:267|365:267|393:241|437:217,2,176.000005371094,2|8|0,1:2|0:2|1:2,0:2:0:0:
157,297,138098,1,8,0:2:0:0:
104,161,138216,1,8,0:2:0:0:
27,234,138334,1,8,0:3:0:0:
126,54,138571,6,0,P|193:63|240:31,1,120.000004577637,6|0,1:2|0:2,0:2:0:0:
383,140,139043,1,2,0:2:0:0:
504,108,139201,2,0,P|515:143|513:185,1,80.0000030517579,0|0,0:2|0:2,0:2:0:0:
466,244,139437,2,0,L|343:222,1,120.000004577637,10|0,0:2|0:2,0:2:0:0:
281,259,139752,1,2,0:2:0:0:
165,124,139988,1,2,0:2:0:0:
49,182,140146,2,0,P|38:217|40:259,1,80.0000030517579,8|0,0:2|0:2,0:2:0:0:
93,326,140382,6,0,L|216:304,1,120.000004577637,10|0,0:2|0:0,0:2:0:0:
295,337,140697,2,0,L|274:221,1,80.0000030517579,2|0,0:2|0:0,0:0:0:0:
399,279,140933,2,0,L|276:257,1,120.000004577637,10|0,0:2|0:2,0:2:0:0:
220,174,141288,2,0,P|232:144|234:100,1,60.0000022888184,8|0,0:3|0:0,0:0:0:0:
153,41,141524,2,0,L|38:52,1,100.000003814697,4|0,3:3|0:0,0:0:0:0:
235,116,141878,5,8,2:3:0:0:
268,2,141996,1,8,0:2:0:0:
512,203,142351,5,4,1:1:0:0:
366,380,142586,2,0,P|411:370|474:368,1,80,10|0,0:2|0:2,0:2:0:0:
287,257,142823,1,2,0:2:0:0:
287,257,142941,2,0,P|332:267|395:269,1,80,0|8,1:2|0:2,0:2:0:0:
178,372,143178,1,2,0:2:0:0:
178,372,143296,2,0,P|223:362|286:360,1,80,0|0,1:2|0:2,0:2:0:0:
113,165,143532,6,0,P|101:209|74:266,1,80,10|0,0:2|1:2,0:2:0:0:
255,136,143768,2,0,P|222:103|186:51,1,80,2|0,0:2|1:2,0:2:0:0:
209,273,144004,2,0,P|253:260|316:255,1,80,10|0,0:2|0:2,0:2:0:0:
104,146,144240,6,0,B|67:159|52:192|52:192|-1:172|7:125,1,160,2|8,1:2|0:2,0:2:0:0:
201,76,144595,2,0,B|238:63|253:30|253:30|306:50|297:96,1,160,2|0,0:2|1:2,2:2:0:0:
117,62,144949,1,8,0:2:0:0:
117,62,145067,1,0,0:2:0:0:
96,185,145185,2,0,P|113:262|172:316,1,160,2|8,1:2|0:2,0:2:0:0:
306,229,145540,2,0,P|288:151|229:97,1,160,0|0,1:2|1:2,0:2:0:0:
258,301,145893,2,0,P|298:316|336:314,1,80,8|0,0:2|0:2,0:2:0:0:
466,268,146130,5,2,1:2:0:0:
231,98,146366,2,0,P|233:63|257:12,1,80,10|0,0:2|0:2,0:2:0:0:
316,169,146602,1,2,0:2:0:0:
316,169,146721,2,0,P|345:188|377:234,1,80,0|8,1:2|0:2,0:2:0:0:
212,207,146957,1,2,0:2:0:0:
212,207,147075,2,0,P|181:222|125:227,1,80,0|0,1:2|0:2,0:2:0:0:
334,76,147311,2,0,P|337:40|360:-10,1,80,10|0,0:2|0:2,0:2:0:0:
386,246,147547,1,2,0:2:0:0:
386,246,147666,2,0,P|415:266|447:311,1,80,0|8,1:2|0:2,0:2:0:0:
212,207,147901,5,8,2:3:0:0:
135,269,148019,1,6,1:2:0:0:
68,165,148138,2,0,P|62:78|98:13,2,160,2|8|8,0:1|0:2|0:3,0:2:0:0:
234,306,148728,5,2,1:2:0:0:
322,169,148846,2,0,P|321:127|306:85,1,80,2|0,0:1|3:2,0:2:0:0:
302,81,149023,1,0,3:2:0:0:
292,73,149082,1,0,3:2:0:0:
282,65,149142,1,0,3:2:0:0:
271,59,149201,1,0,3:2:0:0:
0,266,149437,5,2,1:1:0:0:
201,175,149555,1,14,0:2:0:0:
406,363,150145,5,2,0:1:0:0:
482,324,150382,5,2,0:2:0:0:
482,324,150500,1,0,0:2:0:0:
502,242,150736,5,2,1:2:0:0:
470,163,151091,5,10,0:2:0:0:
397,120,151327,5,2,1:2:0:0:
325,345,151445,1,8,0:2:0:0:
227,46,151681,5,6,1:2:0:0:
256,192,151740,12,8,152980,0:2:0:0:
299,87,153217,5,10,0:2:0:0:
245,369,153335,1,10,0:2:0:0:
109,58,153572,6,2,P|20:96|6:188,1,191.999994140625,4|0,1:1|0:2,0:1:0:0:
200,120,153926,2,0,P|208:68|242:8,1,95.9999970703126,8|0,0:2|1:2,0:2:0:0:
321,187,154162,1,2,0:2:0:0:
232,265,154280,2,0,P|180:257|120:223,1,95.9999970703126,0|8,1:2|0:2,0:2:0:0:
409,121,154516,2,0,P|497:159|511:251,1,191.999994140625,2|0,0:2|0:2,0:1:0:0:
321,187,154870,2,0,P|313:135|279:75,1,95.9999970703126,8|0,0:2|0:2,0:2:0:0:
236,269,155106,1,2,1:2:0:0:
236,269,155225,1,0,1:2:0:0:
319,367,155343,2,0,P|371:359|431:325,1,95.9999970703126,8|0,0:2|0:2,0:2:0:0:
236,269,155580,6,2,P|160:244|36:235,1,191.999994140625,2|8,1:2|0:2,0:1:0:0:
494,35,156052,2,2,P|398:28|306:0,1,191.999994140625,2|8,1:2|0:2,0:1:0:0:
432,130,156406,2,2,B|436:183|364:223|310:164|336:110,1,191.999994140625,2|0,1:2|1:2,0:1:0:0:
406,4,156761,1,8,0:2:0:0:
74,111,156997,5,2,1:2:0:0:
158,207,157115,1,0,1:2:0:0:
199,88,157233,1,8,0:2:0:0:
199,87,157351,1,0,0:2:0:0:
251,170,157469,6,0,B|360:188|317:115|433:129,1,191.999994140625,2|8,1:2|0:2,0:2:0:0:
512,312,157824,2,0,P|421:301|407:209,1,191.999994140625,2|0,1:2|1:2,0:2:0:0:
266,381,158178,2,0,P|313:365|364:376,1,95.9999970703126,8|0,0:2|0:2,0:2:0:0:
251,170,158414,2,0,P|255:259|172:291,1,191.999994140625,2|8,1:2|0:2,0:2:0:0:
36,117,158768,2,0,P|-13:192|43:262,1,191.999994140625,2|0,0:2|1:2,0:2:0:0:
130,185,159123,1,8,0:2:0:0:
422,365,159359,6,2,B|449:376|487:376|487:376|548:298|482:218,1,240.000009155274,4|8,1:1|0:2,0:1:0:0:
30,218,159831,2,2,B|-36:298|25:376|25:376|63:376|90:365,1,240.000009155274,4|8,1:2|0:2,0:1:0:0:
256,304,160185,2,0,B|287:253|271:191|246:206|206:143|256:80,1,240.000009155274,4|8,1:2|0:3,0:2:0:0:
491,41,160540,5,8,0:2:0:0:
372,209,160658,1,4,1:3:0:0:
385,3,160776,5,2,1:1:0:0:
473,265,160894,1,10,1:1:0:0:
40,156,161131,6,0,P|68:68|159:47,1,191.999994140625,4|0,1:1|0:2,0:2:0:0:
205,215,161485,1,8,0:2:0:0:
205,215,161603,1,0,1:2:0:0:
101,280,161721,2,0,P|47:281|-8:251,1,95.9999970703126,2|0,0:2|1:2,0:2:0:0:
171,374,161957,2,0,P|225:375|280:345,1,95.9999970703126,8|0,0:2|0:2,0:2:0:0:
397,260,162193,2,0,P|486:281|513:369,1,191.999994140625,2|8,1:2|0:2,0:2:0:0:
319,248,162548,2,0,P|408:227|435:139,1,191.999994140625,2|0,0:2|1:2,0:2:0:0:
228,50,162902,6,0,P|254:137|343:159,2,191.999994140625,8|2|8,0:2|1:2|0:2,0:2:0:0:
168,0,163493,1,0,0:2:0:0:
42,93,163611,2,0,P|15:187|37:288,1,191.999994140625,2|8,1:2|0:2,0:2:0:0:
251,370,163965,2,0,P|277:279|260:186,1,191.999994140625,2|0,1:2|1:2,0:2:0:0:
298,115,164320,1,8,0:2:0:0:
512,319,164556,5,2,1:2:0:0:
420,286,164674,1,0,1:2:0:0:
494,223,164792,1,8,0:2:0:0:
438,382,164910,1,0,0:2:0:0:
318,287,165028,6,0,B|253:244|186:279|186:279|136:261,1,191.999994140625,2|8,1:2|0:2,0:2:0:0:
390,157,165382,2,0,P|460:193|458:114,1,191.999994140625,2|0,1:2|1:2,0:2:0:0:
314,0,165737,5,10,0:2:0:0:
261,192,165855,1,0,0:2:0:0:
138,56,165973,6,0,P|73:62|29:180,1,191.999994140625,2|8,1:2|0:2,0:2:0:0:
198,304,166327,2,0,B|133:261|66:296|66:296|16:278,1,191.999994140625,2|0,2:2|1:2,0:2:0:0:
265,150,166682,5,10,0:2:0:0:
288,384,166800,1,0,0:2:0:0:
431,202,166918,6,2,B|523:254|490:354|490:354|439:361|415:317,1,256,4|8,1:1|0:2,0:1:0:0:
232,152,167272,2,2,B|126:151|104:254|104:254|145:285|188:259,1,256,6|0,0:2|0:2,0:1:0:0:
438,184,167627,2,2,B|435:157|456:132|456:132|452:91|415:60,1,128,14|0,0:2|0:2,0:1:0:0:
261,0,167863,5,8,0:3:0:0:
242,29,167942,1,8,0:3:0:0:
215,51,168020,1,8,0:3:0:0:
184,66,168099,1,4,0:3:0:0:
149,66,168178,1,4,0:3:0:0:
115,55,168257,1,4,0:3:0:0:
89,32,168335,5,10,0:1:0:0:
0,304,168454,1,6,1:1:0:0:
337,206,168689,6,2,B|314:258|332:305|367:301|385:340|366:389,1,191.999994140625,4|0,1:1|0:2,0:1:0:0:
420,240,169044,2,0,P|465:224|512:218,1,95.9999970703126,8|0,0:2|1:2,0:2:0:0:
285,358,169280,1,2,0:2:0:0:
201,373,169398,2,0,P|153:367|108:351,1,95.9999970703126,0|8,1:2|0:2,0:2:0:0:
175,178,169634,2,0,B|198:126|180:79|145:83|127:44|146:-5,1,191.999994140625,2|0,0:2|0:2,0:1:0:0:
92,144,169989,2,0,P|46:159|0:165,1,95.9999970703126,8|0,0:2|0:2,0:2:0:0:
227,26,170225,1,2,1:2:0:0:
227,26,170343,1,0,1:2:0:0:
311,11,170461,2,0,P|358:16|403:32,1,95.9999970703126,8|0,0:2|0:2,0:2:0:0:
475,203,170697,6,2,B|488:238|520:239|520:239|496:180|540:171|497:113,1,191.999994140625,2|8,1:2|0:2,0:1:0:0:
95,252,171170,2,2,B|52:309|96:318|72:377|72:377|104:376|117:341,1,191.999994140625,2|8,1:2|0:2,0:1:0:0:
250,240,171524,2,2,P|231:144|257:52,1,191.999994140625,2|0,1:2|1:2,0:1:0:0:
314,0,171879,1,8,0:2:0:0:
512,218,172115,5,2,1:2:0:0:
419,307,172233,1,0,1:2:0:0:
388,185,172351,1,8,0:2:0:0:
388,185,172469,1,0,0:2:0:0:
284,260,172587,6,0,B|168:270|229:193|99:203,1,191.999994140625,2|8,1:2|0:2,0:2:0:0:
0,369,172941,2,0,P|89:379|131:299,1,191.999994140625,2|0,1:2|1:2,0:2:0:0:
52,133,173296,2,0,P|22:169|22:217,1,95.9999970703126,8|0,0:2|0:2,0:2:0:0:
155,112,173532,2,0,B|278:122|210:45|342:61,1,191.999994140625,2|8,1:2|0:2,0:2:0:0:
437,227,173886,2,0,P|347:237|305:157,1,191.999994140625,2|0,0:2|1:2,0:2:0:0:
256,96,174241,1,8,0:2:0:0:
464,368,174477,6,2,P|495:277|451:126,1,240.000009155274,4|8,1:1|0:2,0:1:0:0:
47,367,174949,2,2,P|15:254|50:140,1,240.000009155274,4|8,1:2|0:2,0:1:0:0:
151,294,175304,2,0,P|256:342|361:294,1,240.000009155274,4|8,1:2|0:3,0:2:0:0:
512,118,175658,5,8,0:2:0:0:
287,177,175776,1,4,1:3:0:0:
442,2,175894,5,2,1:1:0:0:
362,292,176012,1,10,1:1:0:0:
33,65,176248,6,0,P|45:155|133:180,1,191.999994140625,4|0,1:1|0:2,0:2:0:0:
198,0,176603,1,8,0:2:0:0:
198,0,176721,1,0,1:2:0:0:
269,70,176839,2,0,P|279:114|251:198,1,95.9999970703126,2|0,0:2|1:2,0:2:0:0:
60,295,177075,2,0,P|49:248|58:201,1,95.9999970703126,8|0,0:2|0:2,0:2:0:0:
259,327,177311,2,0,B|378:309|324:382|455:361,1,191.999994140625,2|8,1:2|0:2,0:2:0:0:
512,162,177666,2,0,P|499:251|412:276,1,191.999994140625,2|0,0:2|1:2,0:2:0:0:
270,163,178020,2,0,P|279:116|269:70,1,95.9999970703126,8|0,0:2|0:0,0:2:0:0:
41,116,178256,6,0,P|53:26|140:1,1,191.999994140625,2|8,1:2|0:2,0:0:0:0:
471,116,178729,2,0,P|458:26|371:1,1,191.999994140625,2|8,1:2|0:2,0:2:0:0:
269,70,179083,2,0,L|248:263,1,191.999994140625,2|0,1:2|1:2,0:2:0:0:
406,362,179438,2,0,P|341:369|302:390,1,95.9999970703126,8|0,0:2|0:0,0:0:0:0:
429,191,179674,2,0,P|436:256|457:295,1,95.9999970703126,0|0,1:2|0:0,0:0:0:0:
259,168,179910,2,0,P|324:161|363:140,1,95.9999970703126,8|0,2:0|0:0,0:0:0:0:
235,338,180146,5,4,1:1:0:0:
118,94,180383,2,0,P|94:139|90:191,1,103.999995239258,8|0,0:0|0:0,0:0:0:0:
342,127,180619,1,2,1:2:0:0:
342,127,180737,2,0,P|338:75|314:29,1,103.999995239258,8|0,0:0|1:0,0:0:0:0:
179,245,180973,5,2,1:2:0:0:
322,272,181091,2,0,P|373:268|419:244,1,103.999995239258,2|8,0:0|2:0,0:0:0:0:
132,350,181327,2,0,P|177:374|229:377,1,103.999995239258,2|0,1:2|0:0,0:0:0:0:
224,132,181564,1,8,0:0:0:0:
118,94,181681,2,0,P|66:97|20:121,1,103.999995239258,2|0,0:0|3:0,0:0:0:0:
12,135,181859,1,0,3:0:0:0:
8,150,181918,1,0,3:0:0:0:
9,165,181977,1,0,3:0:0:0:
13,178,182036,6,0,B|31:248|123:246|123:246|183:100|308:68|383:90|383:90|415:133|415:133|362:101|304:120,1,623.999971435548,14|0,0:2|0:0,0:0:0:0:
204,72,183689,5,0,0:2:0:0:
200,60,183768,1,0,0:2:0:0:
197,48,183847,1,0,0:2:0:0:
194,36,183926,1,2,0:2:0:0:
116,114,185815,5,2,0:2:0:0:
221,169,187469,5,0,0:2:0:0:
225,157,187548,1,0,0:2:0:0:
228,145,187627,1,0,0:2:0:0:
231,133,187706,1,2,0:2:0:0:
305,169,189595,5,2,0:2:0:0:
193,248,191248,5,0,0:2:0:0:
189,236,191327,1,0,0:2:0:0:
186,224,191406,1,0,0:2:0:0:
183,212,191485,1,2,0:2:0:0:
102,283,193374,5,2,0:2:0:0:
229,369,195028,5,0,0:2:0:0:
233,357,195107,1,0,0:2:0:0:
236,345,195186,1,0,0:2:0:0:
239,333,195265,1,2,0:2:0:0:
390,384,197154,5,2,0:2:0:0:
512,199,197863,6,0,P|509:163|502:126,1,71.9999978027344,2|0,1:2|0:2,0:2:0:0:
448,2,198099,5,8,2:2:0:0:
448,2,198217,1,8,2:2:0:0:
354,85,198335,5,8,3:3:0:0:
329,100,198414,1,8,3:3:0:0:
300,103,198493,1,8,3:3:0:0:
271,99,198571,2,0,P|211:69|95:99,1,179.999994506836,8|0,0:2|0:2,0:2:0:0:
55,150,198926,6,2,B|45:218|76:256|76:256|39:270|8:247|8:247|45:218|56:150,1,272.000005187988,6|0,0:1|0:2,0:1:0:0:
252,10,199280,6,0,P|247:54|270:98,1,95.9999970703126,10|0,0:2|1:2,0:2:0:0:
461,192,199516,2,0,P|425:165|375:163,1,95.9999970703126,2|0,0:2|1:2,0:2:0:0:
198,281,199752,2,0,P|238:263|265:221,1,95.9999970703126,10|0,0:2|0:2,0:2:0:0:
270,98,199989,5,2,1:2:0:0:
500,350,200225,1,8,0:2:0:0:
500,350,200343,2,0,P|408:322|308:306,1,191.999994140625,2|0,0:2|1:2,0:2:0:0:
80,291,200697,2,0,P|65:336|61:384,1,95.9999970703126,8|0,0:2|0:2,0:2:0:0:
186,269,200933,5,2,1:2:0:0:
186,269,201052,1,0,1:2:0:0:
48,195,201170,2,0,P|63:100|91:8,1,191.999994140625,8|0,0:2|1:2,0:2:0:0:
192,36,201524,1,2,0:2:0:0:
295,15,201642,1,8,0:2:0:0:
373,85,201760,2,0,P|357:179|329:271,1,191.999994140625,0|0,1:2|1:2,0:2:0:0:
141,363,202115,6,2,B|85:346|46:382|46:382|20:338|69:281,1,191.999994140625,10|0,0:1|1:2,0:1:0:0:
26,224,202469,1,0,1:2:0:0:
158,277,202587,2,0,P|179:234|182:187,1,95.9999970703126,8|0,0:2|0:2,0:2:0:0:
89,72,202823,6,2,B|35:51|-6:91|-6:91|-32:47|17:-10,1,191.999994140625,2|8,1:2|0:2,0:1:0:0:
193,106,203178,2,2,P|296:36|395:47,1,191.999994140625,0|0,1:2|1:2,0:1:0:0:
512,150,203532,6,2,B|509:176|490:195|490:195|488:232|526:255|526:255|494:275|490:308,1,191.999994140625,10|0,0:2|1:2,0:1:0:0:
255,384,204004,1,10,0:2:0:0:
181,317,204122,2,2,B|179:294|179:294|187:282|184:268|184:268|205:219,1,95.9999970703126,2|0,0:1|1:2,0:1:0:0:
310,125,204359,5,2,1:1:0:0:
401,177,204477,1,10,0:2:0:0:
464,92,204595,1,0,0:2:0:0:
367,28,204713,6,2,B|330:14|330:14|318:18|318:18|274:2,1,95.9999970703126,6|0,1:2|0:2,0:1:0:0:
121,80,204949,2,2,B|84:66|84:66|72:70|72:70|28:54,1,95.9999970703126,8|0,0:2|0:2,0:1:0:0:
192,194,205185,5,2,1:1:0:0:
71,216,205304,1,0,0:2:0:0:
93,336,205422,1,8,0:2:0:0:
214,314,205540,2,2,B|260:310|290:289|290:289|297:293|297:293|317:347|369:373,1,191.999994140625,2|0,1:2|1:2,0:1:0:0:
512,303,205894,2,2,B|512:281|512:281|499:265|499:265|504:240|489:200,1,95.9999970703126,8|8,0:2|0:3,0:1:0:0:
368,69,206130,5,2,1:1:0:0:
313,268,206248,1,14,0:2:0:0:
90,25,206485,6,2,B|39:46|39:46|135:82|216:-2,1,223.999993164063,6|0,1:1|0:2,0:1:0:0:
64,146,206839,2,2,B|47:188|55:213|55:213|73:232,1,95.9999970703126,10|0,0:2|1:2,0:1:0:0:
262,205,207075,1,2,0:2:0:0:
329,296,207193,2,2,B|346:338|338:363|338:363|320:383,1,95.9999970703126,2|8,1:1|0:2,0:1:0:0:
73,232,207430,5,2,0:1:0:0:
39,329,207548,2,2,B|22:343|21:360|21:360|28:372|28:372|34:351|51:331,1,95.9999970703126,2|0,1:2|0:2,0:1:0:0:
191,162,207784,2,2,B|208:148|209:131|209:131|202:119|202:119|196:140|179:160,1,95.9999970703126,8|0,0:2|0:2,0:1:0:0:
299,337,208020,2,2,B|314:355|320:376|320:376|327:364|327:364|326:347|309:333,1,95.9999970703126,0|0,1:2|1:2,0:1:0:0:
254,240,208256,5,10,0:1:0:0:
254,240,208374,1,0,0:2:0:0:
141,274,208493,5,2,1:1:0:0:
191,162,208611,1,0,0:2:0:0:
144,54,208729,1,8,0:2:0:0:
79,158,208847,6,2,B|66:178|66:178|56:180|56:180|48:188|48:188|-9:172,1,95.9999970703126,2|0,0:1|1:2,0:1:0:0:
254,240,209083,2,2,B|267:260|267:260|277:262|277:262|285:270|285:270|342:254,1,95.9999970703126,2|8,0:1|0:2,0:1:0:0:
467,140,209319,2,2,B|501:158|531:162|531:162|535:169|535:169|511:218|498:282,1,191.999994140625,2|0,1:1|1:2,0:1:0:0:
512,382,209674,1,8,0:2:0:0:
254,240,209910,6,2,B|246:262|234:274|234:274|249:279|249:279|246:262|254:240,1,95.9999970703126,2|0,1:1|0:2,0:1:0:0:
229,120,210146,6,2,B|213:102|208:86|208:86|197:96|197:96|213:102|229:120,1,95.9999970703126,10|0,0:1|0:2,0:1:0:0:
347,155,210382,6,2,B|403:143|444:153|444:153|436:116|436:116|403:143|347:155,1,191.999994140625,2|8,1:1|0:2,0:1:0:0:
124,205,210737,2,2,B|67:216|26:206|26:206|34:243|34:243|67:216|124:205,1,191.999994140625,0|0,1:2|0:2,0:1:0:0:
229,120,211091,2,2,B|220:99|233:85|233:85|226:77|226:77|224:55|206:34,1,95.9999970703126,10|0,0:1|0:2,0:1:0:0:
33,242,211327,6,2,B|39:302|2:328|2:328|6:327|6:327|15:332|15:332|32:384|87:371,1,191.999994140625,2|8,1:2|0:2,0:1:0:0:
383,234,211681,2,2,B|384:294|424:315|424:315|420:315|420:315|411:321|411:321|401:374|345:368,1,191.999994140625,2|0,0:1|1:2,0:1:0:0:
124,205,212036,2,2,B|121:180|117:171|117:171|128:157|128:157|129:144|140:115,1,95.9999970703126,10|0,0:1|0:2,0:1:0:0:
323,27,212272,6,2,B|357:36|374:52|374:52|434:42|434:42|454:10|500:4,1,191.999994140625,6|8,1:2|0:2,0:1:0:0:
495,4,212626,1,0,2:2:0:0:
394,133,212744,2,0,P|375:164|380:246,1,95.9999970703126,0|0,1:2|0:2,0:2:0:0:
481,376,212981,2,0,P|480:328|458:286,1,95.9999970703126,8|0,0:2|0:2,0:2:0:0:
274,197,213217,5,8,3:3:0:0:
234,218,213296,1,8,3:3:0:0:
189,215,213374,1,8,3:3:0:0:
154,240,213453,5,4,3:3:0:0:
142,196,213532,1,4,3:3:0:0:
111,163,213611,1,4,3:3:0:0:
67,152,213689,5,8,0:2:0:0:
9,310,213807,1,8,0:2:0:0:
154,240,213926,5,8,0:2:0:0:
156,384,214044,1,8,0:2:0:0:
256,315,214162,5,8,0:2:0:0:
512,206,214398,5,8,0:3:0:0:
485,364,214516,1,8,0:2:0:0:
282,141,214752,5,0,1:2:0:0:
284,131,214811,1,0,1:2:0:0:
286,122,214870,1,8,0:2:0:0:
52,0,215107,5,8,3:3:0:0:
39,42,215185,1,8,3:3:0:0:
53,84,215264,1,8,3:3:0:0:
88,111,215343,1,0,3:2:0:0:
132,117,215422,1,4,3:3:0:0:
172,98,215500,1,4,3:3:0:0:
189,56,215579,5,10,0:2:0:0:
123,329,215697,1,10,0:2:0:0:
403,102,215933,6,2,P|489:132|498:222,1,191.999994140625,4|0,1:1|0:2,0:1:0:0:
396,306,216288,2,0,P|443:313|486:334,1,95.9999970703126,8|0,0:2|1:2,0:2:0:0:
338,188,216523,1,2,0:2:0:0:
249,288,216642,2,0,P|235:334|233:381,1,95.9999970703126,0|8,1:2|0:2,0:2:0:0:
99,251,216878,2,0,P|13:220|4:130,1,191.999994140625,2|0,0:2|0:2,0:1:0:0:
127,65,217232,2,0,P|79:57|36:36,1,95.9999970703126,8|0,0:2|0:2,0:2:0:0:
196,194,217468,1,2,1:2:0:0:
196,194,217587,1,0,1:2:0:0:
278,93,217705,2,0,P|291:46|293:0,1,95.9999970703126,8|0,0:2|0:2,0:2:0:0:
407,147,217941,6,2,B|459:205|525:179|525:179|528:143|497:111,1,191.999994140625,2|8,1:2|0:2,0:1:0:0:
140,337,218414,2,2,B|88:395|22:369|22:369|19:333|50:301,1,191.999994140625,2|8,1:2|0:2,0:1:0:0:
163,243,218768,2,2,B|211:242|253:271|253:271|284:231|332:220,1,191.999994140625,2|0,1:2|1:2,0:1:0:0:
426,265,219122,1,8,0:2:0:0:
512,24,219358,5,2,1:2:0:0:
433,125,219476,1,0,1:2:0:0:
383,8,219594,1,8,0:2:0:0:
383,8,219712,1,0,0:2:0:0:
308,85,219830,6,0,B|199:86|252:23|133:25,1,191.999994140625,2|8,1:2|0:2,0:2:0:0:
20,183,220185,2,0,P|120:186|148:100,1,191.999994140625,2|0,1:2|1:2,0:2:0:0:
216,292,220539,2,0,P|164:292|102:312,1,95.9999970703126,8|0,0:2|0:2,0:2:0:0:
280,164,220776,2,0,P|320:244|410:234,1,191.999994140625,2|8,1:2|0:2,0:2:0:0:
512,57,221130,2,0,P|471:137|381:127,1,191.999994140625,2|0,0:2|1:2,0:2:0:0:
322,37,221484,1,8,0:2:0:0:
488,379,221721,6,2,B|534:314|496:251|432:233|432:233|417:260|397:271,1,240.000009155274,4|8,1:1|0:2,0:1:0:0:
24,379,222193,2,2,B|-22:314|16:251|80:233|80:233|95:260|114:271,1,240.000009155274,4|8,1:2|0:2,0:1:0:0:
324,157,222548,2,0,B|332:192|332:192|256:253|178:192|178:192|187:157,1,240.000009155274,4|8,1:2|0:3,0:2:0:0:
452,26,222901,5,8,0:2:0:0:
347,236,223019,1,4,1:3:0:0:
341,0,223138,5,2,1:1:0:0:
444,269,223256,1,10,1:1:0:0:
122,96,223493,6,0,P|37:114|13:218,1,191.999994140625,4|0,1:1|0:2,0:2:0:0:
163,286,223846,1,8,0:2:0:0:
163,286,223964,1,0,1:2:0:0:
70,374,224082,2,0,B|54:330|54:330|71:284,1,95.9999970703126,2|0,0:2|1:2,0:2:0:0:
254,290,224319,2,0,B|271:335|271:335|255:379,1,95.9999970703126,8|0,0:2|0:2,0:2:0:0:
167,201,224555,2,0,B|193:170|189:134|189:134|145:83|180:22,1,191.999994140625,2|8,1:2|0:2,0:2:0:0:
348,148,224910,2,0,P|439:158|495:85,1,191.999994140625,2|0,0:2|1:2,0:2:0:0:
429,245,225264,6,0,B|437:289|497:303|497:303|530:272|512:214,2,191.999994140625,8|2|8,0:2|1:2|0:2,0:2:0:0:
367,196,225854,1,0,0:2:0:0:
233,377,225972,2,0,P|327:354|441:359,1,191.999994140625,2|8,1:2|0:2,0:2:0:0:
287,168,226327,2,0,P|193:191|79:186,1,191.999994140625,2|0,1:2|1:2,0:2:0:0:
0,125,226681,1,8,0:2:0:0:
281,0,226917,5,2,1:2:0:0:
257,94,227035,1,0,1:2:0:0:
186,27,227153,1,8,0:2:0:0:
351,66,227271,1,0,0:2:0:0:
230,181,227390,6,0,P|198:299|229:376,1,191.999994140625,2|8,1:2|0:2,0:2:0:0:
489,187,227744,2,0,B|544:243|497:310|497:310|469:311|442:265,1,191.999994140625,2|0,1:2|1:2,0:2:0:0:
351,66,228098,5,10,0:2:0:0:
286,272,228216,1,0,0:2:0:0:
193,87,228335,6,0,B|138:144|185:210|185:210|213:211|240:165,1,191.999994140625,2|8,1:2|0:2,0:2:0:0:
37,48,228689,2,0,B|-5:69|-17:123|-17:123|28:146|74:119,1,191.999994140625,2|0,2:2|1:2,0:2:0:0:
272,0,229043,5,10,0:2:0:0:
213,196,229161,1,0,0:2:0:0:
425,55,229280,6,2,B|497:65|537:156|510:234|510:234|493:217|464:204,1,256,4|8,1:1|0:2,0:1:0:0:
192,207,229634,2,2,B|168:275|231:352|313:364|313:364|305:341|307:309,1,256,6|0,0:2|0:2,0:1:0:0:
397,158,229988,2,2,P|389:94|340:46,1,128,14|0,0:2|0:2,0:1:0:0:
234,0,230224,5,8,0:3:0:0:
213,30,230303,1,8,0:3:0:0:
186,53,230381,1,8,0:3:0:0:
152,70,230460,1,4,0:3:0:0:
115,70,230539,1,4,0:3:0:0:
79,58,230618,1,4,0:3:0:0:
51,33,230696,5,10,0:1:0:0:
0,346,230815,1,6,1:1:0:0:
493,289,231052,6,2,P|480:198|397:157,1,191.999994140625,4|0,1:1|0:2,0:1:0:0:
267,295,231406,2,0,P|246:338|246:388,1,95.9999970703126,8|0,0:2|1:2,0:2:0:0:
393,256,231642,1,2,0:2:0:0:
268,180,231760,2,0,P|247:137|246:89,1,95.9999970703126,0|8,1:2|0:2,0:2:0:0:
18,94,231996,2,0,P|31:185|115:226,1,191.999994140625,2|0,0:2|0:2,0:1:0:0:
245,89,232350,2,0,P|266:46|266:-4,1,95.9999970703126,8|0,0:2|0:2,0:2:0:0:
119,128,232587,1,2,1:2:0:0:
119,128,232705,1,0,1:2:0:0:
244,204,232823,2,0,P|264:246|265:294,1,95.9999970703126,8|0,0:2|0:2,0:2:0:0:
408,167,233059,6,2,B|476:226|556:178|512:97|465:117,1,191.999994140625,2|8,1:2|0:2,0:1:0:0:
151,273,233532,2,2,B|83:332|3:284|47:203|94:223,1,191.999994140625,2|8,1:2|0:2,0:1:0:0:
216,360,233886,2,2,B|284:419|364:371|320:290|273:310,1,191.999994140625,2|0,1:2|1:2,0:1:0:0:
121,384,234240,1,8,0:2:0:0:
371,213,234476,5,2,1:2:0:0:
283,307,234594,1,0,1:2:0:0:
245,186,234712,1,8,0:2:0:0:
245,186,234830,1,0,0:2:0:0:
377,124,234948,6,0,B|430:139|430:139|500:96|468:12,1,191.999994140625,2|8,1:2|0:2,0:2:0:0:
285,67,235304,2,0,B|172:72|234:4|93:14,1,191.999994140625,2|0,1:2|1:2,0:2:0:0:
0,172,235657,2,0,P|46:147|115:132,1,95.9999970703126,8|0,0:2|0:2,0:2:0:0:
151,290,235894,2,0,B|202:305|202:305|272:262|244:187,1,191.999994140625,2|8,1:2|0:2,0:2:0:0:
379,270,236248,2,0,B|350:345|420:388|420:388|471:373,1,191.999994140625,2|0,0:2|1:2,0:2:0:0:
508,285,236602,1,8,0:2:0:0:
211,53,236839,6,2,B|170:32|137:11|137:11|86:52|-2:92,1,240.000009155274,4|8,1:1|0:2,0:1:0:0:
211,331,237311,2,2,B|170:352|137:373|137:373|86:332|-2:292,1,240.000009155274,4|8,1:2|0:2,0:1:0:0:
174,193,237665,2,0,B|230:174|270:184|270:184|302:207|302:207|351:220|402:196,1,240.000009155274,4|8,1:2|0:3,0:2:0:0:
505,81,238019,5,8,0:2:0:0:
459,285,238137,1,4,1:3:0:0:
328,113,238255,5,2,1:1:0:0:
380,381,238373,1,10,1:1:0:0:
77,188,238611,6,0,P|-8:291|16:357,1,191.999994140625,4|0,1:1|0:2,0:2:0:0:
178,237,238964,1,8,0:2:0:0:
178,237,239082,1,0,1:2:0:0:
272,275,239200,2,0,P|281:322|278:370,1,95.9999970703126,2|0,0:2|1:2,0:2:0:0:
99,380,239437,2,0,P|89:332|92:284,1,95.9999970703126,8|0,0:2|0:2,0:2:0:0:
295,162,239674,2,0,P|414:164|461:94,1,191.999994140625,2|8,1:2|0:2,0:2:0:0:
419,266,240028,2,0,P|483:310|484:231,1,191.999994140625,2|0,0:2|1:2,0:2:0:0:
371,133,240381,2,0,P|356:94|347:31,1,95.9999970703126,8|0,0:2|0:0,0:2:0:0:
204,81,240619,6,0,P|94:50|-49:56,1,191.999994140625,2|8,1:2|0:2,0:0:0:0:
308,303,241091,2,0,P|418:334|561:328,1,191.999994140625,2|8,1:2|0:2,0:2:0:0:
512,232,241445,2,0,P|420:203|324:197,1,191.999994140625,2|0,1:2|1:2,0:2:0:0:
189,290,241799,2,0,P|185:345|174:395,1,95.9999970703126,8|0,0:2|0:0,0:0:0:0:
113,230,242036,2,0,P|58:225|8:214,1,95.9999970703126,0|0,1:2|0:0,0:0:0:0:
173,154,242272,2,0,P|177:99|188:49,1,95.9999970703126,8|0,2:0|0:0,0:0:0:0:
249,214,242507,5,4,1:1:0:0:
466,106,242744,2,0,P|462:51|449:-1,1,103.999995239258,8|0,0:0|0:0,0:0:0:0:
363,123,242980,1,2,1:2:0:0:
363,123,243099,2,0,P|367:178|378:228,1,103.999995239258,8|0,0:0|1:0,0:0:0:0:
203,43,243334,5,2,1:2:0:0:
98,121,243452,2,0,P|47:121|-5:96,1,103.999995239258,2|8,0:0|2:0,0:0:0:0:
152,243,243689,2,0,P|203:243|255:218,1,103.999995239258,2|0,1:2|0:0,0:0:0:0:
382,103,243925,1,8,0:0:0:0:
488,206,244043,2,0,P|493:262|475:308,1,103.999995239258,2|0,0:0|3:0,0:0:0:0:
466,320,244220,1,0,3:0:0:0:
453,332,244279,1,0,3:0:0:0:
436,339,244338,1,0,3:0:0:0:
418,344,244398,6,2,B|379:343|355:314|355:314|340:359|294:360|294:360|260:334|214:334,1,240.000009155274,12|0,0:1|1:0,0:1:0:0:
16,226,244752,2,2,B|55:225|79:196|79:196|94:241|140:242|140:242|174:216|219:216,1,240.000009155274,12|0,0:0|1:0,0:1:0:0:
386,161,245106,2,2,B|422:120|396:76|396:76|320:57,1,120.000004577637,12|0,0:0|0:0,0:1:0:0:
266,5,245342,5,8,0:3:0:0:
243,32,245421,1,8,0:3:0:0:
213,52,245499,1,8,0:3:0:0:
176,59,245578,1,4,0:3:0:0:
140,54,245657,1,4,0:3:0:0:
104,47,245736,1,4,0:3:0:0:
77,23,245814,5,10,0:1:0:0:
0,304,245933,1,6,1:1:0:0:
0,304,246288,6,0,B|84:336|194:244|55:214|163:81|327:102|359:329|152:359|110:195,1,528.000016113282,6|0,1:2|0:2,0:2:0:0:
90,105,247941,5,0,0:2:0:0:
93,95,248020,1,0,0:2:0:0:
93,84,248099,1,0,0:2:0:0:
91,73,248178,2,0,B|64:43|23:46|23:46|-9:120|28:172,1,207.999990478516,2|0,0:2|1:2,0:2:0:0:
19,192,249595,5,0,1:2:0:0:
445,134,250067,1,4,1:2:0:0:
398,384,250894,5,8,0:3:0:0:
327,320,251012,1,8,0:3:0:0:
316,299,251090,1,8,0:3:0:0:
305,278,251169,1,8,0:3:0:0:
309,254,251248,1,4,0:3:0:0:
314,231,251326,1,4,0:3:0:0:
323,210,251405,1,4,0:3:0:0:
339,193,251485,6,2,B|383:201|383:201|438:171,1,88.000002685547,10|8,0:1|0:2,0:1:0:0:
301,39,251721,2,2,B|338:18|338:18|382:26,1,88.000002685547,10|8,0:1|0:2,0:1:0:0:
223,130,251957,5,6,1:2:0:0:
196,98,252036,1,0,0:2:0:0:
155,87,252115,1,0,0:2:0:0:
115,98,252193,1,8,0:2:0:0:
90,131,252272,1,0,0:2:0:0:
86,172,252351,1,0,0:2:0:0:
99,211,252430,5,2,0:1:0:0:
126,207,252508,1,0,0:2:0:0:
151,218,252587,1,0,0:2:0:0:
168,239,252666,1,8,0:2:0:0:
175,265,252744,1,0,0:2:0:0:
172,292,252823,1,0,0:2:0:0:
159,316,252902,5,2,1:2:0:0:
124,292,252981,1,0,0:2:0:0:
117,251,253059,1,0,0:2:0:0:
133,212,253138,1,8,0:2:0:0:
164,184,253217,1,0,0:2:0:0:
205,180,253296,1,0,0:2:0:0:
239,201,253374,5,2,1:1:0:0:
235,173,253453,1,0,0:2:0:0:
249,149,253532,1,0,0:2:0:0:
272,133,253611,2,0,B|293:107|293:107|293:86|293:86|272:55,1,88.000002685547,8|0,0:2|0:2,0:2:0:0:
390,6,253847,6,2,B|458:0|496:61|496:61|480:122|519:168|519:168|492:203|494:256,1,311.999985717774,2|0,1:2|0:2,0:1:0:0:
512,365,254319,2,0,B|500:356|500:356|488:352|488:352|486:338|486:338|467:316|407:304,1,103.999995239258,2|0,1:2|0:2,0:2:0:0:
314,380,254556,1,10,0:2:0:0:
244,274,254674,2,2,B|220:255|220:255|154:287|154:287|139:353|191:383,1,207.999990478516,2|0,1:1|1:2,0:1:0:0:
327,295,255028,1,8,0:2:0:0:
184,100,255264,5,2,1:1:0:0:
110,127,255382,1,0,1:2:0:0:
51,83,255500,1,10,0:2:0:0:
51,83,255619,1,0,0:2:0:0:
151,24,255737,5,2,1:1:0:0:
206,85,255855,1,0,0:2:0:0:
286,57,255973,1,10,0:2:0:0:
286,57,256091,1,0,1:2:0:0:
329,152,256209,5,2,0:1:0:0:
410,117,256327,1,0,1:2:0:0:
481,176,256445,1,10,0:2:0:0:
481,176,256563,1,0,0:2:0:0:
394,232,256681,5,2,1:1:0:0:
320,173,256800,1,0,0:2:0:0:
249,234,256918,1,10,0:2:0:0:
249,234,257036,1,0,0:2:0:0:
136,173,257154,6,2,P|118:239|133:301,2,117.333336914063,2|2|2,1:1|0:1|0:1,0:1:0:0:
333,53,257626,6,2,B|413:60|464:135|464:135|521:123|533:43|533:43|496:11|451:19,1,360.000013732911,6|0,1:1|0:2,0:1:0:0:
344,208,258099,2,2,B|307:304|401:365|401:365|403:337|425:308,1,223.999993164063,6|8,1:2|0:2,0:1:0:0:
264,135,258453,2,2,B|223:125|201:89|201:89|143:78|92:121,1,191.999994140625,2|8,1:1|0:3,0:1:0:0:
0,275,258807,2,2,B|32:264|32:264|40:253|40:253|87:242,1,95.9999970703126,10|8,0:2|0:2,0:1:0:0:
300,241,259044,5,2,0:1:0:0:
223,374,259162,1,8,0:2:0:0:
196,232,259280,1,0,0:2:0:0:
329,349,259398,6,2,B|358:376|411:384|456:364|469:342|469:342|441:318|436:283,1,223.999993164063,6|0,1:1|0:2,0:1:0:0:
495,379,259752,1,8,0:2:0:0:
436,283,259870,2,0,P|439:206|500:106,1,191.999994140625,0|0,1:2|1:2,0:2:0:0:
299,57,260225,2,0,P|383:83|379:3,2,191.999994140625,8|2|8,0:2|1:2|0:2,0:2:0:0:
11,174,260933,5,2,1:2:0:0:
73,231,261052,2,0,B|94:229|94:229|117:232|117:232|143:222|143:222|166:223,1,95.9999970703126,2|8,0:1|0:2,0:1:0:0:
270,296,261288,5,2,0:2:0:0:
270,296,261406,2,2,B|290:366|368:360|368:360|381:366|381:366|407:287|484:278|484:278|477:297|483:322,1,311.999985717774,2|0,1:1|0:2,0:1:0:0:
370,228,261878,6,2,B|365:193|365:193|370:159,1,69.3333301595054,2|0,1:2|0:2,0:1:0:0:
293,146,262036,2,2,B|308:114|308:114|331:89,1,69.3333301595054,2|8,0:1|0:2,0:1:0:0:
271,36,262193,2,2,B|301:17|301:17|334:9,1,69.3333301595054,2|0,0:1|0:2,0:1:0:0:
452,155,262351,6,2,B|439:123|439:123|412:92,1,69.3333301595054,2|0,0:1|0:2,0:1:0:0:
286,245,262508,2,2,B|297:275|297:275|321:303,1,69.3333301595054,2|8,0:1|0:2,0:1:0:0:
151,170,262666,2,2,B|140:219|140:219|85:239|85:239|3:206|6:131,1,242.666655558269,2|0,0:2|1:2,0:1:0:0:
99,46,263059,2,2,B|128:82|165:75|165:75|208:43,1,103.999995239258,10|0,0:2|0:2,0:1:0:0:
303,0,263296,5,2,1:1:0:0:
283,80,263414,1,0,0:2:0:0:
365,68,263532,1,10,0:2:0:0:
329,143,263650,1,0,1:2:0:0:
412,144,263768,1,2,0:1:0:0:
367,214,263886,1,0,1:2:0:0:
442,248,264004,1,10,0:2:0:0:
373,294,264122,1,0,0:2:0:0:
438,346,264241,5,2,1:1:0:0:
358,370,264359,1,0,0:2:0:0:
294,316,264477,2,2,B|275:305|275:305|251:302|251:302|232:311|232:311|174:313,1,103.999995239258,10|0,0:2|0:2,0:1:0:0:
55,384,264713,6,2,B|71:345|71:345|64:329|64:329|90:258,1,103.999995239258,2|0,1:2|1:2,0:1:0:0:
163,227,264949,1,8,3:2:0:0:
158,217,265008,1,0,3:2:0:0:
152,208,265067,1,0,3:2:0:0:
145,199,265126,1,0,3:2:0:0:
138,191,265185,6,2,B|127:161|127:161|108:153|108:153|111:141|111:141|96:75|134:18|196:12,1,240.000009155274,6|8,1:2|0:2,0:1:0:0:
332,158,265540,2,2,B|366:197|436:192|436:192|466:147|532:154|532:154|511:171,1,240.000009155274,2|0,0:1|1:2,0:1:0:0:
392,384,265894,2,2,P|388:326|354:265,1,120.000004577637,10|0,0:1|1:2,0:1:0:0:
264,225,266130,5,2,3:2:0:0:
244,228,266208,1,0,3:3:0:0:
224,232,266287,1,0,3:3:0:0:
205,236,266366,1,8,3:2:0:0:
185,240,266444,1,0,3:3:0:0:
165,244,266523,1,0,3:3:0:0:
146,248,266602,1,10,3:2:0:0:
126,252,266681,1,0,3:2:0:0:
107,256,266759,1,0,3:2:0:0:
87,260,266838,1,0,1:3:0:0:
67,264,266917,1,0,3:2:0:0:
48,268,266996,1,0,3:2:0:0:
29,272,267075,5,6,1:1:0:0:
6,248,267154,1,0,0:2:0:0:
1,216,267233,1,0,0:2:0:0:
18,189,267311,1,8,0:2:0:0:
48,179,267390,1,0,0:2:0:0:
78,189,267469,1,0,0:2:0:0:
93,217,267548,1,2,0:2:0:0:
97,248,267626,1,0,0:2:0:0:
118,271,267705,1,0,0:2:0:0:
149,279,267784,1,8,0:2:0:0:
179,267,267863,1,0,0:2:0:0:
197,241,267941,1,0,0:2:0:0:
203,209,268020,5,2,1:1:0:0:
198,202,268099,1,0,0:2:0:0:
193,195,268178,1,0,0:2:0:0:
188,188,268256,1,8,0:2:0:0:
183,181,268335,1,0,0:2:0:0:
178,174,268414,1,0,0:2:0:0:
173,167,268493,1,2,1:2:0:0:
168,160,268571,1,0,0:2:0:0:
163,153,268650,1,0,0:2:0:0:
158,146,268729,1,8,0:2:0:0:
153,139,268807,1,0,0:2:0:0:
148,132,268886,1,0,0:2:0:0:
143,125,268965,5,2,1:1:0:0:
123,151,269043,1,0,0:2:0:0:
93,167,269122,1,0,0:2:0:0:
60,169,269201,1,8,0:2:0:0:
30,157,269279,1,0,0:2:0:0:
7,133,269358,1,0,0:2:0:0:
0,102,269437,1,2,1:2:0:0:
0,69,269516,1,0,0:2:0:0:
15,40,269594,1,0,0:2:0:0:
41,21,269673,1,8,0:2:0:0:
74,15,269752,1,0,0:2:0:0:
106,23,269831,1,0,0:2:0:0:
132,43,269910,6,2,B|128:76|128:76|249:55|249:55|309:15|309:15|421:27|421:27|398:55,1,360.000013732911,2|0,2:1|0:2,0:1:0:0:
267,87,270382,1,2,1:2:0:0:
430,61,270500,2,2,B|477:82|477:82|496:145|496:145|436:248,1,207.999990478516,2|0,1:1|0:2,0:1:0:0:
512,352,270855,2,0,B|467:323|467:323|416:324,1,103.999995239258,2|0,1:1|0:2,0:2:0:0:
302,384,271091,2,0,B|304:355|299:335|285:317|285:317|284:285|302:265|302:265|274:236|274:173,1,207.999990478516,8|0,0:2|0:2,0:2:0:0:
267,87,271445,1,2,1:2:0:0:
123,155,271563,2,2,P|126:48|221:19,1,207.999990478516,10|0,0:1|1:2,0:1:0:0:
512,167,272036,5,10,0:2:0:0:
512,167,272154,1,0,0:2:0:0:
442,221,272272,5,2,1:1:0:0:
376,178,272390,1,0,1:2:0:0:
302,204,272508,1,10,0:2:0:0:
302,204,272626,1,0,0:2:0:0:
228,131,272744,5,6,1:1:0:0:
200,232,272863,1,0,0:2:0:0:
111,283,272981,1,10,0:2:0:0:
111,283,273099,1,0,0:2:0:0:
207,355,273217,6,2,B|236:359|236:359|297:340|297:340|313:317|313:317|388:305|388:305|437:348,1,240.000009155274,6|8,1:2|0:2,0:1:0:0:
512,180,273571,2,2,B|512:203|512:203|447:174|447:174|416:123|416:123|307:79,1,240.000009155274,2|0,1:2|1:2,0:1:0:0:
232,167,273926,2,2,B|221:190|195:202|173:194|173:194|150:180,1,95.9999970703126,10|0,0:2|0:2,0:1:0:0:
48,34,274162,5,2,1:1:0:0:
0,276,274280,1,14,0:1:0:0:
336,90,274516,6,2,B|373:92|420:66|420:66|422:81|422:81|402:152|441:212,1,240.000009155274,6|0,1:2|0:2,0:1:0:0:
405,380,274870,2,0,P|460:367|527:362,1,95.9999970703126,10|0,0:2|1:2,0:2:0:0:
346,228,275107,2,0,P|401:215|468:210,1,95.9999970703126,2|0,0:2|1:2,0:2:0:0:
269,333,275343,2,2,B|259:302|259:302|259:282|259:282|242:220,1,95.9999970703126,10|0,0:1|0:2,0:1:0:0:
154,91,275579,6,2,B|139:85|139:85|126:86|126:86|116:80|116:80|88:76,1,63.9999980468751,2|0,1:1|0:2,0:1:0:0:
192,188,275737,2,2,B|177:182|177:182|164:183|164:183|154:177|154:177|126:173,1,63.9999980468751,2|8,0:1|0:2,0:1:0:0:
277,51,275894,2,2,B|262:45|262:45|249:46|249:46|239:40|239:40|211:36,1,63.9999980468751,2|0,0:1|0:2,0:1:0:0:
329,157,276052,5,2,1:1:0:0:
329,157,276170,2,0,B|377:183|377:183|420:159|420:159|441:107|409:62,1,191.999994140625,2|0,1:1|0:2,0:2:0:0:
213,17,276524,6,2,B|205:62|173:64|173:64|97:45|97:45|87:32|87:32|18:14|18:14|-25:23|-16:72,1,287.999991210938,2|0,1:2|0:2,0:1:0:0:
188,160,276996,2,2,B|235:176|235:176|233:188|233:188|264:252|197:304,1,191.999994140625,2|8,1:2|0:2,0:1:0:0:
55,384,277351,2,2,B|54:354|54:354|30:313|30:313|39:283|39:283|22:187,1,191.999994140625,2|0,1:2|1:2,0:1:0:0:
117,26,277705,5,10,0:2:0:0:
184,115,277823,2,0,B|214:135|214:135|261:129|261:129|284:95|284:95|366:97|366:97|334:193,1,223.999993164063,2|0,0:1|1:2,0:2:0:0:
284,240,278178,5,10,0:1:0:0:
284,240,278296,1,0,0:2:0:0:
406,303,278414,6,2,B|432:304|457:312|457:312|474:297|502:287,1,103.999995239258,2|0,1:1|0:1,0:1:0:0:
360,113,278650,2,2,B|386:114|411:122|411:122|428:107|456:97,1,103.999995239258,10|0,0:1|0:1,0:1:0:0:
284,240,278886,2,2,B|310:241|335:249|335:249|352:234|380:224,1,103.999995239258,2|0,0:1|1:1,0:1:0:0:
229,40,279122,2,2,B|255:41|280:49|280:49|297:34|325:24,1,103.999995239258,10|0,0:1|0:1,0:1:0:0:
132,120,279359,6,2,B|103:117|76:126|76:126|58:110|27:99,1,111.999996582031,2|0,1:1|0:1,0:1:0:0:
153,306,279595,2,2,B|124:303|97:312|97:312|79:296|48:285,1,111.999996582031,10|0,0:1|0:1,0:1:0:0:
333,60,279831,2,2,B|304:57|277:66|277:66|259:50|228:39,1,111.999996582031,2|0,1:1|1:1,0:1:0:0:
373,378,280067,2,2,B|344:375|317:384|317:384|299:368|268:357,1,111.999996582031,10|0,0:1|0:1,0:1:0:0:
449,225,280304,6,2,B|464:249|476:287|476:287|500:239|538:208|538:208|522:160|470:104,1,272.000005187988,6|8,1:1|0:2,0:1:0:0:
279,0,280658,6,2,B|280:41|257:75|257:75|276:111|276:111|232:153|231:239,1,256,6|0,0:2|0:2,0:1:0:0:
68,381,281012,6,2,B|62:347|54:334|54:334|58:320|56:304|56:304|48:293|40:237,1,128,14|0,0:2|1:2,0:1:0:0:
144,102,281248,5,8,3:3:0:0:
185,126,281326,1,8,3:3:0:0:
232,140,281405,1,8,3:3:0:0:
282,140,281484,1,4,3:3:0:0:
329,127,281562,1,4,3:3:0:0:
372,103,281641,1,4,3:3:0:0:
406,68,281720,5,8,0:2:0:0:
287,373,281839,1,8,0:2:0:0:
192,265,282636,5,2,0:2:0:0:
186,249,282732,1,0,0:2:0:0:
180,233,282828,1,2,0:1:0:0:
256,192,282889,12,0,289916,0:2:0:0:
