osu file format v14

[General]
AudioFilename: audio.mp3
AudioLeadIn: 0
PreviewTime: 168217
Countdown: 0
SampleSet: Soft
StackLeniency: 0.6
Mode: 0
LetterboxInBreaks: 0
WidescreenStoryboard: 1

[Editor]
Bookmarks: 619,21406,21878,36524,51642,52115,70422,85540,86012,104556,119674,120146,134792,153571,154162,168689,183926,184398,184870,185343,185815,186288,186760,187233,187705,188178,188650,189122,189595,190067,190540,191012,191485,191957,192430,192902,193374,193847,194319,194792,195264,195737,196209,196681,197154,197626,215933,231052,231524,251957,267075,267548,282636
DistanceSpacing: 0.9
BeatDivisor: 4
GridSize: 32
TimelineZoom: 2.400001

[Metadata]
Title:secret deep blue
TitleUnicode:secret deep blue
Artist:Nakae Mitsuki
ArtistUnicode:中恵光城
Creator:Deca
Version:collab insane
Source:カスタムオーダーメイド3D2
Tags:sdb silky kanau fuyuyu- kowari shizuku- shikibe mayu kazato asa lasse brasse EPiDOTE eroge hentai video game one custom order maid 3d 2 it's a night magic best works album japanese rock masaru teramae tokunan 寺前 甲 Shigetoshi Yamada 山田 重利
BeatmapID:3376153
BeatmapSetID:1451629

[Difficulty]
HPDrainRate:5
CircleSize:4
OverallDifficulty:8
ApproachRate:9.2
SliderMultiplier:3.1
SliderTickRate:1

[Events]
//Background and Video events
0,0,"81678024_p0.jpg",0,0
//Break Periods
2,184126,197293
//Storyboard Layer 0 (Background)
//Storyboard Layer 1 (Fail)
//Storyboard Layer 2 (Pass)
//Storyboard Layer 3 (Foreground)
//Storyboard Layer 4 (Overlay)
//Storyboard Sound Samples

[TimingPoints]
619,472.44094488189,4,2,34,50,1,0
619,-100,4,2,34,50,0,0
2508,-100,4,2,34,55,0,0
3453,-100,4,2,34,60,0,0
3768,-90.9090909090909,4,2,34,60,0,0
3926,-125,4,2,34,60,0,0
4044,-125,4,2,34,55,0,0
4398,-100,4,2,34,65,0,0
11898,-100,4,2,34,5,0,0
11957,-100,4,2,34,65,0,0
15737,-100,4,2,34,60,0,0
17626,-100,4,2,34,65,0,0
19044,-100,4,2,34,60,0,0
19280,-100,4,2,34,55,0,0
19516,-100,4,2,34,40,0,0
19634,-100,4,2,34,20,0,0
20343,-100,4,2,34,25,0,0
20461,-100,4,2,34,50,0,0
20697,-100,4,2,34,55,0,0
21288,-100,4,2,34,50,0,0
21406,-125,4,2,34,55,0,0
34398,-222.222222222222,4,2,34,55,0,0
34634,-222.222222222222,4,2,34,20,0,0
35107,-222.222222222222,4,2,34,30,0,0
35343,-125,4,2,34,50,0,0
36465,-125,4,2,34,5,0,0
36524,-111.111111111111,4,2,34,55,0,0
49516,-99.9999999999999,4,2,34,55,0,0
49575,-99.9999999999999,4,2,34,20,0,0
49989,-99.9999999999999,4,2,34,50,0,0
50697,-99.9999999999999,4,2,34,55,0,0
51170,-99.9999999999999,4,2,34,60,0,0
51642,-100,4,2,34,65,0,0
52469,-100,4,2,34,60,0,0
53473,-100,4,2,34,5,0,0
53532,-100,4,2,34,65,0,0
53709,-100,4,2,34,65,0,0
53768,-100,4,2,34,65,0,0
55422,-111.111111111111,4,2,34,50,0,0
57784,-125,4,2,34,50,0,0
58729,-100,4,2,34,50,0,0
59201,-100,4,2,34,55,0,0
62922,-100,4,2,34,5,0,0
62981,-100,4,2,34,60,0,0
65756,-100,4,2,34,5,0,0
65815,-100,4,2,34,60,0,0
66996,-100,4,2,34,45,0,0
68532,-100,4,2,34,60,0,0
69831,-100,4,2,34,50,0,0
70067,-200,4,2,34,60,0,0
70422,-95.2380952380952,4,2,34,70,0,1
72607,-95.2380952380952,4,2,34,70,0,1
72666,-95.2380952380952,4,2,34,70,0,1
76209,-105.263157894737,4,2,34,70,0,1
76681,-86.9565217391304,4,2,34,70,0,1
77036,-74.0740740740741,4,2,34,70,0,1
77390,-95.2380952380952,4,2,34,70,0,1
83768,-74.0740740740741,4,2,34,70,0,1
84241,-95.2380952380952,4,2,34,70,0,1
85185,-95.2380952380952,4,2,34,70,0,0
85304,-200,4,2,34,70,0,0
85540,-95.2380952380952,4,2,34,70,0,1
87725,-95.2380952380952,4,2,34,70,0,1
87784,-95.2380952380952,4,2,34,70,0,1
90323,-95.2380952380952,4,2,34,70,0,1
90382,-95.2380952380952,4,2,34,70,0,1
91327,-105.263157894737,4,2,34,70,0,1
91800,-86.9565217391304,4,2,34,70,0,1
92154,-74.0740740740741,4,2,34,70,0,1
92508,-95.2380952380952,4,2,34,70,0,1
92863,-200,4,2,34,70,0,1
93040,-200,4,2,34,5,0,1
93099,-95.2380952380952,4,2,34,70,0,1
93630,-95.2380952380952,4,2,34,5,0,1
93689,-95.2380952380952,4,2,34,70,0,1
96465,-95.2380952380952,4,2,34,5,0,1
96524,-95.2380952380952,4,2,34,70,0,1
96937,-95.2380952380952,4,2,34,70,0,1
96996,-95.2380952380952,4,2,34,70,0,1
98886,-86.9565217391304,4,2,34,70,0,1
99831,-95.2380952380952,4,2,34,70,0,1
100776,-285.714285714286,4,2,34,50,0,0
100894,-285.714285714286,4,2,34,20,0,0
102193,-285.714285714286,4,2,34,40,0,0
102666,-285.714285714286,4,2,34,50,0,0
103374,-125,4,2,34,50,0,0
103493,-125,4,2,34,60,0,0
103611,-100,4,2,34,60,0,0
104556,-100,4,2,34,65,0,0
115894,-125,4,2,34,55,0,0
117784,-100,4,2,34,55,0,0
118493,-100,4,2,34,60,0,0
120855,-86.9565217391304,4,2,34,65,0,0
122272,-100,4,2,34,65,0,0
123453,-111.111111111111,4,2,34,55,0,0
126701,-111.111111111111,4,2,34,5,0,0
126760,-111.111111111111,4,2,34,55,0,0
132666,-100,4,2,34,55,0,0
132725,-100,4,2,34,20,0,0
133138,-100,4,2,34,50,0,0
133847,-100,4,2,34,55,0,0
134319,-100,4,2,34,60,0,0
134792,-100,4,2,34,65,0,0
135619,-100,4,2,34,60,0,0
136622,-100,4,2,34,5,0,0
136681,-100,4,2,34,65,0,0
138571,-111.111111111111,4,2,34,50,0,0
140933,-125,4,2,34,50,0,0
141878,-100,4,2,34,50,0,0
142350,-100,4,2,34,55,0,0
146130,-100,4,2,34,60,0,0
150146,-100,4,2,34,45,0,0
151681,-100,4,2,34,60,0,0
152981,-100,4,2,34,50,0,0
153216,-200,4,2,34,60,0,0
153512,-200,4,2,34,5,0,0
153571,-95.2380952380952,4,2,34,70,0,1
155284,-95.2380952380952,4,2,34,5,0,1
155343,-95.2380952380952,4,2,34,70,0,1
155756,-95.2380952380952,4,2,34,70,0,1
155815,-95.2380952380952,4,2,34,70,0,1
158355,-95.2380952380952,4,2,34,70,0,1
158414,-95.2380952380952,4,2,34,70,0,1
159359,-105.263157894737,4,2,34,70,0,1
159536,-105.263157894737,4,2,34,70,0,1
159595,-105.263157894737,4,2,34,70,0,1
159831,-86.9565217391304,4,2,34,70,0,1
160185,-74.0740740740741,4,2,34,70,0,1
160540,-95.2380952380952,4,2,34,70,0,1
160894,-200,4,2,34,70,0,1
161071,-200,4,2,34,5,0,1
161130,-95.2380952380952,4,2,34,70,0,1
161662,-95.2380952380952,4,2,34,5,0,1
161721,-95.2380952380952,4,2,34,70,0,1
164496,-95.2380952380952,4,2,34,5,0,1
164556,-95.2380952380952,4,2,34,70,0,1
166918,-86.9565217391304,4,2,34,70,0,1
167449,-86.9565217391304,4,2,34,70,0,1
167508,-86.9565217391304,4,2,34,70,0,1
167863,-95.2380952380952,4,2,34,70,0,1
168335,-200,4,2,34,70,0,0
168630,-200,4,2,34,5,0,0
168689,-95.2380952380952,4,2,34,70,0,1
174477,-74.0740740740741,4,2,34,70,0,1
174949,-105.263157894737,4,2,34,70,0,1
175304,-74.0740740740741,4,2,34,70,0,1
175658,-105.263157894737,4,2,34,70,0,1
176012,-200,4,2,34,70,0,1
176248,-105.263157894737,4,2,34,70,0,1
182036,-166.666666666667,4,2,34,65,0,1
182154,-166.666666666667,4,2,34,30,0,1
183571,-166.666666666667,4,2,34,40,0,1
183926,-100,4,2,34,40,0,0
197863,-100,4,2,34,55,0,0
198099,-100,4,2,34,60,0,0
198571,-100,4,2,34,65,0,0
198867,-100,4,2,34,5,0,0
198926,-100,4,2,34,75,0,0
199162,-100,4,2,34,65,0,0
199280,-100,4,2,34,70,0,0
199457,-100,4,2,34,5,0,0
199516,-100,4,2,34,70,0,0
199930,-100,4,2,34,70,0,0
199989,-100,4,2,34,70,0,0
202233,-86.9565217391304,4,2,34,70,0,0
202587,-100,4,2,34,70,0,0
203000,-100,4,2,34,5,0,0
203059,-100,4,2,34,70,0,0
203709,-100,4,2,34,5,0,0
203768,-100,4,2,34,70,0,0
204300,-100,4,2,34,5,0,0
204359,-100,4,2,34,70,0,0
204890,-100,4,2,34,5,0,0
204949,-100,4,2,34,70,0,0
206248,-200,4,2,34,70,0,0
206426,-200,4,2,34,70,0,0
206485,-100,4,2,34,70,0,0
207961,-100,4,2,34,5,0,0
208020,-100,4,2,34,70,0,0
209851,-100,4,2,34,5,0,0
209910,-100,4,2,34,70,0,0
210382,-86.9565217391304,4,2,34,70,0,0
211091,-100,4,2,34,70,0,0
211268,-100,4,2,34,5,0,0
211327,-100,4,2,34,70,0,0
212213,-100,4,2,34,5,0,0
212272,-100,4,2,34,70,0,0
215697,-200,4,2,34,70,0,0
215874,-200,4,2,34,5,0,0
215933,-95.2380952380952,4,2,34,70,0,1
221721,-105.263157894737,4,2,34,70,0,1
222193,-86.9565217391304,4,2,34,70,0,1
222547,-74.0740740740741,4,2,34,70,0,1
222902,-95.2380952380952,4,2,34,70,0,1
223256,-200,4,2,34,70,0,1
223492,-95.2380952380952,4,2,34,70,0,1
226327,-80,4,2,34,70,0,1
226681,-95.2380952380952,4,2,34,70,0,1
230697,-200,4,2,34,70,0,0
230993,-200,4,2,34,5,0,0
231052,-95.2380952380952,4,2,34,70,0,1
232292,-95.2380952380952,4,2,34,70,0,1
232351,-95.2380952380952,4,2,34,70,0,1
235835,-95.2380952380952,4,2,34,5,0,1
235894,-95.2380952380952,4,2,34,70,0,1
236839,-105.263157894737,4,2,34,70,0,1
237311,-86.9565217391304,4,2,34,70,0,1
237666,-74.0740740740741,4,2,34,70,0,1
238020,-95.2380952380952,4,2,34,70,0,1
238374,-200,4,2,34,70,0,1
238552,-200,4,2,34,5,0,1
238611,-95.2380952380952,4,2,34,70,0,1
239142,-95.2380952380952,4,2,34,5,0,1
239201,-95.2380952380952,4,2,34,70,0,1
241977,-95.2380952380952,4,2,34,5,0,1
242036,-95.2380952380952,4,2,34,70,0,1
242449,-95.2380952380952,4,2,34,5,0,1
242508,-95.2380952380952,4,2,34,70,0,1
244398,-86.9565217391304,4,2,34,70,0,1
245343,-95.2380952380952,4,2,34,70,0,1
246288,-200,4,2,34,50,0,0
246406,-200,4,2,34,20,0,0
247705,-200,4,2,34,30,0,0
247941,-100,4,2,34,40,0,0
248178,-285.714285714286,4,2,34,50,0,0
250776,-100,4,2,34,50,0,0
250894,-100,4,2,34,55,0,0
251012,-100,4,2,34,60,0,0
251957,-100,4,2,34,70,0,0
253847,-83.3333333333333,4,2,34,70,0,0
254319,-100,4,2,34,70,0,0
257626,-66.6666666666667,4,2,34,70,0,0
258099,-100,4,2,34,70,0,0
259162,-200,4,2,34,70,0,0
259398,-100,4,2,34,70,0,0
266130,-100,4,2,34,65,0,0
267075,-100,4,2,34,70,0,0
270323,-100,4,2,34,70,0,0
270382,-100,4,2,34,70,0,0
270796,-100,4,2,34,5,0,0
270855,-100,4,2,34,70,0,0
271741,-100,4,2,34,70,0,0
271800,-100,4,2,34,70,0,0
272744,-105.263157894737,4,2,34,70,0,0
273217,-86.9565217391304,4,2,34,70,0,0
273571,-74.0740740740741,4,2,34,70,0,0
273926,-100,4,2,34,70,0,0
274280,-200,4,2,34,70,0,0
274457,-200,4,2,34,5,0,0
274516,-100,4,2,34,70,0,0
275520,-100,4,2,34,5,0,0
275579,-100,4,2,34,70,0,0
276701,-100,4,2,34,5,0,0
276760,-100,4,2,34,70,0,0
277174,-100,4,2,34,70,0,0
277233,-100,4,2,34,70,0,0
277882,-100,4,2,34,5,0,0
277941,-100,4,2,34,70,0,0
278886,-95.2380952380952,4,2,34,70,0,0
279359,-90.9090909090909,4,2,34,70,0,0
279595,-86.9565217391304,4,2,34,70,0,0
279831,-83.3333333333333,4,2,34,70,0,0
280067,-80,4,2,34,70,0,0
280244,-80,4,2,34,5,0,0
280304,-74.0740740740741,4,2,34,75,0,0
281839,-86.9565217391304,4,2,34,75,0,0
282636,576.923076923077,4,2,34,50,1,0
282636,-133.333333333333,4,2,34,50,0,0
282830,472.44094488189,4,2,34,50,1,0
282889,-100,4,2,34,40,0,0
284719,-100,4,2,34,30,0,0
286609,-100,4,2,34,20,0,0
288499,-100,4,2,34,10,0,0
289916,-100,4,2,35,20,0,0

[Colours]
Combo1 : 255,128,192
Combo2 : 223,128,255
Combo3 : 128,128,255
Combo4 : 255,128,128

[HitObjects]
303,28,619,5,0,1:2:0:0:
204,101,1091,1,0,1:2:0:0:
338,184,1563,1,0,1:2:0:0:
165,266,2036,1,0,1:2:0:0:
366,366,2508,6,0,P|464:362|498:299,1,155,4|0,1:2|3:2,0:2:0:0:
493,321,2804,1,0,3:2:0:0:
493,321,2863,2,0,L|442:302,2,38.75,0|0|0,3:2|3:2|3:2,0:0:0:0:
398,226,3099,2,0,P|321:239|247:262,1,155,0|0,1:2|1:2,2:2:0:0:
200,364,3453,5,8,0:3:0:0:
142,317,3532,2,0,P|136:292|146:232,1,51.6666666666667
6,278,3690,5,4,0:3:0:0:
67,228,3768,2,0,P|77:180|76:147,1,56.8333350677491
136,56,3926,5,8,0:2:0:0:
44,94,4044,2,0,P|104:140|189:129,1,124,8|0,2:3|0:0,0:0:0:0:
246,59,4398,6,2,B|303:42|303:42|346:54|346:54|420:32,1,155,4|0,1:1|0:2,0:1:0:0:
493,0,4752,2,0,P|485:65|476:112,1,77.5,2|8,1:1|0:2,0:2:0:0:
508,303,5107,6,2,P|421:318|360:264,1,155,2|0,1:2|0:2,0:1:0:0:
340,179,5461,1,8,0:2:0:0:
251,277,5579,2,0,P|261:317|272:359,1,77.5,2|0,1:1|0:0,0:0:0:0:
160,200,5815,2,0,P|150:237|140:275,1,77.5,10|0,0:1|0:0,0:0:0:0:
2,358,6052,6,2,B|136:314|100:422|242:372,1,232.5,4|0,1:2|0:2,0:1:0:0:
324,296,6524,2,2,P|254:283|222:275,1,77.5,0|0,1:2|0:2,0:1:0:0:
151,197,6760,2,2,P|221:184|253:176,1,77.5,8|0,0:2|0:2,0:1:0:0:
365,113,6996,5,0,1:2:0:0:
355,29,7115,2,0,P|337:104|323:180,1,155,8|8,0:2|0:0,0:0:0:0:
432,148,7469,2,0,P|441:185|451:222,1,77.5,0|0,1:2|0:0,0:0:0:0:
341,367,7705,1,8,0:2:0:0:
366,261,7823,1,8,0:2:0:0:
497,351,7941,2,0,P|425:336|393:328,1,77.5,8|0,0:3|0:0,0:0:0:0:
300,199,8178,6,2,P|215:190|156:251,1,155,2|0,1:1|0:2,0:1:0:0:
63,220,8532,2,0,P|77:291|86:328,1,77.5,2|8,1:1|0:2,0:2:0:0:
0,23,8886,6,2,P|79:103|202:63,1,232.5,2|8,1:2|0:2,0:1:0:0:
264,14,9359,2,0,P|302:5|355:-2,1,77.5,2|0,1:1|0:0,0:0:0:0:
398,116,9595,2,0,P|359:107|307:100,1,77.5,10|0,0:1|0:0,0:0:0:0:
465,0,9831,6,2,P|429:176|415:253,1,232.5,4|8,1:2|0:2,0:1:0:0:
329,271,10304,2,0,P|337:308|347:346,1,77.5,0|0,1:2|0:0,0:0:0:0:
205,174,10540,2,0,P|280:184|344:143,1,155,10|2,0:1|1:1,0:0:0:0:
368,53,10894,1,8,0:2:0:0:
262,94,11012,5,2,1:1:0:0:
235,0,11130,2,0,P|246:38|255:74,1,77.5,8|2,0:2|1:1,0:0:0:0:
68,87,11367,1,8,3:2:0:0:
68,87,11426,1,0,3:0:0:0:
68,87,11485,2,0,P|107:77|148:70,1,77.5,2|8,1:1|0:2,0:0:0:0:
164,286,11721,2,0,P|127:233|137:155,1,116.25,2|0,1:2|0:0,0:0:0:0:
102,366,11957,6,2,P|171:318|251:327,1,155,4|0,1:2|1:2,2:1:0:0:
361,257,12311,1,2,0:1:0:0:
337,369,12430,2,0,P|345:327|355:280,1,77.5,8|0,0:1|0:0,0:0:0:0:
419,103,12666,5,2,0:2:0:0:
506,198,12784,2,0,B|460:181|460:181|408:189|408:189|348:173,1,155,0|8,0:0|0:2,0:0:0:0:
281,100,13138,2,0,P|314:90|365:79,1,77.5,2|0,0:1|0:0,0:0:0:0:
474,9,13374,2,0,P|452:90|447:115,1,77.5,10|0,0:1|0:0,0:0:0:0:
263,218,13611,6,2,P|176:138|204:15,1,232.5,4|0,1:2|0:2,0:1:0:0:
284,0,14083,2,2,P|292:37|298:76,1,77.5,0|0,1:1|0:2,0:1:0:0:
424,183,14319,2,2,P|387:175|347:168,1,77.5,8|0,0:2|0:2,0:1:0:0:
285,326,14556,5,2,1:2:0:0:
198,273,14674,2,2,B|288:249|274:297|366:270,1,155,2|8,0:1|0:2,0:1:0:0:
439,337,15028,2,0,P|450:288|460:243,1,77.5,0|0,1:2|0:0,0:0:0:0:
351,87,15264,1,8,0:2:0:0:
375,195,15382,1,8,0:2:0:0:
511,117,15500,2,0,P|459:123|423:131,1,77.5,8|0,0:3|0:0,0:0:0:0:
288,245,15737,6,2,B|233:239|233:239|190:253|190:253|118:245,1,155,0|0,1:2|1:2,0:1:0:0:
50,308,16091,2,0,P|36:250|31:211,1,77.5,2|8,0:1|0:2,0:2:0:0:
207,6,16445,2,2,P|200:44|190:81,1,77.5,2|0,1:2|0:0,0:1:0:0:
145,198,16681,1,0,1:2:0:0:
95,119,16800,2,0,P|169:108|230:155,1,155,8|0,0:2|0:2,0:0:0:0:
286,292,17154,5,10,0:2:0:0:
329,120,17272,2,2,P|300:210|282:285,1,155,2|0,1:1|0:2,0:1:0:0:
347,363,17626,6,2,B|408:354|408:354|449:367|449:367|501:356,1,155,6|0,1:1|0:2,0:1:0:0:
409,211,17981,2,0,P|337:210|281:288,1,155,10|0,0:1|0:0,0:2:0:0:
191,338,18335,2,2,P|122:326|94:314,1,77.5,0|0,1:2|0:0,0:1:0:0:
67,238,18571,5,0,3:2:0:0:
67,238,18630,1,0,3:2:0:0:
67,238,18689,2,0,L|80:182,2,38.75,0|0|0,3:2|3:2|3:2,0:0:0:0:
20,123,19044,5,10,0:1:0:0:
163,239,19280,1,0,1:3:0:0:
28,319,19516,1,2,0:2:0:0:
28,319,20461,5,8,0:3:0:0:
120,148,20697,2,0,P|190:140|259:202,1,155,8|8,0:2|0:3,0:0:0:0:
289,294,21052,1,8,0:2:0:0:
202,351,21170,2,0,P|255:334|296:325,1,77.5,2|0,1:2|0:2,0:0:0:0:
486,321,21406,6,2,B|434:321|409:370|409:370|410:322|373:282,1,186,4|0,1:2|1:2,0:1:0:0:
348,172,21878,2,0,P|405:189|484:204,1,124,8|0,0:2|0:2,0:2:0:0:
496,187,22233,1,10,0:2:0:0:
274,0,22469,1,0,0:0:0:0:
259,21,22587,2,0,P|264:47|276:102,1,62,0|0,1:2|0:0,0:0:0:0:
363,89,22823,6,0,B|309:73|271:114|288:120|248:159|196:142,1,186,10|2,0:2|0:2,0:2:0:0:
174,124,23296,1,0,1:2:0:0:
9,277,23532,1,2,0:2:0:0:
9,277,23650,1,0,1:2:0:0:
9,277,23768,2,0,P|48:241|122:254,1,124,8|0,0:2|0:0,0:0:0:0:
216,200,24122,2,0,P|208:229|197:280,1,62,8|2,0:2|0:2,0:0:0:0:
123,344,24359,2,0,P|115:313|108:283,1,62,8|0,0:2|0:0,0:0:0:0:
303,370,24713,6,0,P|361:355|454:338,1,124,8|0,0:2|0:2,0:2:0:0:
512,339,25067,1,0,0:0:0:0:
512,339,25185,2,0,B|459:321|409:303|409:303|388:261|433:226,1,186,2|0,1:2|1:2,0:2:0:0:
490,162,25658,2,0,P|439:115|360:139,1,124,8|0,0:2|0:2,0:2:0:0:
305,166,26012,2,0,P|296:136|287:98,1,62,10|0,0:2|0:0,0:2:0:0:
205,59,26248,2,0,P|213:29|223:-9,1,62,8|2,0:2|1:2,0:0:0:0:
388,118,26603,1,8,0:2:0:0:
186,226,26839,2,0,P|154:215|123:207,1,62,0|0,0:2|0:2,0:0:0:0:
36,268,27075,5,2,1:2:0:0:
36,268,27311,1,0,0:0:0:0:
186,371,27548,2,0,P|237:333|296:348,1,124,8|2,0:2|0:2,0:0:0:0:
382,352,27902,2,0,P|350:359|294:375,1,62,8|2,0:2|0:1,0:0:0:0:
439,258,28138,2,0,P|468:265|499:273,1,62,8|0,0:2|0:0,0:0:0:0:
340,41,28493,6,0,B|326:91|311:144|311:144|332:184|391:169,1,186,8|0,0:2|0:0,0:2:0:0:
403,154,28965,6,0,B|358:139|321:177|321:177|321:180|321:180|298:228|246:230,1,186,4|0,1:2|1:2,0:2:0:0:
162,289,29437,2,0,P|101:268|44:255,1,124,8|0,0:2|0:2,0:2:0:0:
16,266,29792,1,10,0:2:0:0:
115,24,30028,1,0,0:0:0:0:
135,37,30146,2,0,P|140:65|150:110,1,62,2|0,1:2|0:0,0:0:0:0:
90,161,30382,6,0,B|136:106|219:130|219:130|202:188,1,186,10|2,0:2|0:2,0:2:0:0:
198,201,30855,1,0,1:2:0:0:
445,109,31091,1,2,0:2:0:0:
327,39,31327,2,0,P|339:94|355:174,1,124,10|2,0:2|0:2,0:2:0:0:
335,185,31681,1,8,0:2:0:0:
473,367,31918,1,10,0:2:0:0:
473,367,32036,2,0,P|442:356|395:340,1,62,0|0,1:2|0:0,0:2:0:0:
488,276,32272,6,0,B|434:260|396:301|413:307|373:346|321:329,1,186,8|0,0:2|0:2,0:0:0:0:
225,349,32744,2,0,P|186:314|118:320,1,124,2|0,1:2|0:2,0:2:0:0:
29,311,33099,2,0,P|36:337|51:394,1,62,2|8,1:2|0:2,0:0:0:0:
250,137,33453,5,2,2:2:0:0:
250,137,33571,1,8,0:2:0:0:
199,68,33689,2,0,P|133:57|85:117,1,124,2|0,1:2|0:2,0:2:0:0:
36,174,34044,2,0,P|68:181|108:194,1,62,2|8,1:2|0:2,0:2:0:0:
188,300,34280,1,0,1:2:0:0:
50,331,34398,6,0,P|97:277|196:311,1,174.374994678497,4|0,1:2|0:0,0:2:0:0:
272,363,35343,6,0,P|300:355|346:346,1,62,8|0,0:2|0:0,0:0:0:0:
511,236,35579,1,2,1:2:0:0:
423,137,35697,2,0,P|412:185|397:267,1,124,8|0,0:2|1:2,0:0:0:0:
436,384,36052,5,10,0:2:0:0:
321,319,36170,1,8,0:2:0:0:
398,258,36288,1,2,1:2:0:0:
398,258,36524,6,2,P|437:197|419:128,1,139.499995742798,4|0,1:2|0:2,0:1:0:0:
346,71,36878,1,0,1:2:0:0:
346,71,36996,2,0,P|328:127|322:159,1,69.749997871399,8|0,0:2|0:0,0:2:0:0:
216,306,37351,5,10,0:2:0:0:
194,224,37469,2,0,P|206:281|217:312,1,69.749997871399,0|8,0:0|0:2,0:0:0:0:
270,361,37705,2,0,P|198:342|136:332,1,104.624996807098,0|0,1:2|0:0,0:0:0:0:
96,366,37941,2,0,P|69:310|104:221,1,139.499995742798,10|0,0:2|0:2,0:2:0:0:
0,117,38414,6,0,B|54:110|54:110|86:127|86:127|150:119,1,139.499995742798,0|2,1:2|0:2,0:0:0:0:
273,31,38768,1,0,1:2:0:0:
182,2,38886,1,8,0:2:0:0:
182,2,39004,2,0,P|196:54|207:95,1,69.749997871399
255,197,39241,5,8,0:2:0:0:
338,158,39359,2,0,P|305:170|274:186,1,69.749997871399,2|8,0:2|0:2,0:0:0:0:
391,253,39595,1,0,0:3:0:0:
293,89,39831,2,0,P|356:134|430:113,1,139.499995742798,8|0,0:2|0:0,0:2:0:0:
512,297,40304,6,0,B|431:276|450:323|362:297,1,139.499995742798,2|0,1:2|0:0,0:2:0:0:
272,254,40658,1,0,1:2:0:0:
286,346,40776,2,0,P|302:279|333:192,1,139.499995742798,8|0,0:2|0:2,0:2:0:0:
205,106,41130,6,0,P|212:140|219:174,1,69.749997871399,10|0,0:2|0:0,0:0:0:0:
102,290,41367,1,8,0:2:0:0:
126,188,41485,2,0,P|114:237|99:303,1,104.624996807098,2|0,1:2|0:0,0:2:0:0:
37,362,41721,6,0,P|71:368|105:376,1,69.749997871399,8|0,0:2|0:0,0:2:0:0:
263,285,41957,2,0,P|229:293|194:299,1,69.749997871399,0|0,1:2|0:2,0:0:0:0:
55,243,42193,6,0,P|34:195|72:113,1,139.499995742798,2|0,2:2|1:2,0:2:0:0:
239,11,42666,2,0,P|253:98|261:150,1,139.499995742798,8|2,0:2|0:2,0:2:0:0:
194,202,43020,6,0,P|142:191|108:183,1,69.749997871399,8|2,0:2|0:1,0:0:0:0:
36,247,43256,2,0,P|14:212|-10:168,1,69.749997871399,8|0,0:2|0:0,0:0:0:0:
158,95,43611,1,8,0:2:0:0:
225,306,43847,1,0,0:2:0:0:
346,163,44083,6,0,P|400:126|482:141,1,139.499995742798,4|0,1:2|0:0,0:2:0:0:
512,264,44437,1,0,1:2:0:0:
427,216,44556,2,0,P|414:299|407:354,1,139.499995742798,8|0,0:2|0:2,0:0:0:0:
324,269,44910,6,0,P|282:255|235:244,1,69.749997871399,10|0,0:2|1:2,0:0:0:0:
145,366,45146,1,8,0:2:0:0:
235,340,45264,2,0,P|201:349|168:360,1,69.749997871399,2|0,1:2|0:2,0:0:0:0:
35,198,45500,2,0,P|13:259|59:329,1,139.499995742798,10|0,0:2|0:2,0:2:0:0:
262,146,45973,6,0,B|212:154|212:154|182:179|182:179|121:188,1,139.499995742798,0|2,1:2|0:2,0:0:0:0:
44,121,46327,1,0,1:2:0:0:
111,32,46445,2,0,P|130:80|142:118,1,69.749997871399,10|0,0:2|0:0,0:2:0:0:
227,235,46681,1,2,0:2:0:0:
262,146,46800,2,0,P|250:178|237:211,1,69.749997871399,8|0,0:2|0:2,0:2:0:0:
305,363,47036,1,10,0:2:0:0:
377,305,47154,2,0,P|340:339|307:365,1,69.749997871399,0|0,1:2|0:0,0:2:0:0:
459,220,47390,6,0,P|481:304|492:360,1,139.499995742798,8|2,0:2|0:2,0:0:0:0:
377,305,47744,1,0,0:2:0:0:
371,192,47863,6,0,P|396:154|501:145,1,139.499995742798,2|0,1:2|0:2,0:2:0:0:
424,56,48217,1,2,1:2:0:0:
424,56,48335,2,0,P|374:32|346:23,1,69.749997871399,8|0,0:2|0:0,0:0:0:0:
226,152,48571,1,2,1:2:0:0:
306,112,48689,2,0,P|273:124|242:140,1,69.749997871399,8|0,0:0|0:0,0:0:0:0:
123,25,48926,6,0,P|102:113|101:180,1,139.499995742798,8|0,0:0|1:2,0:0:0:0:
21,239,49280,2,0,P|9:188|-1:157,1,69.749997871399,8|0,0:0|1:2,0:0:0:0:
270,298,49516,6,0,B|99:272|176:379|-4:343,1,271.25,4|0,1:2|0:0,0:2:0:0:
8,340,49989,1,0,3:2:0:0:
5,333,50048,2,0,P|13:294|22:272,3,38.75,0|0|0|12,3:2|3:2|3:2|2:2,0:0:0:0:
70,214,50343,1,0,0:0:0:0:
70,214,50579,5,0,1:2:0:0:
38,170,50697,2,0,P|10:158|-14:151,2,51.6666666666667,8|0|0,0:3|0:0|0:0,0:0:0:0:
119,141,50933,5,4,0:3:0:0:
168,118,51012,2,0,P|202:110|232:108,1,51.6666666666667
328,15,51170,6,0,P|339:61|346:102,1,77.5,12|8,0:2|0:3,0:2:0:0:
436,210,51406,2,0,P|442:171|452:134,1,77.5,8|0,0:2|0:0,0:0:0:0:
461,351,51642,2,2,P|435:315|332:315,1,155,4|0,1:1|1:2,0:1:0:0:
222,371,51996,5,12,0:2:0:0:
38,170,52233,1,8,0:2:0:0:
222,371,52469,6,0,P|188:357|136:343,1,77.5,4|0,1:2|0:0,0:2:0:0:
207,123,52705,2,0,P|256:177|233:261,1,155,0|0,1:2|1:2,0:0:0:0:
38,267,53059,5,8,0:2:0:0:
149,218,53178,1,8,0:2:0:0:
115,347,53296,1,2,1:2:0:0:
342,114,53532,6,0,P|401:128|470:152,1,116.25,2|0,1:2|0:0,0:2:0:0:
476,121,53768,2,0,P|495:113|523:106,4,38.75,0|0|0|0|0,3:2|3:2|3:2|3:2|3:2,0:0:0:0:
388,23,54122,1,8,0:3:0:0:
388,23,54359,6,0,P|356:63|259:61,1,155,2|8,1:2|0:2,0:2:0:0:
138,92,54713,2,0,P|146:51|160:-4,1,77.5,0|0,0:0|1:2,0:0:0:0:
29,75,54949,1,8,0:2:0:0:
67,176,55067,2,0,B|114:166|142:193|132:199|157:228|211:215,1,155,8|0,0:2|0:0,0:0:0:0:
301,156,55422,1,6,1:2:0:0:
301,156,55658,6,0,P|368:150|414:199,1,139.499995742798,0|2,0:2|0:2,0:0:0:0:
504,280,56012,2,0,P|471:282|439:299,1,69.749997871399
373,372,56248,6,0,B|313:389|277:338|293:335|245:280|181:312,1,209.249993614197,0|2,0:0|0:2,0:0:0:0:
188,308,56839,5,2,0:2:0:0:
65,362,56957,2,0,P|49:299|106:252,1,139.499995742798
160,93,57311,2,0,P|209:137|194:202,1,139.499995742798,0|0,0:0|0:2,0:0:0:0:
194,202,57784,6,0,P|143:183|66:167,1,124,10|0,0:2|0:2,0:2:0:0:
0,90,58138,2,0,P|37:53|117:65,1,124,2|0,1:2|0:0,0:2:0:0:
75,168,58493,1,2,0:2:0:0:
425,52,58729,5,8,2:3:0:0:
314,5,58847,2,0,P|325:49|351:162,1,155,8|0,0:2|0:0,0:0:0:0:
265,212,59201,1,4,1:1:0:0:
265,212,59437,6,0,P|219:166|130:182,1,155,10|2,0:2|0:2,0:2:0:0:
16,306,59792,2,0,P|51:298|109:280,1,77.5,0|8,1:2|0:2,0:2:0:0:
183,344,60028,6,0,P|258:360|333:385,1,155,2|0,0:2|0:0,0:0:0:0:
451,330,60382,1,10,0:2:0:0:
451,330,60619,2,0,P|462:297|470:255,1,77.5,2|0,0:2|1:2,0:0:0:0:
315,186,60855,2,0,P|321:224|333:260,1,77.5,10|0,0:2|0:2,0:2:0:0:
511,128,61091,6,0,P|458:72|382:87,1,155,2|8,1:2|0:2,0:2:0:0:
172,58,61445,2,0,P|225:2|301:17,1,155,2|0,0:2|1:2,2:2:0:0:
348,175,61800,1,8,0:2:0:0:
256,105,61918,1,0,0:2:0:0:
179,222,62036,6,0,P|104:198|25:181,1,155,2|8,1:2|0:2,0:2:0:0:
141,103,62390,1,0,1:2:0:0:
141,103,62626,1,0,1:2:0:0:
139,305,62744,2,0,P|194:270|249:282,1,116.25,8|0,0:2|0:0,0:2:0:0:
260,312,62981,6,0,P|295:334|337:346,1,77.5,2|0,1:2|0:0,0:0:0:0:
501,248,63217,2,0,P|456:257|422:280,1,77.5,10|0,0:2|0:0,0:2:0:0:
350,149,63453,2,0,P|334:181|330:244,1,77.5,2|0,0:2|1:2,0:0:0:0:
419,377,63689,2,0,P|435:345|439:282,1,77.5,8|2,0:2|0:2,0:0:0:0:
402,65,63926,6,0,P|326:46|263:112,1,155,0|10,1:2|0:2,0:2:0:0:
172,160,64280,1,0,0:2:0:0:
99,55,64398,2,0,P|138:46|187:30,1,77.5,2|0,0:2|1:2,0:0:0:0:
52,187,64634,1,8,0:2:0:0:
52,187,64870,5,6,1:2:0:0:
461,135,65225,1,8,0:2:0:0:
316,368,65579,6,0,P|262:345|205:332,1,116.25,2|0,1:2|0:0,0:0:0:0:
174,315,65815,2,0,P|148:324|109:332,4,38.75,0|0|0|0|0,3:2|3:2|3:2|3:2|3:2,0:0:0:0:
265,38,66288,6,0,P|258:67|247:127,1,77.5,2|8,1:1|0:2,0:0:0:0:
373,86,66524,1,8,1:2:0:0:
162,5,66642,1,8,0:2:0:0:
162,5,66996,5,2,0:1:0:0:
219,236,67233,5,2,0:2:0:0:
219,236,67351,1,0,0:2:0:0:
389,146,67587,5,2,1:2:0:0:
304,22,67941,5,10,0:2:0:0:
189,91,68178,5,2,1:2:0:0:
189,91,68296,1,8,0:2:0:0:
255,159,68532,5,6,1:2:0:0:
256,192,68650,12,0,69831,0:0:0:0:
255,159,70067,5,10,0:2:0:0:
184,282,70185,2,0,P|156:271|128:264,1,58.125,10|0,0:2|0:0,0:0:0:0:
38,272,70422,6,2,P|96:222|180:259,1,162.749995033264,4|0,1:1|0:2,0:1:0:0:
243,348,70776,2,0,P|297:337|341:326,1,81.3749975166322,8|0,0:2|1:2,0:2:0:0:
381,216,71012,1,2,0:2:0:0:
288,155,71130,2,0,P|279:205|273:246,1,81.3749975166322,0|8,1:2|0:2,0:2:0:0:
456,112,71367,1,2,0:2:0:0:
362,57,71485,6,0,P|378:135|405:239,2,162.749995033264,0|8|2,1:0|0:2|1:2,0:0:0:0:
288,155,72075,1,0,1:2:0:0:
203,88,72193,2,0,P|156:77|107:69,1,81.3749975166322,8|0,0:2|0:2,0:2:0:0:
15,187,72430,6,2,P|70:201|146:161,1,122.062496274948,2|0,1:2|0:0,0:1:0:0:
151,279,72666,2,0,P|190:288|229:300,1,81.3749975166322,8|0,0:2|0:0,0:0:0:0:
422,381,72902,2,0,P|457:333|452:228,1,162.749995033264,2|8,1:2|0:2,0:0:0:0:
319,121,73256,2,2,P|344:271|350:312,1,162.749995033264,2|0,1:2|1:2,0:1:0:0:
499,143,73611,6,0,P|459:133|414:125,1,81.3749975166322,8|0,0:2|0:0,0:0:0:0:
233,35,73847,1,2,1:2:0:0:
289,127,73965,1,0,0:0:0:0:
349,34,74083,2,0,P|388:24|434:16,1,81.3749975166322,8|0,0:2|0:2,0:0:0:0:
454,233,74319,6,0,B|354:229|391:283|272:272,1,162.749995033264,2|8,1:2|0:2,0:2:0:0:
204,371,74674,2,0,P|183:252|169:193,1,162.749995033264,2|0,1:2|1:2,0:2:0:0:
9,304,75028,2,0,P|66:315|124:331,1,81.3749975166322,8|0,0:2|0:2,0:0:0:0:
225,116,75264,6,0,P|146:114|70:175,1,162.749995033264,2|8,1:2|0:2,0:2:0:0:
322,182,75619,2,0,P|331:142|338:102,1,81.3749975166322,2|0,0:2|0:0,0:2:0:0:
225,116,75855,1,0,1:2:0:0:
421,217,75973,1,8,0:2:0:0:
421,217,76209,6,2,P|445:85|454:9,1,147.249996068001,4|8,1:1|0:2,0:1:0:0:
107,320,76681,2,0,P|83:188|70:94,1,178.250003399849,4|8,1:2|0:2,0:0:0:0:
246,384,77036,6,0,B|258:343|252:303|252:303|273:282|273:282|264:223|286:172,1,209.250000798225,4|8,1:2|0:3,0:2:0:0:
390,105,77390,1,8,0:2:0:0:
250,38,77508,1,4,1:3:0:0:
350,0,77626,5,2,1:1:0:0:
280,185,77744,1,10,1:1:0:0:
280,185,77981,6,0,B|226:176|226:176|176:196|176:196|102:189,1,162.749995033264,4|0,1:1|0:2,0:2:0:0:
60,105,78335,2,0,P|126:92|169:87,1,81.3749975166322,8|0,0:2|1:2,0:0:0:0:
227,3,78571,2,0,P|244:59|256:111,1,81.3749975166322,2|0,0:2|0:0,0:2:0:0:
326,195,78807,2,0,P|336:155|348:116,1,81.3749975166322,8|0,0:2|0:2,0:2:0:0:
466,18,79044,6,0,P|486:101|446:175,1,162.749995033264,2|8,1:2|0:2,0:2:0:0:
502,286,79398,2,0,P|413:252|337:242,1,162.749995033264,2|0,0:2|1:2,0:0:0:0:
296,365,79752,2,0,P|387:347|402:345,1,81.3749975166322,8|0,0:2|0:0,0:2:0:0:
273,161,79989,6,0,P|241:220|250:302,1,122.062496274948,2|0,1:2|0:0,0:0:0:0:
137,275,80225,2,0,P|153:341|166:377,1,81.3749975166322,8|0,0:2|0:2,0:0:0:0:
0,213,80461,2,0,B|60:204|60:204|94:174|94:174|164:165,1,162.749995033264,2|8,1:2|0:2,0:2:0:0:
272,240,80815,6,0,P|251:96|248:55,1,162.749995033264,2|0,1:2|1:2,0:2:0:0:
160,0,81170,2,0,P|147:50|139:92,1,81.3749975166322,8|0,0:2|0:0,0:0:0:0:
347,162,81406,1,2,1:2:0:0:
369,63,81524,1,0,1:2:0:0:
241,118,81642,2,0,P|248:175|262:233,1,81.3749975166322,8|0,0:2|0:2,0:0:0:0:
208,354,81878,6,0,P|269:310|371:315,1,162.749995033264,2|8,1:2|0:2,0:2:0:0:
504,222,82233,2,0,P|423:222|357:176,1,162.749995033264,2|0,1:2|1:2,0:2:0:0:
450,42,82587,2,0,P|458:89|463:147,1,81.3749975166322,10|0,0:0|0:2,0:0:0:0:
319,86,82823,6,0,P|307:182|293:264,1,162.749995033264,2|8,1:2|0:2,0:2:0:0:
110,348,83178,2,0,P|96:267|87:186,1,162.749995033264,2|0,2:2|1:2,0:2:0:0:
164,82,83532,1,10,0:2:0:0:
199,201,83650,1,0,0:2:0:0:
16,112,83768,6,2,B|83:95|83:95|152:113|152:113|225:93,1,209.250000798225,4|8,1:1|0:2,0:1:0:0:
410,112,84122,1,6,0:2:0:0:
302,21,84241,2,0,P|316:87|320:131,1,81.3749975166322,0|0,0:0|0:2,0:0:0:0:
471,233,84477,2,2,P|477:192|486:153,1,81.3749975166322,14|0,0:2|0:0,0:1:0:0:
507,56,84713,5,8,0:3:0:0:
471,32,84792,2,0,P|437:23|398:15,1,54.2499983444214,8|8,0:3|0:3,0:0:0:0:
317,100,84950,5,4,0:3:0:0:
281,138,85029,2,0,P|247:147|208:155,1,54.2499983444214,4|4,0:3|0:3,0:0:0:0:
124,172,85185,5,10,0:1:0:0:
111,75,85304,2,0,P|126:38|133:8,1,58.125,6|0,1:1|0:0,0:0:0:0:
30,86,85540,6,2,B|2:108|-22:119|-22:119|-7:163|2:227,1,162.749995033264,4|0,1:1|0:2,0:1:0:0:
78,350,85894,2,0,P|40:338|-4:329,1,81.3749975166322,8|0,0:2|1:2,0:2:0:0:
203,214,86130,1,2,0:2:0:0:
98,176,86248,2,0,P|107:212|116:266,1,81.3749975166322,0|8,1:2|0:2,0:0:0:0:
193,349,86485,1,2,0:2:0:0:
359,288,86603,6,0,P|323:234|214:255,1,162.749995033264,0|8,1:0|0:2,0:0:0:0:
232,236,87075,2,0,P|275:235|316:203,1,81.3749975166322,2|0,1:2|1:2,0:0:0:0:
335,12,87311,2,0,P|314:38|307:99,1,81.3749975166322,8|0,0:2|0:2,0:0:0:0:
508,211,87548,2,2,P|466:166|387:163,1,122.062496274948,2|0,1:2|0:0,0:1:0:0:
322,108,87784,2,0,P|282:122|217:136,1,81.3749975166322,8|0,0:2|0:0,0:0:0:0:
30,55,88020,6,0,B|69:42|91:9|91:9|92:60|129:91,1,162.749995033264,2|8,1:2|0:2,0:0:0:0:
232,236,88374,2,2,B|193:222|160:259|166:263|134:298|85:276,1,162.749995033264,2|0,1:2|1:2,0:1:0:0:
48,169,88729,1,8,0:2:0:0:
326,292,88965,1,2,1:2:0:0:
416,227,89083,1,0,1:2:0:0:
315,178,89201,2,0,P|325:215|335:263,1,81.3749975166322,8|0,0:2|0:2,0:0:0:0:
491,368,89437,6,0,P|453:338|400:326,1,81.3749975166322,2|0,1:2|0:0,0:2:0:0:
511,255,89674,1,8,0:2:0:0:
320,361,89792,2,0,P|231:370|155:386,1,162.749995033264,2|0,1:2|1:2,0:2:0:0:
23,241,90146,2,0,P|78:229|122:282,1,122.062496274948,8|0,0:2|0:0,0:2:0:0:
108,290,90382,6,0,B|91:229|80:194|80:194|101:159|143:171,1,162.749995033264,2|8,1:2|0:2,0:2:0:0:
273,20,90737,2,0,P|266:46|253:111,1,81.3749975166322,2|0,0:2|0:0,0:0:0:0:
173,12,90973,1,0,1:2:0:0:
375,86,91091,1,8,0:2:0:0:
375,86,91327,6,2,B|425:75|463:64|463:64|487:83|475:117,1,147.249996068001,4|8,1:1|0:2,0:1:0:0:
77,275,91800,6,0,B|61:253|61:253|120:272,1,89.1250016999245,4|0,1:2|0:0,0:0:0:0:
301,353,92036,5,8,0:2:0:0:
209,377,92154,2,0,B|189:326|236:288|236:288|286:244|255:192,1,209.250000798225,4|8,1:2|0:3,0:2:0:0:
270,77,92508,2,0,P|231:90|182:104,1,81.3749975166322,8|4,0:2|1:3,0:0:0:0:
114,21,92744,5,2,1:1:0:0:
255,191,92863,2,0,P|283:198|315:210,1,58.125,10|0,1:1|0:0,0:0:0:0:
363,284,93099,6,0,B|397:264|404:214|404:214|428:247|473:256,1,162.749995033264,4|0,1:1|0:2,0:2:0:0:
291,368,93453,2,0,P|244:322|183:326,1,122.062496274948,8|0,0:2|0:0,0:0:0:0:
113,380,93689,2,0,P|70:361|29:352,1,81.3749975166322,2|0,0:2|1:2,0:2:0:0:
102,165,93926,2,0,P|111:195|124:254,1,81.3749975166322,8|0,0:2|0:2,0:2:0:0:
190,322,94162,6,0,B|238:342|268:303|261:300|288:265|339:286,1,162.749995033264,2|8,1:2|0:2,0:2:0:0:
488,359,94516,2,0,P|450:367|409:381,1,81.3749975166322,2|0,0:2|0:0,0:0:0:0:
339,173,94752,1,0,1:2:0:0:
433,238,94870,6,0,P|452:146|471:69,2,162.749995033264,8|2|8,0:2|1:2|0:2,0:2:0:0:
173,73,95579,1,2,1:2:0:0:
257,7,95697,2,0,P|265:38|277:92,1,81.3749975166322,0|8,0:0|0:2,0:0:0:0:
235,215,95933,6,0,B|204:182|157:197|157:197|135:238|84:242,1,162.749995033264,2|0,1:2|1:2,0:2:0:0:
34,51,96288,2,0,P|88:37|141:83,1,122.062496274948,8|0,0:2|0:0,0:0:0:0:
173,73,96524,2,0,P|164:102|153:158,1,81.3749975166322,0|0,1:2|0:0,0:0:0:0:
28,360,96760,2,0,P|81:343|157:325,1,122.062496274948,8|0,2:0|0:0,0:0:0:0:
225,362,96996,6,0,P|264:371|316:389,1,81.3749975166322,4|0,1:1|0:0,0:0:0:0:
448,152,97233,2,0,P|388:134|319:213,1,162.749995033264,8|2,0:0|1:2,0:0:0:0:
461,292,97587,1,8,0:0:0:0:
461,292,97823,6,0,B|426:297|402:304|402:304|366:281|366:281|338:289|299:295,1,162.749995033264,2|8,1:2|0:0,0:0:0:0:
219,191,98178,2,0,P|229:145|241:105,1,81.3749975166322,2|0,1:2|0:0,0:0:0:0:
77,30,98414,1,8,0:0:0:0:
136,125,98532,1,2,0:0:0:0:
32,180,98650,2,0,P|36:196|45:234,3,40.6874987583161,0|0|0|0,3:0|3:0|3:0|3:0,0:0:0:0:
102,282,98886,6,2,B|64:242|2:268|2:268|44:273|67:300,1,178.250003399849,12|0,0:1|1:0,0:1:0:0:
120,370,99241,6,2,B|171:389|200:355|200:355|232:317|284:339,1,178.250003399849,12|0,0:0|1:0,0:1:0:0:
462,208,99595,6,2,B|476:185|476:185|401:206,1,89.1250016999245,12|0,0:0|0:0,0:1:0:0:
487,352,99831,5,8,0:3:0:0:
460,321,99910,1,8,0:3:0:0:
421,311,99989,1,8,0:3:0:0:
383,323,100067,1,4,0:3:0:0:
304,81,100304,5,10,0:1:0:0:
227,150,100422,2,0,B|258:179|263:224|263:224|286:190|332:179,1,162.749995033264,6|0,1:1|0:0,0:0:0:0:
462,208,100776,6,0,B|376:132|389:35|443:-8|538:34|510:112|448:132,1,325.499990066529,6|0,1:2|0:2,0:2:0:0:
462,126,102666,6,0,P|408:133|366:88,1,108.499996688843,4|0,1:2|0:2,0:2:0:0:
192,0,103374,2,0,P|199:25|209:77,1,62,0|8,0:0|0:3,0:0:0:0:
327,250,103611,6,0,P|256:252|181:327,1,155,12|8,0:2|0:3,0:0:0:0:
104,215,103965,2,0,P|89:300|86:378,1,155,8|8,0:2|0:3,0:0:0:0:
192,302,104319,1,8,0:2:0:0:
5,207,104437,1,8,0:2:0:0:
73,126,104556,6,2,B|160:105|155:163|234:133,1,155,4|0,1:2|0:2,0:1:0:0:
286,53,104910,2,0,P|236:39|193:29,1,77.5,2|8,1:1|0:2,0:2:0:0:
425,218,105264,2,2,P|461:160|437:50,1,155,2|0,1:2|0:2,0:1:0:0:
382,9,105619,1,8,0:2:0:0:
344,96,105737,2,0,P|329:161|323:195,1,77.5,2|0,1:1|0:0,0:0:0:0:
230,250,105973,2,0,P|222:212|212:174,1,77.5,10|0,0:1|0:0,0:0:0:0:
424,350,106209,6,2,B|348:342|326:267|326:267|317:332|258:358,1,232.5,4|0,1:2|0:2,0:1:0:0:
189,379,106681,2,2,P|138:363|94:351,1,77.5,0|0,1:2|0:2,0:1:0:0:
28,269,106918,2,2,P|79:253|123:241,1,77.5,8|0,0:2|0:2,0:1:0:0:
271,196,107154,5,0,1:2:0:0:
222,122,107272,2,0,P|241:196|208:264,1,155,8|8,0:2|0:0,0:0:0:0:
28,269,107626,2,0,P|16:209|9:164,1,77.5,0|0,1:2|0:0,0:0:0:0:
147,59,107863,1,8,0:2:0:0:
110,162,107981,1,8,0:2:0:0:
39,75,108099,2,0,P|107:57|140:51,1,77.5,8|0,0:3|0:0,0:0:0:0:
245,216,108335,6,2,P|367:246|420:268,1,155,2|0,1:1|0:2,0:1:0:0:
483,217,108689,2,0,P|490:280|491:321,1,77.5,2|8,1:1|0:2,0:2:0:0:
511,36,109044,2,2,B|460:122|363:77|363:77|385:-2,1,232.5,2|8,1:2|0:2,0:1:0:0:
264,60,109516,2,0,P|272:116|279:161,1,77.5,2|0,1:1|0:0,0:0:0:0:
159,216,109752,2,0,P|167:160|174:115,1,77.5,10|0,0:1|0:0,0:0:0:0:
269,325,109989,6,2,B|144:278|159:383|21:320,1,232.5,4|8,1:2|0:2,0:1:0:0:
0,239,110461,2,0,P|51:228|94:220,1,77.5,0|0,1:2|0:0,0:0:0:0:
171,133,110697,2,0,P|179:170|186:208,1,77.5,10|0,0:1|0:0,0:0:0:0:
269,325,110933,2,0,P|276:286|284:249,1,77.5,2|0,1:1|0:0,0:0:0:0:
359,128,111170,5,10,0:1:0:0:
455,238,111288,2,0,P|389:225|357:217,1,77.5,0|0,0:0|1:0,0:0:0:0:
295,67,111524,1,10,0:1:0:0:
382,136,111642,1,0,0:0:0:0:
252,162,111760,1,8,0:0:0:0:
390,42,111878,2,0,P|448:28|486:22,1,77.5,2|0,1:1|0:0,0:0:0:0:
322,315,112115,6,2,P|286:254|298:151,1,155,4|0,1:2|1:2,2:1:0:0:
472,205,112469,1,2,0:1:0:0:
377,226,112587,2,0,P|431:213|471:205,1,77.5,8|0,0:1|0:0,0:0:0:0:
252,384,112823,5,2,0:2:0:0:
175,322,112941,2,0,B|105:301|99:353|15:324,1,155,0|8,0:0|0:2,0:0:0:0:
68,233,113296,2,0,P|84:170|90:136,1,77.5,2|0,0:1|0:0,0:0:0:0:
165,26,113532,2,0,P|173:63|183:101,1,77.5,10|0,0:1|0:0,0:0:0:0:
296,264,113768,6,2,P|328:280|487:187,1,232.5,4|0,1:2|0:2,0:1:0:0:
510,105,114241,2,2,P|454:93|414:86,1,77.5,0|0,1:1|0:2,0:1:0:0:
332,18,114477,2,2,P|320:74|315:112,1,77.5,8|0,0:2|0:2,0:1:0:0:
187,175,114713,1,2,1:2:0:0:
338,193,114831,6,2,B|284:180|284:180|245:190|245:190|178:173,1,155,2|8,0:1|0:2,0:1:0:0:
82,135,115185,2,0,P|91:196|96:243,1,77.5,0|0,1:2|0:0,0:0:0:0:
32,369,115422,1,8,0:2:0:0:
2,273,115540,1,8,0:2:0:0:
101,313,115658,2,0,P|158:328|201:338,1,77.5,8|0,0:3|0:0,0:0:0:0:
354,384,115894,6,2,P|382:335|370:240,1,124,4|0,1:2|0:0,0:1:0:0:
464,187,116248,1,0,0:0:0:0:
464,187,116367,2,2,P|389:171|316:157,1,124,0|0,1:3|0:0,0:1:0:0:
142,190,116839,1,0,1:2:0:0:
207,46,117075,2,0,P|226:122|243:199,1,124,0|0,0:0|1:2,0:0:0:0:
267,301,117548,1,0,0:2:0:0:
108,171,117784,5,0,1:2:0:0:
7,338,118020,1,8,0:2:0:0:
88,296,118138,2,0,B|177:272|165:328|257:293,1,155,8|0,0:2|0:0,0:0:0:0:
318,259,118493,1,2,1:3:0:0:
197,29,118729,5,0,3:2:0:0:
197,29,118788,1,0,3:2:0:0:
197,29,118847,2,0,P|190:52|182:79,1,38.75,0|0,3:2|3:2,0:0:0:0:
76,104,118965,6,0,P|132:119|232:75,1,155,10|0,0:1|1:2,0:1:0:0:
341,201,119319,2,0,P|361:122|375:40,1,155,10|8,0:1|0:2,0:0:0:0:
243,200,119674,5,4,1:2:0:0:
403,280,120146,1,0,1:2:0:0:
243,200,120619,1,0,1:2:0:0:
389,374,120855,6,0,P|428:361|478:352,1,89.1250016999245,2|0,3:1|0:0,0:0:0:0:
486,364,121032,1,0,0:0:0:0:
486,364,121091,2,0,P|494:323|510:277,1,89.1250016999245,8|0,0:2|1:1,0:0:0:0:
317,115,121327,2,0,P|331:157|340:200,1,89.1250016999245,8|4,2:3|2:3,0:0:0:0:
246,353,121563,6,2,B|194:360|171:320|171:320|145:276|95:285,1,178.250003399849,10|0,0:2|1:2,0:1:0:0:
20,350,121918,1,12,0:2:0:0:
20,350,122154,5,0,1:2:0:0:
189,278,122272,2,2,B|243:231|245:130|145:110|108:161|150:207,1,232.5,10|0,0:2|0:0,0:1:0:0:
310,277,122744,6,0,P|348:267|393:259,1,77.5,8|8,0:2|0:2,0:0:0:0:
489,114,122981,1,8,0:3:0:0:
379,174,123099,1,8,0:2:0:0:
476,275,123217,1,4,0:3:0:0:
476,275,123453,6,0,P|483:240|497:199,1,69.749997871399,6|0,1:2|0:0,0:2:0:0:
327,344,123689,2,0,P|319:309|309:276,1,69.749997871399,0|0,0:2|1:2,0:0:0:0:
416,384,123926,2,0,P|350:317|229:348,1,209.249993614197,8|10,0:2|0:2,0:2:0:0:
101,163,124516,5,8,0:2:0:0:
9,240,124634,2,0,P|46:250|87:273,1,69.749997871399,2|0,1:2|0:2,0:2:0:0:
213,163,124870,2,0,P|176:170|138:193,1,69.749997871399,8|0,0:2|0:0,0:2:0:0:
31,70,125107,2,0,P|46:96|58:140,1,69.749997871399,0|0,1:2|0:0,0:0:0:0:
34,345,125343,6,0,P|85:303|153:320,1,139.499995742798,2|0,1:2|0:0,0:2:0:0:
240,380,125697,2,0,P|274:369|314:361,1,69.749997871399,2|8,0:2|0:2,0:0:0:0:
464,207,126052,5,2,0:2:0:0:
483,306,126170,2,0,P|414:284|332:266,1,139.499995742798,8|8,0:2|0:2,0:0:0:0:
290,162,126524,2,0,P|340:168|380:136,1,104.624996807098
394,139,126760,6,0,P|379:108|370:56,1,69.749997871399,8|0,0:2|0:0,0:2:0:0:
492,7,126996,2,0,P|484:40|469:72,1,69.749997871399,0|0,3:2|0:0,0:0:0:0:
276,53,127233,6,0,P|215:39|141:14,1,139.499995742798,4|0,1:2|0:0,0:2:0:0:
22,195,127705,2,0,P|94:208|141:151,1,139.499995742798,8|0,0:2|0:2,0:2:0:0:
41,39,128059,2,0,P|50:70|61:117,1,69.749997871399,10|0,0:2|1:2,0:0:0:0:
161,169,128296,2,0,P|169:135|178:101,1,69.749997871399,8|2,0:2|1:2,0:0:0:0:
27,316,128650,6,0,B|79:321|112:273|112:273|101:338|149:381,1,209.249993614197,10|2,0:2|0:2,0:2:0:0:
209,298,129122,1,0,1:2:0:0:
451,354,129359,5,2,0:2:0:0:
451,354,129477,1,0,1:2:0:0:
481,250,129595,2,0,P|418:264|326:292,1,139.499995742798,10|0,0:2|0:2,0:2:0:0:
277,210,129949,2,0,P|285:174|295:139,1,69.749997871399,10|0,0:2|0:2,0:2:0:0:
272,40,130185,1,10,0:2:0:0:
384,98,130304,1,0,1:2:0:0:
122,8,130540,6,0,P|129:35|155:152,1,139.499995742798,8|2,0:2|0:2,0:0:0:0:
89,216,130894,1,0,0:2:0:0:
185,296,131012,6,0,B|141:218|37:257|37:257|56:304,1,209.249993614197,2|2,1:2|1:2,0:2:0:0:
138,380,131485,2,0,P|186:344|274:367,1,139.499995742798,8|2,0:2|1:2,0:0:0:0:
346,304,131839,2,0,P|381:317|423:326,1,69.749997871399,8|0,0:0|0:0,0:0:0:0:
512,204,132075,2,0,P|478:212|445:224,1,69.749997871399,8|0,0:0|0:0,0:0:0:0:
342,126,132311,1,0,1:2:0:0:
458,51,132430,2,0,P|449:79|436:134,1,69.749997871399,8|0,0:0|1:2,0:0:0:0:
508,300,132666,6,0,P|421:206|320:226,1,232.5,4|0,1:2|0:0,0:2:0:0:
240,288,133138,2,0,P|243:301|252:342,3,38.75,0|0|0|0,3:2|3:2|3:2|3:2,0:0:0:0:
245,348,133374,2,0,P|281:338|328:331,1,77.5,12|0,2:2|0:0,0:0:0:0:
102,165,133729,1,0,1:2:0:0:
30,219,133847,5,8,0:3:0:0:
57,250,133926,1,8,3:0:0:0:
96,260,134005,1,8,3:0:0:0:
134,248,134083,1,12,0:2:0:0:
319,74,134319,2,0,P|332:43|342:-5,1,77.5,12|8,0:2|0:3,0:2:0:0:
179,101,134556,2,0,P|186:138|201:174,1,77.5,8|0,0:2|0:0,0:0:0:0:
136,375,134792,6,2,P|202:330|281:347,1,155,4|0,1:1|1:2,0:1:0:0:
362,368,135146,1,12,0:2:0:0:
303,174,135382,1,8,0:2:0:0:
499,226,135619,6,0,P|422:242|347:263,1,155,4|0,1:2|1:2,0:2:0:0:
362,74,135973,2,0,P|387:117|382:164,1,77.5,0|0,0:0|1:2,0:0:0:0:
226,253,136209,1,8,0:2:0:0:
154,88,136327,1,8,0:2:0:0:
32,201,136445,1,2,1:2:0:0:
32,201,136681,6,0,P|95:184|209:169,1,155,2|0,1:2|3:2,0:2:0:0:
246,110,137036,2,0,P|251:88|257:60,2,38.75,0|0|0,3:2|3:2|3:2,0:0:0:0:
275,251,137272,1,8,0:3:0:0:
46,378,137508,6,0,P|106:330|190:336,1,155,2|8,1:2|0:2,0:2:0:0:
275,251,137863,2,0,P|287:289|295:330,1,77.5,0|0,0:0|1:2,0:0:0:0:
430,227,138099,5,8,0:2:0:0:
512,239,138217,2,0,B|465:223|432:253|444:262|405:293|342:270,1,155,8|0,0:2|0:0,0:0:0:0:
245,167,138571,1,6,1:2:0:0:
245,167,138807,6,0,P|252:123|259:86,1,69.749997871399,0|0,0:2|0:0,0:0:0:0:
159,130,139044,1,2,0:2:0:0:
159,130,139162,2,0,P|158:196|204:248,1,139.499995742798
84,364,139634,5,0,0:0:0:0:
84,364,139752,2,0,P|39:352|5:347,1,69.749997871399,2|0,0:2|0:0,0:0:0:0:
67,271,139989,1,2,0:2:0:0:
186,344,140107,2,0,P|231:332|265:327,1,69.749997871399
389,302,140343,6,0,B|354:310|335:343|335:343|339:303|318:275,1,139.499995742798
395,151,140697,2,0,P|386:186|380:221,1,69.749997871399,2|0,0:2|0:0,0:0:0:0:
469,200,140933,1,10,0:2:0:0:
431,77,141052,2,0,P|376:109|307:100,1,124
231,11,141406,5,0,0:0:0:0:
231,11,141524,2,0,P|221:50|212:89,1,62,4|0,3:3|0:0,0:0:0:0:
46,190,141760,1,0,0:0:0:0:
46,190,141996,6,0,P|95:151|198:177,1,155,8|0,0:2|0:0,0:0:0:0:
271,145,142351,6,0,P|261:183|251:237,1,77.5,4|0,1:1|0:0,0:0:0:0:
187,372,142587,2,0,P|177:334|167:280,1,77.5,10|0,0:2|0:2,0:2:0:0:
332,279,142823,5,2,0:2:0:0:
409,314,142941,2,0,P|448:303|492:294,1,77.5,0|8,1:2|0:2,0:2:0:0:
512,160,143178,6,0,P|425:175|403:251,1,155,2|0,0:2|0:0,0:0:0:0:
324,64,143532,2,0,P|360:77|411:87,1,77.5,10|0,0:2|1:2,0:0:0:0:
260,137,143768,1,2,0:2:0:0:
211,46,143886,1,0,1:2:0:0:
127,107,144004,1,10,0:2:0:0:
127,107,144241,6,0,P|142:185|154:264,1,155,2|8,1:2|0:2,0:2:0:0:
110,348,144595,2,0,P|179:302|258:314,1,155,2|0,0:2|1:2,2:2:0:0:
390,257,144949,1,8,0:2:0:0:
431,325,145067,1,0,0:2:0:0:
343,384,145185,6,0,P|336:344|323:295,1,77.5,2|0,1:2|0:0,0:2:0:0:
438,147,145422,1,8,0:2:0:0:
491,220,145540,2,0,P|389:218|354:170,1,155,0|0,1:2|1:2,0:2:0:0:
289,45,145894,1,8,0:2:0:0:
289,45,146130,6,0,P|277:96|271:128,1,77.5,2|0,1:2|0:0,0:0:0:0:
110,12,146367,2,0,P|128:91|138:170,1,155,10|2,0:2|0:2,0:2:0:0:
98,251,146721,2,0,P|53:257|8:268,1,77.5,0|8,1:2|0:2,0:0:0:0:
214,379,146957,5,2,0:2:0:0:
283,331,147075,2,0,P|289:286|299:248,1,77.5,0|0,1:2|0:0,0:2:0:0:
229,129,147311,2,0,P|224:167|215:205,1,77.5,10|0,0:2|0:2,0:2:0:0:
404,290,147548,5,2,0:2:0:0:
487,256,147666,2,0,P|520:181|491:104,1,155,0|8,1:2|2:3,0:2:0:0:
438,63,148020,5,6,1:2:0:0:
126,120,148374,1,8,0:2:0:0:
297,225,148611,5,8,0:3:0:0:
297,225,148729,2,0,P|307:152|318:107,1,116.25,2|0,1:2|0:0,0:0:0:0:
323,92,148965,2,0,L|314:55,4,38.75,0|0|0|0|8,3:2|3:2|3:2|3:2|3:2,0:0:0:0:
183,218,149437,5,2,1:1:0:0:
362,312,149556,1,14,0:2:0:0:
362,312,150146,5,2,0:1:0:0:
254,352,150382,5,2,0:2:0:0:
254,352,150500,1,0,0:2:0:0:
144,286,150737,5,2,1:2:0:0:
168,164,151091,5,10,0:2:0:0:
296,131,151327,5,2,1:2:0:0:
296,131,151445,1,8,0:2:0:0:
270,247,151681,5,6,1:2:0:0:
256,192,151800,12,0,152981,0:0:0:0:
128,160,153217,5,10,0:2:0:0:
128,160,153335,2,0,P|97:152|67:147,1,58.125,10|0,0:2|0:0,0:0:0:0:
16,83,153571,6,2,P|79:23|151:51,1,162.749995033264,4|0,1:1|0:2,0:1:0:0:
263,14,153926,2,0,P|250:50|241:94,1,81.3749975166322,8|0,0:2|1:2,0:2:0:0:
155,147,154162,1,2,0:2:0:0:
240,205,154280,2,0,P|274:194|324:188,1,81.3749975166322,0|8,1:2|0:2,0:0:0:0:
434,27,154516,1,2,0:2:0:0:
492,136,154634,6,0,P|417:117|323:95,1,162.749995033264,0|8,0:0|0:2,0:0:0:0:
162,367,155107,2,0,P|189:327|276:333,1,122.062496274948,2|0,1:2|0:0,0:0:0:0:
283,343,155343,2,0,P|320:336|371:327,1,81.3749975166322,8|0,0:2|0:2,0:0:0:0:
503,245,155579,6,2,P|446:230|368:211,1,122.062496274948,2|0,1:2|0:0,0:1:0:0:
360,227,155815,2,0,P|343:197|341:147,1,81.3749975166322,8|0,0:2|0:0,0:0:0:0:
299,46,156052,6,0,B|265:13|215:16|215:16|259:33|289:87,1,162.749995033264,2|8,1:2|0:2,0:0:0:0:
340,150,156406,2,2,B|301:136|268:173|274:177|242:212|193:190,1,162.749995033264,2|0,1:2|1:2,0:1:0:0:
117,95,156760,1,8,0:2:0:0:
5,306,156996,5,2,1:2:0:0:
96,249,157115,1,0,1:2:0:0:
3,203,157233,2,0,P|14:246|25:308,1,81.3749975166322,8|0,0:2|0:2,0:0:0:0:
177,385,157469,6,0,P|153:356|98:354,1,81.3749975166322,2|0,1:2|0:0,0:2:0:0:
236,270,157705,1,8,0:2:0:0:
111,349,157823,2,0,P|186:361|233:289,1,162.749995033264,2|0,1:2|1:2,0:2:0:0:
467,366,158178,2,0,P|440:302|387:334,1,122.062496274948,8|0,0:2|0:0,0:2:0:0:
378,329,158414,6,0,B|401:282|368:245|356:260|323:227|340:182,1,162.749995033264,2|8,1:2|0:2,0:2:0:0:
398,22,158768,2,0,P|405:59|417:117,1,81.3749975166322,2|0,0:2|0:0,0:0:0:0:
502,26,159004,1,0,1:2:0:0:
309,84,159122,1,8,0:2:0:0:
309,84,159359,6,2,P|254:68|175:46,1,110.437497051001,4|0,1:1|0:0,0:1:0:0:
132,13,159595,2,0,P|111:37|113:85,1,73.6249980340005,8|0,0:2|0:0,0:0:0:0:
390,248,159831,6,0,P|428:238|480:227,1,89.1250016999245,4|0,1:2|0:0,0:0:0:0:
410,141,160067,1,8,0:2:0:0:
311,320,160185,6,0,B|260:300|222:347|222:347|178:397|126:366,1,209.250000798225,4|8,1:2|0:3,0:2:0:0:
13,218,160540,2,0,P|24:257|33:296,1,81.3749975166322,8|4,0:2|1:3,0:0:0:0:
192,230,160776,5,2,1:1:0:0:
107,149,160894,2,0,P|113:115|122:87,1,58.125,10|0,1:1|0:0,0:0:0:0:
102,6,161130,6,0,P|123:67|220:64,1,162.749995033264,4|0,1:1|0:2,0:2:0:0:
434,37,161485,2,0,P|370:17|348:68,1,122.062496274948,8|0,0:2|0:0,0:0:0:0:
327,79,161721,2,0,P|338:114|349:168,1,81.3749975166322,2|0,0:2|1:2,0:2:0:0:
448,238,161957,2,0,P|456:198|468:159,1,81.3749975166322,8|0,0:2|0:0,0:2:0:0:
466,358,162193,6,0,B|440:323|393:337|393:337|370:377|326:375,1,162.749995033264,2|8,1:2|0:2,0:2:0:0:
203,280,162548,2,0,P|195:240|182:183,1,81.3749975166322,2|0,0:2|0:0,0:0:0:0:
300,228,162784,1,0,1:2:0:0:
157,376,162902,6,0,P|76:351|-8:331,2,162.749995033264,8|2|8,0:2|1:2|0:2,0:2:0:0:
205,94,163611,2,0,P|165:105|118:116,1,81.3749975166322,2|0,1:2|0:0,0:2:0:0:
186,200,163847,1,8,0:2:0:0:
304,46,163965,6,0,P|363:22|429:85,1,162.749995033264,2|0,1:2|1:2,0:2:0:0:
346,275,164319,2,0,P|307:241|343:179,1,122.062496274948,8|0,0:2|0:0,0:0:0:0:
359,169,164556,2,0,P|396:181|452:197,1,81.3749975166322,2|0,1:2|1:2,0:0:0:0:
512,331,164792,2,0,P|473:318|434:307,1,81.3749975166322,8|0,0:2|0:2,0:0:0:0:
309,369,165028,6,0,B|261:389|231:350|238:347|211:312|160:333,1,162.749995033264,2|8,1:2|0:2,0:2:0:0:
39,366,165382,1,2,1:2:0:0:
39,366,165619,1,0,1:2:0:0:
61,196,165737,2,0,P|73:236|83:288,1,81.3749975166322,10|0,0:2|0:2,0:0:0:0:
170,114,165973,6,0,P|178:74|190:35,1,81.3749975166322,2|0,1:2|0:0,0:2:0:0:
74,63,166209,1,8,0:2:0:0:
163,219,166327,2,0,P|227:246|292:191,1,162.749995033264,2|0,2:2|1:2,0:2:0:0:
500,122,166681,2,0,P|460:114|407:98,1,81.3749975166322,10|0,0:2|0:2,0:0:0:0:
284,36,166918,6,2,B|329:66|318:122|318:122|280:148|292:192,1,178.250003399849,4|8,1:1|0:2,0:1:0:0:
501,317,167272,6,2,P|489:284|381:289,1,133.687502549887,6|0,0:2|0:0,0:1:0:0:
380,284,167508,1,0,0:2:0:0:
310,368,167626,6,2,P|268:354|190:340,1,89.1250016999245,14|0,0:2|0:0,0:1:0:0:
59,248,167863,5,8,0:3:0:0:
97,260,167941,1,8,0:3:0:0:
136,250,168020,1,8,0:3:0:0:
163,219,168099,2,0,P|154:175|142:131,1,81.3749975166322,4|0,0:3|0:0,0:0:0:0:
254,162,168335,5,10,0:1:0:0:
88,286,168453,2,0,P|78:319|72:357,1,58.125,6|0,1:1|0:0,0:0:0:0:
146,384,168689,6,2,P|211:340|294:352,1,162.749995033264,4|0,1:1|0:2,0:1:0:0:
430,288,169044,2,0,P|413:329|402:377,1,81.3749975166322,8|0,0:2|1:2,0:2:0:0:
336,256,169280,5,2,0:2:0:0:
497,208,169398,2,0,P|449:198|401:178,1,81.3749975166322,0|8,1:2|0:2,0:2:0:0:
284,26,169634,6,0,P|322:56|304:177,1,162.749995033264,2|0,0:2|0:0,0:0:0:0:
169,123,169989,2,0,P|210:114|253:106,1,81.3749975166322,8|0,0:2|0:2,0:2:0:0:
192,33,170225,1,2,1:2:0:0:
192,33,170343,1,0,1:2:0:0:
79,105,170461,2,0,P|89:161|109:203,1,81.3749975166322,8|0,0:2|0:0,0:2:0:0:
50,268,170697,6,2,P|120:218|209:243,1,162.749995033264,2|8,1:2|0:2,0:1:0:0:
439,86,171170,2,0,P|401:74|360:54,1,81.3749975166322,2|0,1:2|0:0,0:0:0:0:
301,0,171406,1,8,0:2:0:0:
226,133,171524,6,2,P|243:207|258:306,1,162.749995033264,2|0,1:2|1:2,0:1:0:0:
412,352,171878,2,0,B|445:308|500:324|500:324|456:330|432:378,1,162.749995033264,8|2,0:2|1:2,0:0:0:0:
325,230,172233,1,0,1:2:0:0:
256,292,172351,2,0,P|268:328|273:376,1,81.3749975166322,8|0,0:2|0:2,0:0:0:0:
14,201,172587,6,0,B|66:176|102:213|84:213|119:249|175:226,1,162.749995033264,2|8,1:2|0:2,0:2:0:0:
174,51,172941,2,0,P|159:94|155:134,1,81.3749975166322,2|0,1:2|0:0,0:2:0:0:
290,186,173178,1,0,1:2:0:0:
352,114,173296,2,0,P|309:99|269:95,1,81.3749975166322,8|0,0:2|0:0,0:2:0:0:
488,275,173532,6,0,B|425:291|425:291|397:318|397:318|336:332,1,162.749995033264,2|8,1:2|0:2,0:2:0:0:
272,265,173886,2,0,P|282:210|292:179,1,81.3749975166322,2|0,0:2|0:0,0:0:0:0:
439,80,174122,1,0,0:0:0:0:
501,151,174241,2,0,P|446:161|415:171,1,81.3749975166322,8|0,0:2|0:0,0:0:0:0:
160,32,174477,6,2,B|194:19|229:1|229:1|209:69|193:139,1,209.250000798225,4|8,1:1|0:2,0:1:0:0:
66,384,174949,6,0,P|57:346|44:295,1,73.6249980340005,4|0,1:2|0:0,0:0:0:0:
128,248,175185,1,8,0:2:0:0:
24,236,175304,6,0,B|85:219|117:264|117:264|145:311|219:293,1,209.250000798225,4|8,1:2|0:3,0:2:0:0:
324,242,175658,2,0,P|311:280|299:315,1,73.6249980340005,8|4,0:2|1:3,0:0:0:0:
236,376,175894,5,2,1:1:0:0:
192,217,176012,2,0,L|205:158,1,58.125,10|0,1:1|0:0,0:0:0:0:
140,102,176248,6,0,P|230:101|280:43,1,147.249996068001,4|0,1:1|0:2,0:2:0:0:
473,93,176603,2,0,P|424:84|380:126,1,110.437497051001,8|0,0:2|0:0,0:0:0:0:
366,137,176839,2,0,P|378:172|386:217,1,73.6249980340005,2|0,0:2|1:2,0:2:0:0:
461,350,177075,2,0,P|468:313|480:279,1,73.6249980340005,8|0,0:2|0:2,0:2:0:0:
293,203,177311,6,0,P|223:224|125:246,1,147.249996068001,2|8,1:2|0:2,0:2:0:0:
211,383,177666,2,0,P|221:336|227:307,1,73.6249980340005,2|0,0:2|0:0,0:0:0:0:
141,159,177902,1,0,1:2:0:0:
72,205,178020,2,0,P|73:281|135:328,2,147.249996068001,8|2|8,0:2|1:2|0:2,0:0:0:0:
225,6,178729,5,2,1:2:0:0:
279,70,178847,2,0,P|272:106|264:145,1,73.6249980340005
366,246,179083,6,0,P|435:196|514:219,1,147.249996068001,2|0,1:2|1:2,0:2:0:0:
426,314,179437,2,0,P|352:298|266:287,1,147.249996068001,8|0,0:2|1:2,0:0:0:0:
159,245,179792,1,0,0:0:0:0:
186,383,179910,2,0,P|201:343|202:305,1,73.6249980340005,8|0,2:0|0:0,0:0:0:0:
28,84,180146,5,4,1:1:0:0:
28,84,180382,2,0,P|17:143|58:195,1,110.437497051001,8|0,0:0|0:0,0:0:0:0:
73,198,180619,1,2,1:2:0:0:
166,149,180737,2,0,P|176:106|189:76,1,73.6249980340005,8|0,0:0|1:0,0:0:0:0:
28,280,180973,6,0,P|92:237|170:250,1,147.249996068001,2|8,1:2|2:0,0:0:0:0:
276,140,181327,2,0,P|260:179|249:219,1,73.6249980340005,2|0,1:2|0:0,0:0:0:0:
325,368,181563,5,8,0:0:0:0:
378,283,181681,1,2,0:0:0:0:
483,325,181800,2,0,P|451:336|434:342,3,36.8124990170002,0|0|0|0,3:0|3:0|3:0|3:0,0:0:0:0:
428,359,182036,6,0,B|406:305|464:267|464:267|541:216|512:58|367:55|275:127|311:271|393:287,1,557.999982971192,14|0,0:2|0:0,0:0:0:0:
417,210,183689,1,0,0:2:0:0:
414,202,183768,1,0,0:2:0:0:
412,197,183847,1,0,0:2:0:0:
411,191,183926,1,2,0:2:0:0:
411,191,197863,5,2,1:2:0:0:
411,191,198099,2,0,P|426:153|434:108,1,77.5,8|8,2:2|2:2,0:0:0:0:
332,128,198335,1,8,3:3:0:0:
426,300,198453,2,0,P|396:285|329:274,1,77.5,0|8,0:0|0:2,0:0:0:0:
241,168,198689,2,0,P|278:159|313:142,1,77.5
505,357,198926,6,2,P|426:339|365:404,1,155,6|0,1:1|0:2,0:1:0:0:
163,291,199280,2,0,P|202:335|257:315,1,116.25,10|0,0:2|0:0,0:2:0:0:
267,295,199516,2,0,P|260:256|252:215,1,77.5,2|0,0:2|1:2,0:2:0:0:
446,60,199752,2,0,P|434:111|422:186,1,116.25,10|0,0:2|0:0,0:2:0:0:
411,191,199989,2,0,P|451:198|492:211,1,77.5,2|0,1:2|0:0,0:0:0:0:
310,53,200225,6,0,B|266:75|255:108|255:108|231:82|187:81,1,155,8|0,0:2|0:0,0:0:0:0:
66,239,200579,2,0,P|102:232|148:218,1,77.5,0|8,1:2|0:2,0:0:0:0:
82,136,200815,1,0,0:2:0:0:
8,326,200933,2,0,P|83:336|162:358,1,155,2|8,1:2|0:2,0:0:0:0:
437,314,201406,5,0,1:2:0:0:
331,291,201524,2,0,P|340:330|348:370,1,77.5,2|0,0:2|0:0,0:0:0:0:
507,162,201760,6,0,B|465:168|446:209|446:209|404:217|375:183,1,155,0|0,1:2|1:2,0:2:0:0:
265,30,202115,6,2,P|258:48|256:71,1,38.75,10|0,0:1|0:0,0:1:0:0:
266,96,202233,2,0,B|317:120|354:79|339:68|377:34|427:58,1,178.250003399849,0|0,0:0|1:2,0:0:0:0:
265,210,202587,2,0,P|225:198|169:186,1,77.5,8|0,0:2|0:0,0:2:0:0:
30,43,202823,6,0,P|72:2|135:21,1,116.25,2|0,1:2|0:0,0:0:0:0:
141,35,203059,2,0,P|132:74|120:114,1,77.5,8|0,0:2|1:2,0:0:0:0:
51,249,203296,2,0,P|39:212|31:174,1,77.5
200,372,203532,2,0,P|180:324|119:334,1,116.25,10|0,0:2|0:0,0:0:0:0:
114,348,203768,6,0,P|185:352|234:268,1,155,0|10,1:2|0:2,0:0:0:0:
200,210,204122,2,2,B|182:185|148:181|148:181|174:197|189:241,1,116.25,2|0,0:1|0:0,0:1:0:0:
233,290,204359,5,2,1:1:0:0:
407,371,204477,2,0,P|368:375|330:384,1,77.5,10|0,0:2|0:2,0:0:0:0:
493,274,204713,6,0,P|435:260|366:243,1,116.25,6|0,1:2|0:0,0:0:0:0:
353,259,204949,2,0,P|336:222|334:181,1,77.5,8|0,0:2|0:2,0:0:0:0:
481,18,205185,6,0,P|498:55|500:96,1,77.5,2|0,1:1|0:2,0:0:0:0:
430,170,205422,1,8,0:2:0:0:
273,72,205540,6,2,B|315:19|386:51|386:51|367:97,1,155,2|0,1:2|1:2,0:1:0:0:
185,128,205894,2,0,P|177:89|166:44,1,77.5,8|8,0:2|0:3,0:0:0:0:
273,72,206130,5,2,1:1:0:0:
114,203,206248,2,0,P|106:231|98:268,1,58.125,14|0,0:2|0:0,0:0:0:0:
42,326,206485,6,2,B|88:341|120:312|106:304|134:275|186:289,1,155,6|0,1:1|0:2,0:1:0:0:
278,373,206839,1,10,0:2:0:0:
368,321,206957,1,0,1:2:0:0:
274,275,207075,2,0,P|282:310|291:362,1,77.5,2|2,0:2|1:1,0:0:0:0:
443,185,207311,5,8,0:2:0:0:
510,250,207430,2,0,P|429:232|359:218,1,155,2|0,0:1|0:0,0:0:0:0:
215,116,207784,2,2,P|240:137|305:99,1,116.25,8|0,0:2|0:0,0:1:0:0:
314,75,208020,2,0,P|301:39|292:0,1,77.5,0|0,1:2|1:2,0:0:0:0:
358,217,208256,2,0,P|345:253|336:292,1,77.5,10|0,0:1|0:2,0:0:0:0:
152,279,208493,5,2,1:1:0:0:
254,236,208611,1,0,0:2:0:0:
162,384,208729,2,0,P|125:370|77:361,1,77.5,8|2,0:2|0:1,0:0:0:0:
0,226,208965,2,0,P|37:217|74:204,1,77.5,0|2,0:0|0:1,0:0:0:0:
126,13,209201,1,8,0:2:0:0:
26,92,209319,6,2,P|98:108|185:129,1,155,2|0,1:1|1:2,0:1:0:0:
381,31,209674,2,0,P|344:7|289:57,1,116.25,8|0,0:2|0:0,0:0:0:0:
270,62,209910,2,2,P|279:97|287:146,1,77.5,2|0,1:1|0:0,0:1:0:0:
407,220,210146,2,0,P|413:181|423:144,1,77.5,10|0,0:1|0:0,0:0:0:0:
337,346,210382,6,2,B|378:301|435:330|435:330|448:373|492:385,2,178.250003399849,2|8|0,1:1|0:2|0:0,0:1:0:0:
120,384,211091,2,2,P|130:326|143:266,1,116.25,10|0,0:1|0:0,0:1:0:0:
112,179,211327,6,2,B|83:141|36:144|36:144|71:164|85:210,1,155,2|8,1:2|0:2,0:1:0:0:
230,370,211681,2,2,P|265:362|307:354,1,77.5,2|0,0:1|0:0,0:1:0:0:
442,200,211918,1,0,1:2:0:0:
474,292,212036,2,2,P|418:296|366:258,1,116.25,10|0,0:1|0:0,0:1:0:0:
342,269,212272,6,2,P|359:187|378:114,2,155,6|8|0,1:2|0:2|1:2,0:1:0:0:
176,79,212981,1,8,0:2:0:0:
176,79,213099,1,0,0:2:0:0:
239,12,213217,5,8,3:3:0:0:
267,39,213295,1,8,3:3:0:0:
276,79,213374,1,8,3:3:0:0:
262,117,213453,1,4,3:3:0:0:
97,280,213689,6,0,P|55:290|17:297,1,77.5,8|8,0:2|0:2,0:0:0:0:
42,193,213925,1,8,0:2:0:0:
166,357,214044,1,8,0:2:0:0:
259,321,214162,6,0,P|298:328|340:343,1,77.5,8|0,0:2|0:0,0:0:0:0:
128,156,214398,5,8,0:3:0:0:
116,173,214516,2,0,P|79:185|41:192,1,77.5,8|0,0:2|0:0,0:0:0:0:
363,24,214752,5,0,1:2:0:0:
383,14,214870,2,0,P|422:21|464:36,1,77.5,8|0,0:2|0:0,0:0:0:0:
476,252,215107,5,8,3:3:0:0:
438,264,215185,1,8,3:3:0:0:
399,254,215264,1,8,3:3:0:0:
372,223,215343,2,0,P|381:179|393:135,1,77.5,0|0,3:2|0:0,0:0:0:0:
263,16,215579,5,10,0:2:0:0:
161,127,215697,2,0,P|191:118|235:109,1,58.125,10|0,0:2|0:0,0:0:0:0:
219,207,215933,6,2,P|144:159|51:199,1,162.749995033264,4|0,1:1|0:2,0:1:0:0:
214,302,216288,2,0,P|255:288|297:277,1,81.3749975166322,8|0,0:2|1:2,0:2:0:0:
123,358,216524,5,2,0:2:0:0:
111,339,216642,2,0,P|119:302|131:259,1,81.3749975166322,0|8,1:2|0:2,0:2:0:0:
293,154,216878,6,0,B|338:137|371:168|366:176|394:201|448:190,1,162.749995033264,2|0,0:2|0:0,0:0:0:0:
257,71,217233,2,0,P|210:120|227:221,1,162.749995033264,8|2,0:2|1:2,0:2:0:0:
362,334,217587,1,0,1:2:0:0:
276,358,217705,2,0,P|284:313|294:268,1,81.3749975166322,8|0,0:2|0:2,0:2:0:0:
169,125,217941,6,2,B|108:138|108:138|85:165|85:165|6:182,1,162.749995033264,2|8,1:2|0:2,0:1:0:0:
272,8,218414,2,0,B|333:21|333:21|356:48|356:48|435:65,1,162.749995033264,2|8,1:2|0:2,0:0:0:0:
512,119,218768,2,2,P|433:105|361:166,1,162.749995033264,2|0,1:2|1:2,0:1:0:0:
290,213,219122,2,0,P|280:174|265:130,1,81.3749975166322,8|0,0:2|0:0,0:0:0:0:
394,253,219359,5,2,1:2:0:0:
327,346,219477,1,0,1:2:0:0:
214,304,219595,1,8,0:2:0:0:
214,304,219831,6,0,B|176:273|129:291|129:291|108:325|71:332,1,162.749995033264,2|8,1:2|0:2,0:2:0:0:
34,167,220185,2,0,P|46:206|57:253,1,81.3749975166322,2|0,1:2|0:0,0:2:0:0:
209,99,220422,1,0,1:2:0:0:
137,33,220540,2,0,P|125:72|114:119,1,81.3749975166322,8|0,0:2|0:2,0:2:0:0:
322,195,220776,6,0,P|391:143|477:166,1,162.749995033264,2|8,1:2|0:2,0:2:0:0:
387,272,221130,2,0,P|306:246|218:232,1,162.749995033264,2|0,0:2|1:2,0:0:0:0:
142,274,221485,1,8,0:2:0:0:
52,80,221721,6,2,P|99:61|161:106,1,110.437497051001,4|0,1:1|0:0,0:1:0:0:
166,109,221957,2,0,P|156:148|148:185,1,73.6249980340005,8|0,0:2|0:0,0:0:0:0:
387,272,222193,6,0,P|429:257|479:247,1,89.1250016999245,4|0,1:2|0:0,0:0:0:0:
409,183,222430,1,8,0:2:0:0:
471,337,222548,6,0,B|421:291|360:316|360:316|341:364|277:369,1,209.250000798225,4|8,1:2|0:3,0:2:0:0:
188,269,222902,2,0,P|199:310|207:348,1,81.3749975166322,8|4,0:2|1:3,0:0:0:0:
278,281,223138,5,2,1:1:0:0:
122,331,223256,2,0,P|91:319|56:311,1,58.125,10|0,1:1|0:0,0:0:0:0:
17,235,223493,6,0,P|64:191|173:212,1,162.749995033264,4|0,1:1|0:2,0:2:0:0:
267,42,223847,2,0,P|253:82|245:124,1,81.3749975166322,8|0,0:2|1:2,0:0:0:0:
400,285,224083,2,0,P|434:226|415:170,1,122.062496274948,2|0,0:2|0:0,0:2:0:0:
398,159,224319,2,0,P|356:171|316:177,1,81.3749975166322,8|0,0:2|0:0,0:2:0:0:
212,367,224556,6,0,B|243:317|307:317|307:317|352:360,1,162.749995033264,2|8,1:2|0:2,0:2:0:0:
117,308,224910,2,0,P|106:258|90:213,1,81.3749975166322,2|0,0:2|0:0,0:0:0:0:
129,82,225146,1,0,1:2:0:0:
201,153,225264,2,0,P|122:133|41:122,2,162.749995033264,8|2|8,0:2|1:2|0:2,0:0:0:0:
429,26,225973,6,0,P|419:56|408:104,1,81.3749975166322,2|0,1:2|0:0,0:2:0:0:
338,44,226209,1,8,0:2:0:0:
464,183,226327,2,0,B|440:149|389:135|353:159|353:159|396:159|420:190,1,193.75,2|0,1:2|1:2,0:2:0:0:
336,315,226681,2,0,P|343:276|354:222,1,81.3749975166322,8|0,0:2|0:0,0:0:0:0:
244,54,226918,5,2,1:2:0:0:
181,112,227036,1,0,1:2:0:0:
98,87,227154,1,8,0:2:0:0:
163,26,227272,1,0,0:2:0:0:
181,112,227390,6,0,B|168:177|168:177|147:198|147:198|129:277,1,162.749995033264,2|8,1:2|0:2,0:2:0:0:
214,370,227744,1,2,1:2:0:0:
214,370,227981,1,0,1:2:0:0:
294,259,228099,2,0,P|257:271|213:280,1,81.3749975166322,10|0,0:2|0:2,0:0:0:0:
405,334,228335,6,0,P|454:276|431:186,1,162.749995033264,2|8,1:2|0:2,0:2:0:0:
305,20,228689,2,0,P|289:97|339:158,1,162.749995033264,2|0,2:2|1:2,0:2:0:0:
376,75,229044,1,10,0:2:0:0:
376,75,229162,1,0,0:2:0:0:
251,112,229280,6,2,B|211:80|166:99|166:99|138:138|82:125,1,162.749995033264,4|8,1:1|0:2,0:1:0:0:
3,202,229634,2,2,P|25:280|44:376,1,162.749995033264,6|0,0:2|0:2,0:1:0:0:
145,301,229989,2,2,P|156:262|165:214,1,81.3749975166322,14|0,0:2|0:0,0:1:0:0:
309,172,230225,5,8,0:3:0:0:
330,153,230304,1,8,0:3:0:0:
342,119,230383,1,8,0:3:0:0:
329,90,230461,2,0,P|292:102|251:111,1,81.3749975166322,4|0,0:3|0:0,0:0:0:0:
461,267,230697,5,10,0:1:0:0:
359,346,230815,2,0,P|364:317|371:289,1,58.125,6|0,1:1|0:0,0:0:0:0:
373,369,231052,6,2,B|334:391|297:360|309:351|265:314|220:342,1,162.749995033264,4|0,1:1|0:2,0:1:0:0:
35,363,231406,2,0,P|71:370|115:384,1,81.3749975166322,8|0,0:2|1:2,0:2:0:0:
205,220,231642,1,2,0:2:0:0:
110,283,231760,2,0,P|100:241|89:200,1,81.3749975166322,0|8,1:2|0:2,0:2:0:0:
139,16,231996,1,2,0:2:0:0:
9,88,232115,2,0,P|89:105|148:122,1,122.062496274948,0|0,1:0|0:0,0:0:0:0:
195,185,232351,2,0,P|235:175|283:165,1,81.3749975166322,8|0,0:2|0:2,0:2:0:0:
248,0,232587,6,0,P|236:36|228:88,1,81.3749975166322,2|0,1:2|1:2,0:0:0:0:
405,227,232823,2,0,P|417:191|425:139,1,81.3749975166322,8|0,0:2|0:2,0:0:0:0:
360,54,233059,1,2,1:2:0:0:
360,54,233296,2,0,P|399:48|451:32,1,81.3749975166322,8|0,0:2|0:0,0:0:0:0:
195,185,233532,6,0,P|164:139|65:147,1,162.749995033264,2|8,1:2|0:2,0:0:0:0:
0,289,233886,2,2,B|29:286|59:280|59:280|94:307|94:307|123:301|152:298,1,162.749995033264,2|0,1:2|1:2,0:1:0:0:
251,377,234241,1,8,0:2:0:0:
425,135,234477,1,2,1:2:0:0:
512,205,234595,1,0,1:2:0:0:
411,242,234713,2,0,P|421:205|431:157,1,81.3749975166322,8|0,0:2|0:2,0:0:0:0:
461,377,234949,6,0,P|427:347|358:347,1,81.3749975166322,2|0,1:2|0:0,0:2:0:0:
311,164,235185,1,8,0:2:0:0:
251,272,235304,2,0,P|329:257|415:241,1,162.749995033264,2|0,1:2|1:2,0:2:0:0:
216,21,235658,2,0,P|169:70|200:116,1,122.062496274948,8|0,0:2|0:0,0:2:0:0:
210,131,235894,6,0,B|169:105|125:142|137:151|100:182|61:160,1,162.749995033264,2|8,1:2|0:2,0:2:0:0:
111,362,236248,2,0,P|119:318|129:271,1,81.3749975166322,2|0,0:2|0:0,0:0:0:0:
19,287,236485,1,0,1:2:0:0:
227,363,236603,1,8,0:2:0:0:
227,363,236839,6,2,B|313:345|313:345|329:373|363:387,1,147.249996068001,4|8,1:1|0:2,0:1:0:0:
380,131,237311,6,0,P|337:116|294:108,1,89.1250016999245,4|0,1:2|0:0,0:0:0:0:
359,29,237548,1,8,0:2:0:0:
512,190,237666,6,0,B|461:170|423:217|423:217|384:266|324:242,1,209.250000798225,4|8,1:2|0:3,0:2:0:0:
199,166,238020,2,0,P|192:124|181:84,1,81.3749975166322,8|4,0:2|1:3,0:0:0:0:
28,175,238256,5,2,1:1:0:0:
113,248,238374,2,0,P|107:275|101:313,1,58.125,10|0,1:1|0:0,0:0:0:0:
29,357,238611,6,0,B|67:314|120:336|120:336|131:368|161:382,1,162.749995033264,4|0,1:1|0:2,0:2:0:0:
419,266,238965,2,0,P|407:241|321:241,1,122.062496274948,8|0,0:2|0:0,0:0:0:0:
243,296,239201,2,0,P|253:327|263:376,1,81.3749975166322,2|0,0:2|1:2,0:0:0:0:
440,379,239437,2,0,P|402:363|362:353,1,81.3749975166322,8|0,0:2|0:2,0:0:0:0:
240,182,239674,6,0,P|311:201|366:139,1,162.749995033264,2|8,1:2|0:2,0:2:0:0:
304,6,240028,2,0,P|277:47|288:86,1,81.3749975166322,2|0,0:2|0:0,0:2:0:0:
365,140,240264,1,0,1:2:0:0:
183,30,240382,6,0,B|142:4|98:41|110:50|73:81|34:59,2,162.749995033264,8|2|8,0:2|1:2|0:2,0:2:0:0:
24,221,241091,1,2,1:2:0:0:
126,238,241209,2,0,P|117:195|110:152,1,81.3749975166322,0|8,0:0|0:2,0:0:0:0:
46,366,241445,6,0,B|23:333|23:333|81:348|151:368,1,162.749995033264,2|0,1:2|1:2,0:2:0:0:
361,299,241800,2,0,P|318:339|262:323,1,122.062496274948,8|0,0:2|0:0,0:0:0:0:
243,300,242036,2,0,P|251:258|261:207,1,81.3749975166322,0|0,1:2|0:0,0:0:0:0:
435,31,242272,2,0,P|441:87|454:164,1,122.062496274948,8|0,2:0|0:0,0:0:0:0:
467,173,242508,6,0,P|428:177|379:187,1,81.3749975166322,4|0,1:1|0:0,0:0:0:0:
203,53,242744,2,0,B|250:-3|319:30|319:30|310:49|298:79,1,162.749995033264,8|2,0:0|1:2,0:0:0:0:
265,192,243099,1,8,0:0:0:0:
265,192,243335,6,0,B|227:149|174:171|174:171|163:203|133:217,1,162.749995033264,2|0,1:2|0:0,0:0:0:0:
27,53,243689,2,0,P|35:89|46:143,1,81.3749975166322,2|0,1:2|0:0,0:0:0:0:
29,265,243926,1,8,0:0:0:0:
134,216,244044,1,2,0:0:0:0:
178,328,244162,2,0,P|199:321|222:316,3,40.6874987583161,0|0|0|0,3:0|3:0|3:0|3:0,0:0:0:0:
250,348,244398,6,2,B|303:349|350:379|350:379|383:348|371:304,1,178.250003399849,12|0,0:1|1:0,0:1:0:0:
320,122,244752,6,2,B|347:88|404:90|404:90|366:108|340:157,1,178.250003399849,12|0,0:0|1:0,0:1:0:0:
503,249,245107,6,2,P|462:235|400:220,1,89.1250016999245,12|0,0:0|0:0,0:1:0:0:
219,121,245343,5,8,0:3:0:0:
205,83,245422,1,8,0:3:0:0:
214,43,245501,1,8,0:3:0:0:
242,16,245579,1,4,0:3:0:0:
67,291,245815,5,10,0:1:0:0:
4,227,245933,2,0,B|45:201|89:238|77:247|114:278|153:256,1,162.749995033264,6|0,1:1|0:0,0:0:0:0:
237,167,246288,6,0,B|280:157|303:125|303:125|250:205|207:313|254:403|350:385|392:326|378:257|300:236|281:284,1,503.75,6|0,1:2|0:0,0:2:0:0:
180,350,247941,6,0,P|159:353|142:358,3,38.75,0|0|0|0,0:2|0:0|0:0|0:0,0:0:0:0:
123,383,248178,2,0,P|77:349|22:356,1,108.499996688843,2|0,0:2|1:2,0:2:0:0:
28,353,248886,1,0,0:0:0:0:
147,252,249122,6,0,P|154:218|162:191,1,54.2499983444214
59,160,249477,2,0,P|52:126|44:99,1,54.2499983444214
153,42,249831,1,0,0:0:0:0:
39,183,250067,5,4,1:2:0:0:
39,183,250776,2,0,P|47:218|57:270,1,77.5,0|8,0:0|0:3,0:0:0:0:
160,349,251012,5,8,0:3:0:0:
168,337,251091,1,8,0:3:0:0:
173,323,251170,1,8,0:3:0:0:
171,308,251248,1,4,0:3:0:0:
358,364,251485,6,0,B|411:351|411:351|417:347|417:347|475:335,2,103.333333333333,10|0|0,0:1|0:0|0:0,0:0:0:0:
283,297,251957,5,6,1:2:0:0:
288,278,252036,1,0,0:2:0:0:
293,262,252115,1,0,0:2:0:0:
298,243,252193,2,0,P|336:232|372:218,1,77.5,8|0,0:2|0:0,0:0:0:0:
432,136,252430,5,2,0:1:0:0:
427,117,252509,1,0,0:2:0:0:
422,101,252588,1,0,0:2:0:0:
417,82,252666,2,0,P|379:71|343:57,1,77.5,8|0,0:2|0:0,0:0:0:0:
160,104,252902,6,0,P|156:78|148:50,2,51.6666666666667,2|0|0,1:2|0:2|0:2,0:0:0:0:
112,176,253138,2,0,P|115:201|124:230,2,51.6666666666667,8|0|0,0:2|0:2|0:2,0:0:0:0:
137,319,253374,5,2,1:1:0:0:
173,299,253453,1,0,0:2:0:0:
215,299,253532,1,0,0:2:0:0:
252,316,253611,1,8,0:2:0:0:
278,347,253689,1,0,0:0:0:0:
315,366,253768,1,0,0:0:0:0:
360,344,253847,6,2,B|305:280|373:187|423:291|479:133|377:91,1,278.999991485596,2|0,1:2|0:2,0:1:0:0:
336,52,254319,2,0,P|290:64|244:74,1,77.5,2|0,1:2|0:0,0:2:0:0:
190,8,254556,1,10,0:2:0:0:
310,158,254674,6,2,P|256:117|157:151,1,155,2|0,1:1|1:2,0:1:0:0:
97,78,255028,2,0,P|85:126|76:173,1,77.5,8|0,0:2|0:0,0:0:0:0:
166,267,255264,5,2,1:1:0:0:
118,348,255382,1,0,1:2:0:0:
35,316,255500,2,0,P|75:322|120:339,1,77.5,10|0,0:2|0:2,0:0:0:0:
311,296,255737,5,2,1:1:0:0:
311,296,255855,2,0,P|321:331|329:375,1,77.5,0|10,0:2|0:2,0:0:0:0:
498,214,256091,5,0,1:2:0:0:
421,169,256209,2,0,P|411:204|403:248,1,77.5,2|0,0:1|1:2,0:0:0:0:
230,83,256445,1,10,0:2:0:0:
230,83,256681,5,2,1:1:0:0:
321,132,256800,1,0,0:2:0:0:
384,24,256918,2,0,P|345:31|310:47,1,77.5,10|0,0:2|0:2,0:0:0:0:
240,217,257154,6,2,P|251:273|260:335,2,103.333333333333,2|2|2,1:1|0:1|0:1,0:1:0:0:
415,229,257626,6,2,B|226:181|281:357|63:302,1,348.750013303757,6|0,1:1|0:0,0:1:0:0:
92,308,258099,6,0,P|141:315|175:355,1,77.5,6|0,1:2|1:0,0:0:0:0:
307,289,258335,1,8,0:2:0:0:
242,384,258453,2,2,P|229:300|208:220,1,155,2|8,1:1|0:3,0:1:0:0:
138,73,258807,5,10,0:2:0:0:
112,164,258926,1,8,0:2:0:0:
54,101,259044,1,2,1:1:0:0:
194,135,259162,6,0,L|263:120,1,58.125,8|0,0:2|0:0,0:0:0:0:
350,52,259398,6,2,P|305:108|333:197,1,155,6|0,1:1|0:2,0:1:0:0:
415,211,259752,2,0,P|407:166|399:132,1,77.5,8|0,0:2|1:2,0:0:0:0:
512,250,259989,1,0,0:0:0:0:
449,333,260107,1,0,1:2:0:0:
351,297,260225,2,0,P|268:316|191:338,1,155,8|2,0:2|1:2,0:2:0:0:
200,334,260697,6,0,P|210:286|218:258,1,77.5,8|0,0:2|0:0,0:0:0:0:
60,83,260933,2,0,P|45:123|60:166,1,77.5,2|2,1:2|0:1,0:0:0:0:
70,166,261111,2,0,P|95:157|122:149,1,38.75
267,7,261288,6,0,P|241:92|231:179,1,155,2|0,0:2|0:0,0:0:0:0:
76,74,261642,2,0,P|111:65|154:50,1,77.5,8|0,0:0|0:2,0:0:0:0:
320,88,261878,5,2,1:2:0:0:
425,44,262036,5,2,0:1:0:0:
505,115,262193,5,2,0:1:0:0:
414,196,262351,6,2,P|407:169|401:140,1,51.6666666666667,2|0,1:1|0:2,0:1:0:0:
324,240,262508,2,2,P|317:267|311:296,1,51.6666666666667,2|8,0:1|0:2,0:1:0:0:
232,157,262666,6,2,B|174:142|144:178|161:185|121:223|62:207,1,180.833333333333,2|0,0:2|1:2,0:1:0:0:
3,267,263059,2,2,P|12:305|19:347,1,77.5,10|0,0:2|0:2,0:1:0:0:
131,374,263296,5,2,1:1:0:0:
184,304,263414,1,0,0:2:0:0:
273,312,263532,2,0,P|261:274|247:238,1,77.5,10|0,0:2|1:2,0:0:0:0:
452,138,263768,6,0,P|435:182|425:216,1,77.5,2|0,0:1|1:2,0:0:0:0:
357,141,264004,1,10,0:2:0:0:
512,251,264122,2,0,P|435:246|372:301,1,155,2|0,0:1|0:2,0:0:0:0:
247,238,264477,2,0,P|284:230|329:214,1,77.5,10|0,0:1|0:2,0:0:0:0:
376,53,264713,5,2,1:2:0:0:
262,97,264831,1,0,0:0:0:0:
213,4,264949,1,8,3:2:0:0:
37,101,265185,6,2,P|35:181|88:237,1,155,6|8,1:2|0:2,0:1:0:0:
169,269,265540,2,2,P|92:283|18:305,1,155,2|0,0:1|1:2,0:1:0:0:
250,380,265894,2,2,P|260:335|274:297,1,77.5,10|0,0:1|1:2,0:1:0:0:
208,131,266130,5,2,3:2:0:0:
196,151,266209,1,0,3:3:0:0:
194,168,266288,1,0,3:3:0:0:
200,190,266367,1,8,3:2:0:0:
413,215,266603,5,10,3:2:0:0:
498,345,266721,2,0,B|471:312|427:321|427:321|407:361|362:362,1,155
289,302,267075,6,0,P|295:274|306:243,2,51.6666666666667,6|0|0,1:1|0:2|0:2,0:0:0:0:
224,182,267311,2,0,P|218:210|207:241,2,51.6666666666667,8|0|0,0:2|0:2|0:2,0:0:0:0:
145,324,267548,5,2,0:2:0:0:
117,352,267626,1,0,0:2:0:0:
77,361,267705,1,0,0:2:0:0:
39,347,267784,2,0,P|31:308|17:255,1,77.5,8|0,0:2|0:0,0:0:0:0:
16,120,268020,5,2,1:1:0:0:
25,143,268099,1,0,0:2:0:0:
45,160,268178,1,0,0:2:0:0:
69,167,268256,2,0,P|109:161|156:142,1,77.5,8|0,0:2|0:0,0:0:0:0:
211,53,268493,5,2,1:1:0:0:
220,30,268572,1,0,0:2:0:0:
240,13,268651,1,0,0:2:0:0:
264,6,268729,2,0,P|304:12|351:31,1,77.5,8|0,0:2|0:0,0:0:0:0:
478,95,268965,6,0,P|484:123|495:154,2,51.6666666666667,2|0|0,1:1|0:2|0:2,0:0:0:0:
413,215,269201,2,0,P|407:187|396:156,2,51.6666666666667,8|0|0,0:2|0:2|0:2,0:0:0:0:
459,326,269437,5,2,1:1:0:0:
415,352,269516,1,0,0:2:0:0:
366,337,269595,1,0,0:2:0:0:
343,293,269674,1,8,0:2:0:0:
318,250,269752,1,0,0:2:0:0:
269,236,269831,1,0,0:2:0:0:
226,262,269910,6,2,P|236:304|241:349,1,77.5,2|0,1:1|0:0,0:1:0:0:
130,166,270146,2,0,P|146:107|160:24,1,116.25,8|0,0:0|0:0,0:0:0:0:
154,29,270382,2,0,P|191:41|232:48,1,77.5,2|2,1:2|1:1,0:0:0:0:
41,217,270619,2,0,P|16:241|37:330,1,116.25,8|0,0:0|0:0,0:0:0:0:
7,348,270855,6,0,B|94:327|94:327|108:361|142:372,1,155,2|8,1:1|0:2,0:2:0:0:
337,361,271248,2,0,P|331:335|257:342,1,103.333333333333,2|2,0:0|0:0,0:0:0:0:
265,329,271563,2,2,P|343:330|372:293,1,116.25,10|0,0:1|0:0,0:1:0:0:
461,359,271800,6,0,B|479:318|453:285|446:294|417:264|435:214,1,155,0|10,1:2|0:2,0:0:0:0:
482,43,272154,1,0,0:2:0:0:
421,118,272272,2,0,P|461:127|507:145,1,77.5,2|0,1:1|1:2,0:0:0:0:
329,13,272508,2,0,P|292:25|254:34,1,77.5,10|0,0:2|0:2,0:0:0:0:
41,84,272744,6,0,B|67:112|71:149|71:149|95:122|136:117,1,147.249996068001,6|10,1:1|0:2,0:0:0:0:
444,234,273217,6,2,P|424:209|365:211,1,89.1250016999245,6|0,1:2|0:0,0:1:0:0:
171,368,273453,5,8,0:2:0:0:
100,308,273571,2,2,B|151:288|189:335|189:335|233:385|285:354,1,209.250000798225,2|0,1:2|1:2,0:1:0:0:
380,300,273926,2,2,P|385:338|395:376,1,77.5,10|0,0:2|0:2,0:1:0:0:
490,325,274162,5,2,1:1:0:0:
342,193,274280,2,0,P|350:163|358:128,1,58.125,14|0,0:1|0:0,0:0:0:0:
436,36,274516,6,2,B|447:52|454:84|454:84|427:50|378:27|322:29|322:29|344:39|363:59,1,232.5,6|10,1:2|0:2,0:1:0:0:
20,127,275107,6,0,P|61:131|99:105,1,77.5,2|0,0:2|1:2,0:2:0:0:
231,0,275343,2,2,P|217:41|198:133,1,116.25,10|0,0:1|0:0,0:1:0:0:
180,138,275579,6,2,P|189:173|196:224,1,77.5,2|0,1:1|0:0,0:1:0:0:
29,314,275815,2,0,P|20:279|13:228,1,77.5,8|0,0:2|0:0,0:0:0:0:
225,350,276052,2,0,P|198:326|149:327,1,77.5,2|2,1:1|1:1,0:0:0:0:
136,334,276229,2,0,P|131:351|125:380,1,38.75,0|8,0:0|0:0,0:0:0:0:
313,211,276465,1,0,0:0:0:0:
327,218,276524,6,2,P|386:203|449:193,1,116.25,2|0,1:2|0:0,0:1:0:0:
463,199,276760,2,0,P|474:150|485:114,1,77.5,8|0,0:0|0:2,0:0:0:0:
512,358,276996,2,2,P|490:324|400:324,1,116.25,2|0,1:2|0:0,0:1:0:0:
397,325,277233,1,8,0:2:0:0:
303,369,277351,6,2,B|273:366|247:359|247:359|229:369|212:380|212:380|180:372|155:371,1,155,2|0,1:2|0:0,0:1:0:0:
19,256,277705,2,0,P|69:272|120:233,1,116.25,10|0,0:2|0:0,0:0:0:0:
129,217,277941,2,0,P|123:178|111:138,1,77.5,0|0,0:0|1:2,0:0:0:0:
184,57,278178,1,10,0:1:0:0:
239,142,278296,1,0,0:2:0:0:
334,105,278414,6,2,P|373:121|417:131,1,77.5,2|0,1:1|0:0,0:1:0:0:
505,0,278650,2,0,P|467:9|431:24,1,77.5,10|0,0:1|0:1,0:0:0:0:
258,220,278886,6,0,P|244:180|238:130,1,81.3749975166322,2|0,0:1|1:1,0:0:0:0:
482,252,279122,2,0,P|475:292|462:330,1,81.3749975166322,10|0,0:1|0:1,0:0:0:0:
266,384,279359,6,0,P|228:370|181:360,1,85.2500026016236,2|0,1:1|0:1,0:0:0:0:
0,209,279595,6,0,P|43:217|81:197,1,89.1250016999245,10|0,0:1|0:1,0:0:0:0:
336,7,279831,6,0,P|324:44|311:99,1,92.9999971618653,2|0,1:1|1:1,0:0:0:0:
160,261,280067,6,2,B|199:279|228:250|220:245|252:217|298:235,1,145.3125,10|0,0:1|0:0,0:1:0:0:
365,306,280304,6,2,B|414:270|465:278|465:278|505:319|505:319|480:309|457:303,1,209.250000798225,6|8,1:1|0:2,0:1:0:0:
213,147,280658,6,2,B|187:100|170:54|170:54|200:29|241:21|241:21|228:62,1,209.250000798225,6|0,0:2|0:2,0:1:0:0:
0,330,281012,6,2,B|45:341|45:341|53:351|53:351|100:363,1,104.625000399113,14|0,0:2|0:0,0:1:0:0:
328,358,281248,5,8,3:3:0:0:
304,312,281327,1,8,3:3:0:0:
256,293,281406,1,8,3:3:0:0:
208,311,281485,1,4,3:3:0:0:
327,159,281721,5,8,0:2:0:0:
208,311,281839,2,0,B|261:334|299:294|280:284|315:249|375:272,1,178.250003399849,8|0,0:2|0:0,0:0:0:0:
443,327,282134,2,0,P|463:320|493:314,1,44.5625008499623
256,64,282636,6,0,L|264:22,2,38.7500014781952,2|0|2,0:2|0:2|0:1,0:0:0:0:
256,192,282908,12,0,289916,0:2:0:0:
