osu file format v14

[General]
AudioFilename: audio.mp3
AudioLeadIn: 0
PreviewTime: 146135
Countdown: 0
SampleSet: Soft
StackLeniency: 0.7
Mode: 0
LetterboxInBreaks: 0
WidescreenStoryboard: 0

[Editor]
DistanceSpacing: 1.1
BeatDivisor: 12
GridSize: 16
TimelineZoom: 1.7

[Metadata]
Title:Unreal Color
TitleUnicode:Unreal Color
Artist:Nakae Mitsuki
ArtistUnicode:中恵光城
Creator:GodHacc
Version:Reflection
Source:ソーサリージョーカーズ
Tags:op opening まもも colour video game vn visual novel eroge 3rdeye sorcery jokers mamomo pop jpop j-pop japanese subahibi koldnoodl cjstmdals yuuki noa snowy wind lunalied wen godhack
BeatmapID:4466537
BeatmapSetID:2125035

[Difficulty]
HPDrainRate:5
CircleSize:4.3
OverallDifficulty:9.3
ApproachRate:9.3
SliderMultiplier:1.74
SliderTickRate:1

[Events]
//Background and Video events
0,0,"happyge.jpg",0,0
//Break Periods
2,213635,221092
//Storyboard Layer 0 (Background)
//Storyboard Layer 1 (Fail)
//Storyboard Layer 2 (Pass)
//Storyboard Layer 3 (Foreground)
//Storyboard Layer 4 (Overlay)
//Storyboard Sound Samples

[TimingPoints]
19318,340.909090909091,4,2,1,68,1,0
26136,-100,4,2,1,56,0,0
26306,-111.111111111111,4,2,1,56,0,0
28863,-100,4,2,1,68,0,0
31590,-100,4,2,1,64,0,0
41220,-100,4,2,1,5,0,0
41306,-100,4,2,1,64,0,0
42244,-100,4,2,1,68,0,0
42329,-100,4,2,1,64,0,0
42499,-111.111111111111,4,2,1,56,0,0
42669,-111.111111111111,4,2,1,68,0,0
42840,-111.111111111111,4,2,1,56,0,0
43948,-111.111111111111,4,2,1,68,0,0
44033,-111.111111111111,4,2,1,56,0,0
47613,-111.111111111111,4,2,3,56,0,0
48295,340.909090909091,4,2,1,56,1,0
48295,-111.111111111111,4,2,1,56,0,0
48976,-111.111111111111,4,2,1,56,0,0
53749,-111.111111111111,4,2,1,64,0,0
56135,-111.111111111111,4,2,3,64,0,0
56476,-111.111111111111,4,2,1,64,0,0
58863,-111.111111111111,4,2,3,64,0,0
59204,-111.111111111111,4,2,1,64,0,0
61590,-111.111111111111,4,2,3,64,0,0
61931,-111.111111111111,4,2,1,64,0,0
63976,-111.111111111111,4,2,1,68,0,0
64488,-111.111111111111,4,2,3,68,0,0
64658,-111.111111111111,4,2,2,56,0,0
64999,-111.111111111111,4,2,2,64,0,0
65340,-111.111111111111,4,2,2,56,0,0
66022,-142.857142857143,4,2,4,56,0,0
72498,-142.857142857143,4,2,3,56,0,0
72840,-100,4,2,1,68,0,0
76590,-83.3333333333333,4,2,1,68,0,0
76845,-83.3333333333333,4,2,1,5,0,0
76931,-83.3333333333333,4,2,1,72,0,0
77442,-83.3333333333333,4,2,1,68,0,0
77613,-83.3333333333333,4,2,1,72,0,0
78295,-83.3333333333333,4,2,1,80,0,0
86988,-83.3333333333333,4,2,1,82,0,0
87499,-83.3333333333333,4,2,1,84,0,0
89204,-83.3333333333333,4,2,1,80,0,0
99260,-83.3333333333333,4,2,1,72,0,0
100113,-83.3333333333333,4,2,1,64,0,0
100795,-83.3333333333333,4,2,1,66,0,0
101476,-83.3333333333333,4,2,1,68,0,0
102158,-83.3333333333333,4,2,1,72,0,0
102840,-83.3333333333333,4,2,1,76,0,0
103522,-83.3333333333333,4,2,1,80,0,0
104204,-83.3333333333333,4,2,1,84,0,0
105141,-83.3333333333333,4,2,1,5,0,0
105567,-125,4,2,1,52,0,0
109487,-125,4,2,1,84,0,0
109657,-125,4,2,1,52,0,0
110340,-125,4,2,1,60,0,0
111022,-111.111111111111,4,2,1,56,0,0
113408,-111.111111111111,4,2,3,56,0,0
113749,-111.111111111111,4,2,1,56,0,0
116135,-111.111111111111,4,2,3,56,0,0
116817,340.909090909091,4,2,1,56,1,0
116817,-111.111111111111,4,2,1,56,0,0
119203,-111.111111111111,4,2,3,56,0,0
119544,-111.111111111111,4,2,1,56,0,0
119714,-111.111111111111,4,2,1,56,0,0
122101,-111.111111111111,4,2,3,56,0,0
122271,-111.111111111111,4,2,1,64,0,0
124657,-111.111111111111,4,2,3,56,0,0
124998,-111.111111111111,4,2,1,56,0,0
126702,-111.111111111111,4,2,1,64,0,0
127385,-111.111111111111,4,2,3,56,0,0
127726,-111.111111111111,4,2,1,56,0,0
129771,-111.111111111111,4,2,1,64,0,0
130112,-111.111111111111,4,2,3,56,0,0
130453,-111.111111111111,4,2,1,56,0,0
131305,-111.111111111111,4,2,1,64,0,0
132498,-111.111111111111,4,2,1,68,0,0
133179,-111.111111111111,4,2,2,56,0,0
133521,-111.111111111111,4,2,2,64,0,0
133862,-111.111111111111,4,2,2,56,0,0
134544,-142.857142857143,4,2,4,56,0,0
141020,-142.857142857143,4,2,3,56,0,0
141362,-100,4,2,1,68,0,0
145112,-83.3333333333333,4,2,1,68,0,0
145453,-83.3333333333333,4,2,1,72,0,0
145964,-83.3333333333333,4,2,1,68,0,0
146135,-83.3333333333333,4,2,1,72,0,0
146817,-83.3333333333333,4,2,1,80,0,0
147070,-83.3333333333333,4,2,1,68,0,0
147157,-83.3333333333333,4,2,1,80,0,0
155510,-83.3333333333333,4,2,1,82,0,0
156021,-83.3333333333333,4,2,1,84,0,0
157726,-83.3333333333333,4,2,1,80,0,0
168635,-83.3333333333333,4,2,1,52,0,0
171362,-142.857142857143,4,2,1,52,0,0
188236,-142.857142857143,4,2,1,54,0,0
188747,-142.857142857143,4,2,1,56,0,0
190453,-111.111111111111,4,2,1,56,0,0
193010,-111.111111111111,4,2,1,68,0,0
193180,-90.9090909090909,4,2,1,68,0,0
195907,-100,4,2,1,60,0,0
198635,-100,4,2,1,68,0,0
201362,-100,4,2,1,60,0,0
206049,-100,4,2,1,68,0,0
206135,-100,4,2,1,60,0,0
209544,-100,4,2,1,64,0,0
210055,-100,4,2,1,68,0,0
210567,-100,4,2,1,72,0,0
212271,-100,4,2,1,64,0,0
221817,-111.111111111111,4,2,1,64,0,0
222157,-111.111111111111,4,2,1,65,0,0
222328,-111.111111111111,4,2,1,66,0,0
222498,-111.111111111111,4,2,1,67,0,0
222669,-111.111111111111,4,2,1,68,0,0
222839,-111.111111111111,4,2,1,70,0,0
223777,-111.111111111111,4,2,1,64,0,0
223862,-111.111111111111,4,2,1,70,0,0
224544,-111.111111111111,4,2,1,68,0,0
224885,-76.9230769230769,4,2,1,68,0,0
225737,-83.3333333333333,4,2,1,80,0,0
227868,-83.3333333333333,4,2,1,64,0,0
227953,-83.3333333333333,4,2,1,80,0,0
229913,-83.3333333333333,4,2,1,64,0,0
229998,-83.3333333333333,4,2,1,80,0,0
233237,-83.3333333333333,4,2,1,82,0,0
233748,-83.3333333333333,4,2,1,84,0,0
235453,-83.3333333333333,4,2,1,80,0,0
235706,-83.3333333333333,4,2,1,84,0,0
235793,-83.3333333333333,4,2,1,80,0,0
246362,-90.9090909090909,4,2,1,64,0,0
252072,-90.9090909090909,4,2,1,5,0,0
252157,-90.9090909090909,4,2,1,64,0,0
255907,-90.9090909090909,4,2,1,80,0,0
256078,-90.9090909090909,4,2,1,64,0,0
267498,-90.9090909090909,4,2,1,68,0,0
268180,-90.9090909090909,4,2,1,72,0,0
268862,-90.9090909090909,4,2,1,76,0,0
269544,-90.9090909090909,4,2,1,80,0,0
270226,-90.9090909090909,4,2,1,84,0,0
270481,-90.9090909090909,4,2,1,5,0,0

[Colours]
Combo1 : 66,103,189
Combo2 : 166,201,253
Combo3 : 183,111,255

[HitObjects]
368,84,20511,5,0,1:0:0:0:
362,99,20596,1,0,1:0:0:0:
354,113,20681,2,0,P|320:96|278:92,1,87,4|0,3:2|2:0,2:0:0:0:
399,207,21022,2,0,P|433:201|473:183,1,87,0|0,3:0|2:0,2:0:0:0:
345,295,21363,2,0,P|277:297|201:256,1,174,0|0,3:0|3:0,2:0:0:0:
281,65,22045,6,0,B|306:85|315:116|315:116|294:154|287:213,1,174,2|0,3:2|3:0,2:0:0:0:
91,306,22556,1,0,2:0:0:0:
91,306,22727,2,0,B|66:286|57:255|57:255|78:217|85:158,1,174,2|0,3:2|3:0,2:0:0:0:
213,127,23238,5,0,1:0:0:0:
213,127,23323,1,0,1:0:0:0:
213,127,23408,1,4,1:2:0:0:
213,127,23749,1,0,1:0:0:0:
343,332,23920,1,0,1:0:0:0:
157,239,24090,1,2,1:2:0:0:
364,157,24261,1,0,1:0:0:0:
157,239,24431,1,0,1:0:0:0:
430,300,24602,5,0,1:0:0:0:
430,300,24687,1,0,1:0:0:0:
430,300,24772,1,2,1:2:0:0:
228,145,24943,1,0,1:0:0:0:
432,78,25113,1,0,1:0:0:0:
177,250,25283,1,0,1:0:0:0:
450,323,25454,5,2,1:2:0:0:
306,76,25624,1,0,1:0:0:0:
459,351,25795,1,0,1:0:0:0:
512,25,25965,1,0,1:0:0:0:
297,222,26136,5,4,3:2:0:0:
430,300,26306,2,0,L|479:287,2,39.15,2|0|0,2:0|2:0|3:2,2:0:0:0:
297,222,26647,2,0,L|245:210,2,39.15,2|0|0,2:0|2:0|3:2,2:0:0:0:
382,140,26988,2,0,L|430:129,2,39.15,2|0|0,2:0|2:0|3:2,2:0:0:0:
313,79,27329,2,0,L|261:67,2,39.15,2|0|0,2:0|2:0|3:2,2:0:0:0:
366,12,27670,5,2,2:0:0:0:
264,155,27840,2,0,P|231:170|182:173,1,78.3000000000001,2|2,3:2|2:0,2:0:0:0:
132,29,28181,5,0,3:2:0:0:
77,14,28266,1,0,3:2:0:0:
26,40,28352,1,0,3:2:0:0:
0,89,28437,1,0,3:2:0:0:
5,145,28522,1,0,3:2:0:0:
29,190,28607,1,0,3:2:0:0:
62,222,28693,1,0,3:2:0:0:
73,250,28778,1,0,3:2:0:0:
58,270,28863,6,0,L|80:105,1,130.5,4|0,3:2|2:0,2:0:0:0:
94,107,29204,1,2,1:2:0:0:
249,250,29374,1,2,1:2:0:0:
94,107,29545,1,0,1:0:0:0:
2,322,29715,2,0,B|33:320|78:305|78:305|83:339|101:353,1,130.5,2|0,2:0|2:0,2:0:0:0:
122,372,30056,5,2,1:2:0:0:
122,372,30141,1,0,1:0:0:0:
122,372,30227,1,0,1:0:0:0:
317,162,30397,1,0,1:0:0:0:
317,162,30738,1,2,1:2:0:0:
220,237,30908,1,2,1:2:0:0:
431,191,31079,1,2,1:2:0:0:
223,324,31249,1,2,1:2:0:0:
454,174,31420,1,2,1:2:0:0:
215,68,31590,5,4,3:2:0:0:
316,327,31761,1,0,2:0:0:0:
215,68,31931,1,2,1:2:0:0:
45,238,32102,6,0,P|90:235|138:222,1,87,2|0,2:0|3:0,2:0:0:0:
424,88,32443,2,0,P|381:80|338:69,1,87,2|0,3:2|1:0,2:0:0:0:
223,325,32783,6,0,B|261:258|261:258|222:165,1,174,2|2,2:0|2:0,2:0:0:0:
85,37,33295,1,2,1:2:0:0:
223,168,33465,1,0,3:0:0:0:
33,267,33636,1,2,3:2:0:0:
223,168,33806,1,2,3:2:0:0:
0,121,33977,1,2,1:2:0:0:
49,376,34147,1,0,2:0:0:0:
210,334,34318,6,0,P|250:254|221:164,1,174,4|2,3:2|1:2,2:0:0:0:
265,4,34829,1,2,2:0:0:0:
103,144,34999,1,0,3:0:0:0:
323,307,35170,1,2,3:2:0:0:
250,94,35340,1,0,1:0:0:0:
32,265,35511,6,0,L|124:251,1,87,2|0,2:0|3:0,2:0:0:0:
271,115,35852,1,2,2:0:0:0:
253,384,36022,2,0,L|228:275,1,87,2|0,1:2|3:0,2:0:0:0:
184,41,36363,1,2,3:2:0:0:
400,178,36533,1,2,3:2:0:0:
184,41,36704,1,2,1:2:0:0:
336,284,36874,5,0,3:0:0:0:
336,284,36960,1,0,3:0:0:0:
336,284,37045,2,0,B|386:295|425:266|425:266|458:303|448:350,1,174,4|2,3:2|1:2,2:0:0:0:
216,189,37556,1,2,2:0:0:0:
408,67,37727,1,0,3:0:0:0:
216,189,37897,1,2,3:2:0:0:
450,259,38068,1,0,1:0:0:0:
267,47,38238,6,0,P|287:96|292:134,1,87,2|0,2:0|3:0,2:0:0:0:
424,41,38579,1,2,2:0:0:0:
169,0,38749,2,0,P|137:45|124:75,1,87,2|0,1:2|3:0,2:0:0:0:
193,269,39090,1,2,3:2:0:0:
0,140,39261,1,2,3:2:0:0:
193,269,39431,1,2,1:2:0:0:
36,384,39602,5,0,3:0:0:0:
36,384,39687,1,0,3:0:0:0:
36,384,39772,2,0,L|84:182,1,174,4|2,3:2|1:2,2:0:0:0:
137,21,40283,1,2,2:0:0:0:
250,209,40454,1,0,3:0:0:0:
0,140,40624,2,0,P|47:137|103:121,1,87,2|0,3:2|1:0,2:0:0:0:
303,0,40965,6,0,P|277:44|273:133,1,130.5,2|0,2:0|2:0,2:0:0:0:
288,142,41306,1,2,2:0:0:0:
140,215,41477,1,2,1:2:0:0:
444,127,41647,1,2,2:0:0:0:
271,376,41818,5,4,3:2:0:0:
182,125,41988,1,2,1:2:0:0:
361,270,42158,5,4,3:2:0:0:
361,270,42244,1,0,3:0:0:0:
361,270,42329,1,0,1:0:0:0:
361,270,42414,1,0,1:0:0:0:
361,270,42499,2,0,P|369:219|377:161,1,78.3000000000001,4|0,3:2|2:0,2:0:0:0:
215,299,42840,2,0,P|209:346|202:385,1,78.3000000000001,2|0,3:2|2:0,2:0:0:0:
178,162,43181,5,2,3:2:0:0:
101,212,43352,2,0,P|62:230|11:228,1,78.3000000000001,2|0,2:0|3:2,2:0:0:0:
229,323,43693,2,0,L|255:181,1,117.45,2|0,2:0|2:0,2:0:0:0:
279,178,44033,2,0,L|259:90,1,78.3000000000001,2|0,2:0|3:2,2:0:0:0:
82,0,44374,2,0,P|31:62|39:147,1,156.6,2|2,2:0|2:0,2:0:0:0:
215,299,44886,5,2,3:2:0:0:
240,281,44971,1,2,2:0:0:0:
241,249,45056,1,2,2:0:0:0:
217,227,45141,1,2,2:0:0:0:
185,229,45227,2,0,L|166:313,1,78.3000000000001,2|0,3:2|2:0,2:0:0:0:
47,384,45568,5,2,3:2:0:0:
0,230,45738,1,2,2:0:0:0:
167,305,45908,1,2,3:2:0:0:
121,136,46079,2,0,P|106:173|100:211,1,78.3000000000001,2|0,2:0|3:2,2:0:0:0:
390,299,46420,6,0,P|348:366|267:352,1,156.6,2|0,2:0|2:0,2:0:0:0:
177,222,46931,1,2,3:2:0:0:
305,279,47102,1,2,2:0:0:0:
177,222,47272,1,2,3:2:0:0:
317,131,47443,1,2,2:0:0:0:
186,26,47613,5,2,3:2:0:0:
203,51,47698,1,2,2:0:0:0:
211,80,47783,1,2,2:0:0:0:
211,111,47869,1,2,2:0:0:0:
202,141,47954,2,0,L|137:156,3,39.15,2|2|2|2,3:2|2:0|2:0|2:0,2:0:0:0:
352,60,48295,6,0,P|353:122|398:212,1,156.6,2|2,3:2|3:2,2:0:0:0:
324,358,48806,1,2,2:0:0:0:
169,252,48976,2,0,L|258:232,1,78.2999976104737,2|0,3:2|3:0,2:0:0:0:
245,234,49232,1,0,3:0:0:0:
245,234,49317,1,0,3:2:0:0:
216,87,49488,6,0,P|148:89|70:151,1,156.599995220947,2|2,2:0|2:0,2:0:0:0:
306,38,49999,2,0,P|321:86|328:122,1,78.2999976104737,2|0,3:2|2:0,2:0:0:0:
111,10,50340,1,0,3:2:0:0:
167,170,50510,5,2,2:0:0:0:
220,0,50681,1,2,3:2:0:0:
36,77,50851,1,2,2:0:0:0:
154,201,51022,5,2,3:2:0:0:
296,72,51192,1,0,2:0:0:0:
154,201,51363,1,0,3:2:0:0:
111,10,51533,1,0,3:2:0:0:
278,236,51704,5,0,3:2:0:0:
71,155,51874,1,2,3:2:0:0:
278,236,52045,1,2,3:2:0:0:
68,310,52215,1,2,3:2:0:0:
305,381,52385,5,2,3:2:0:0:
235,129,52556,1,2,3:2:0:0:
305,381,52726,1,2,3:2:0:0:
493,199,52897,1,2,2:0:0:0:
358,117,53067,5,2,2:0:0:0:
358,117,53152,1,2,2:0:0:0:
358,117,53238,1,2,2:0:0:0:
358,117,53323,1,2,2:0:0:0:
358,117,53408,5,2,2:0:0:0:
404,139,53493,1,2,2:0:0:0:
454,135,53579,1,2,2:0:0:0:
491,100,53664,1,2,2:0:0:0:
504,51,53749,6,0,L|332:21,1,156.6,4|2,3:2|3:2,2:0:0:0:
201,232,54260,1,2,2:0:0:0:
282,58,54431,1,2,3:2:0:0:
454,135,54601,1,2,2:0:0:0:
244,160,54772,1,2,3:2:0:0:
454,135,54942,6,0,P|466:170|471:210,1,78.3000000000001,2|0,2:0|3:2,2:0:0:0:
321,300,55283,2,0,P|309:265|304:225,1,78.3000000000001,2|0,2:0|3:2,2:0:0:0:
155,35,55624,1,2,2:0:0:0:
346,122,55795,1,0,3:2:0:0:
155,35,55965,1,2,2:0:0:0:
77,116,56135,5,2,3:2:0:0:
68,146,56221,1,2,2:0:0:0:
58,175,56306,1,2,2:0:0:0:
49,205,56391,1,2,2:0:0:0:
41,235,56476,6,0,P|115:256|196:291,1,156.6,2|0,3:2|3:2,2:0:0:0:
262,366,56988,1,0,2:0:0:0:
378,254,57158,2,0,P|387:203|402:167,1,78.3000000000001,2|0,3:2|3:0,2:0:0:0:
396,178,57414,1,0,3:0:0:0:
396,178,57499,1,0,3:2:0:0:
294,102,57670,1,0,3:0:0:0:
456,0,57840,6,0,P|501:54|475:134,1,156.6,2|0,3:2|3:2,2:0:0:0:
325,227,58351,1,0,2:0:0:0:
466,336,58522,1,2,3:2:0:0:
396,101,58692,1,0,2:0:0:0:
245,180,58863,5,2,3:2:0:0:
215,191,58948,1,2,2:0:0:0:
185,199,59033,1,2,2:0:0:0:
155,211,59118,1,2,2:0:0:0:
125,221,59204,6,0,B|114:192|87:167|87:167|105:123|82:63,1,156.6,2|2,3:2|3:2,2:0:0:0:
245,180,59715,2,0,P|240:229|226:263,1,78.3000000000001,2|0,2:0|3:2,2:0:0:0:
68,383,60056,1,2,2:0:0:0:
28,204,60226,1,0,3:2:0:0:
264,317,60397,6,0,B|219:310|186:291|186:291|157:324|156:363,1,156.6,2|2,2:0|2:0,2:0:0:0:
356,292,60908,1,2,3:2:0:0:
212,168,61079,1,0,2:0:0:0:
356,292,61249,2,0,P|356:345|345:377,1,78.3000000000001,2|0,3:2|2:0,2:0:0:0:
312,181,61590,5,2,3:2:0:0:
317,150,61675,1,2,2:0:0:0:
326,118,61760,1,2,2:0:0:0:
333,88,61846,1,2,2:0:0:0:
343,57,61931,6,0,P|266:28|177:20,1,156.6,2|2,3:2|3:2,2:0:0:0:
312,181,62442,2,0,P|365:181|397:170,1,78.3000000000001,2|0,3:2|3:2,2:0:0:0:
512,16,62783,2,0,P|459:16|427:27,1,78.3000000000001,2|0,3:2|3:2,2:0:0:0:
333,88,63124,1,2,3:2:0:0:
476,248,63295,6,0,P|481:179|507:80,1,156.6,2|2,3:2|3:2,2:0:0:0:
391,0,63806,1,0,3:0:0:0:
391,0,63891,1,0,3:0:0:0:
391,0,63976,1,4,2:0:0:0:
248,127,64147,1,0,2:0:0:0:
492,75,64317,1,2,3:2:0:0:
388,173,64488,5,2,2:0:0:0:
388,173,64573,1,2,2:0:0:0:
388,173,64658,1,2,2:0:0:0:
272,98,64999,1,0,2:0:0:0:
215,204,65340,1,0,2:0:0:0:
294,263,65681,1,0,2:0:0:0:
125,369,66022,6,0,P|30:325|78:208,1,243.6,2|0,2:0|2:0,2:0:0:0:
150,126,67045,1,0,2:0:0:0:
245,338,67385,6,0,P|305:319|386:315,1,121.8,2|0,2:0|2:0,2:0:0:0:
439,375,67897,2,0,P|463:331|447:239,1,121.8,0|0,2:0|2:0,2:0:0:0:
505,116,68579,1,0,2:0:0:0:
445,176,68749,6,0,P|390:182|330:153,1,121.8,2|0,2:0|2:0,2:0:0:0:
247,92,69260,2,0,P|221:144|218:228,1,121.8,0|0,2:0|2:0,2:0:0:0:
28,13,69942,1,0,2:0:0:0:
98,70,70113,6,0,B|145:71|190:54|190:54|244:80|244:80|290:66|336:65,1,243.6,2|0,2:0|2:0,2:0:0:0:
487,0,71135,1,0,2:0:0:0:
509,177,71476,6,0,P|486:247|484:372,2,182.7,2|2|2,2:0|2:0|2:0,2:0:0:0:
275,40,72840,6,0,P|284:88|289:134,1,87,2|0,3:2|3:2,2:0:0:0:
288,125,73096,1,0,3:0:0:0:
288,125,73181,1,0,1:0:0:0:
189,258,73351,1,0,3:0:0:0:
375,210,73522,2,0,L|463:225,1,87,0|0,3:2|3:2,2:0:0:0:
194,152,73863,1,2,1:2:0:0:
385,46,74033,5,0,3:2:0:0:
385,46,74118,1,0,3:0:0:0:
385,46,74204,2,0,P|316:57|224:-7,1,174,2|0,3:2|1:0,2:0:0:0:
31,10,74715,1,2,2:0:0:0:
194,152,74885,1,0,3:2:0:0:
31,10,75056,1,0,3:2:0:0:
41,238,75226,2,0,P|58:182|73:143,1,87,2|0,1:2|2:0,2:0:0:0:
67,155,75482,5,0,3:0:0:0:
67,155,75567,1,2,3:2:0:0:
252,46,75738,1,0,3:2:0:0:
189,258,75908,1,0,1:2:0:0:
124,28,76079,5,2,2:0:0:0:
369,152,76249,1,0,3:2:0:0:
131,0,76420,1,0,3:2:0:0:
119,356,76590,2,0,L|159:186,1,156.6,2|0,1:2|2:0,2:0:0:0:
142,170,76931,5,2,3:2:0:0:
439,338,77101,1,2,3:2:0:0:
439,338,77442,1,0,1:2:0:0:
289,375,77613,5,0,1:2:0:0:
265,363,77698,1,0,1:2:0:0:
250,341,77783,1,0,1:2:0:0:
247,314,77868,1,0,1:2:0:0:
259,291,77954,1,0,1:2:0:0:
289,248,78039,1,0,1:2:0:0:
336,225,78124,1,0,1:2:0:0:
352,174,78209,1,0,1:2:0:0:
322,131,78295,6,0,P|213:149|102:162,1,208.8,4|0,3:2|1:2,2:0:0:0:
3,320,78806,2,0,P|50:357|109:369,1,104.4,0|0,2:0|3:2,2:0:0:0:
264,178,79147,1,2,3:2:0:0:
264,178,79232,1,0,3:0:0:0:
264,178,79317,1,2,1:2:0:0:
79,27,79488,6,0,B|58:65|23:84|23:84|61:122|53:217,1,208.8,2|0,3:2|3:2,2:0:0:0:
349,124,79999,2,0,P|408:151|461:151,1,104.4,0|0,1:2|2:0,2:0:0:0:
159,225,80340,1,2,3:2:0:0:
333,41,80510,1,2,3:2:0:0:
323,377,80681,6,0,P|297:272|263:175,1,208.8,2|0,1:2|3:2,2:0:0:0:
79,27,81192,1,0,2:0:0:0:
159,227,81363,1,0,1:2:0:0:
79,27,81533,1,2,2:0:0:0:
270,82,81704,1,2,3:2:0:0:
12,203,81874,1,2,3:2:0:0:
249,384,82045,6,0,P|214:285|189:184,1,208.8,2|0,1:2|2:0,2:0:0:0:
402,0,82556,1,0,3:2:0:0:
287,246,82726,1,2,1:2:0:0:
512,130,82897,2,0,B|447:162|392:147|392:147|362:101|317:94,1,208.8,2|2,2:0|3:2,2:0:0:0:
71,0,83408,1,2,1:2:0:0:
189,184,83579,5,2,3:2:0:0:
189,184,83664,1,0,3:0:0:0:
189,184,83749,1,4,3:2:0:0:
287,73,83920,1,0,2:0:0:0:
72,205,84090,1,0,1:2:0:0:
170,0,84260,1,0,2:0:0:0:
346,146,84431,2,0,P|344:202|313:278,1,104.4,0|0,3:2|3:2,2:0:0:0:
112,360,84772,5,2,1:2:0:0:
44,99,84942,1,2,3:2:0:0:
112,360,85113,1,2,2:0:0:0:
263,150,85283,1,2,3:2:0:0:
6,283,85454,1,0,1:2:0:0:
181,61,85624,5,2,3:2:0:0:
170,85,85709,1,0,1:2:0:0:
164,111,85795,1,0,3:2:0:0:
292,283,85965,1,2,3:2:0:0:
48,127,86135,1,2,1:2:0:0:
292,283,86306,1,2,2:0:0:0:
365,0,86476,5,2,3:2:0:0:
165,349,86647,1,0,1:2:0:0:
165,349,86732,1,0,1:2:0:0:
165,349,86817,1,0,1:2:0:0:
384,25,86988,1,2,3:2:0:0:
63,265,87158,1,0,1:2:0:0:
63,265,87243,1,0,1:2:0:0:
63,265,87329,1,0,1:2:0:0:
395,60,87499,1,2,3:2:0:0:
143,0,87670,5,0,1:2:0:0:
165,12,87755,1,0,1:2:0:0:
182,30,87840,1,0,1:2:0:0:
188,55,87925,1,0,1:2:0:0:
182,80,88010,1,0,1:2:0:0:
155,109,88096,1,0,1:2:0:0:
120,127,88181,1,0,1:2:0:0:
101,161,88266,1,0,1:2:0:0:
97,199,88351,1,0,1:2:0:0:
113,234,88437,1,0,1:2:0:0:
143,257,88522,5,0,1:2:0:0:
199,266,88607,1,0,1:2:0:0:
250,239,88692,1,0,1:2:0:0:
295,202,88777,1,0,1:2:0:0:
311,147,88863,1,0,1:2:0:0:
359,116,88948,1,0,1:2:0:0:
416,118,89033,1,0,1:2:0:0:
463,151,89118,1,0,1:2:0:0:
486,203,89204,6,0,P|466:87|435:1,1,208.8,4|0,3:2|1:2,2:0:0:0:
311,147,89715,2,0,P|298:206|275:254,1,104.4,0|0,2:0|3:2,2:0:0:0:
155,140,90056,1,2,3:2:0:0:
155,140,90141,1,0,3:0:0:0:
155,140,90226,1,2,1:2:0:0:
346,53,90397,6,0,P|308:7|156:20,1,208.8,2|0,3:2|3:2,2:0:0:0:
38,209,90908,2,0,P|58:282|56:330,1,104.4,0|0,1:2|2:0,2:0:0:0:
244,162,91249,1,2,3:2:0:0:
21,53,91420,1,2,3:2:0:0:
146,285,91590,6,0,B|197:300|241:268|241:268|285:313|274:377,1,208.8,2|0,1:2|3:2,2:0:0:0:
15,188,92101,1,0,2:0:0:0:
169,8,92272,2,0,P|171:70|182:113,1,104.4,0|0,1:2|2:0,2:0:0:0:
429,10,92613,1,2,3:2:0:0:
237,180,92783,1,2,3:2:0:0:
510,96,92954,6,0,P|411:62|301:36,1,208.8,2|0,1:2|2:0,2:0:0:0:
102,0,93465,1,0,3:2:0:0:
102,0,93550,1,0,3:0:0:0:
102,0,93635,1,2,1:2:0:0:
211,207,93806,2,0,P|232:146|237:103,1,104.4,2|0,2:0|3:2,2:0:0:0:
5,191,94147,1,2,3:2:0:0:
166,59,94317,1,2,1:2:0:0:
5,191,94488,1,2,2:0:0:0:
201,356,94658,6,0,P|301:353|377:281,1,208.8,4|0,3:2|1:2,2:0:0:0:
467,99,95170,1,0,2:0:0:0:
279,248,95340,2,0,P|251:191|248:150,1,104.4,0|0,3:2|3:2,2:0:0:0:
477,75,95681,2,0,P|505:132|508:173,1,104.4,0|2,1:2|3:2,2:0:0:0:
395,326,96022,5,2,2:0:0:0:
307,91,96192,1,2,3:2:0:0:
395,326,96363,1,0,1:2:0:0:
508,172,96533,5,2,3:2:0:0:
497,201,96618,1,0,1:2:0:0:
485,226,96704,1,0,3:2:0:0:
279,248,96874,5,2,3:2:0:0:
452,20,97045,1,2,1:2:0:0:
373,233,97215,1,2,2:0:0:0:
263,17,97385,5,2,3:2:0:0:
499,94,97556,2,0,P|444:105|360:109,1,104.4,2|0,2:0|1:2,2:0:0:0:
147,3,97897,2,0,P|159:62|180:109,1,104.4,2|0,2:0|3:2,2:0:0:0:
227,337,98238,1,2,3:2:0:0:
312,82,98408,1,0,1:2:0:0:
0,140,98579,6,0,P|39:224|152:214,1,208.8,4|0,3:2|3:0,2:0:0:0:
312,82,99090,1,2,1:2:0:0:
207,20,99260,5,0,1:2:0:0:
191,40,99346,1,0,1:2:0:0:
181,64,99431,1,0,1:2:0:0:
178,91,99516,1,0,1:2:0:0:
190,115,99601,1,0,1:2:0:0:
222,155,99687,1,0,1:2:0:0:
265,183,99772,1,0,1:2:0:0:
285,231,99857,1,0,1:2:0:0:
282,282,99942,1,0,1:2:0:0:
248,322,100027,1,0,1:2:0:0:
199,344,100113,5,0,1:2:0:0:
91,227,100283,1,0,1:2:0:0:
222,155,100454,1,0,1:2:0:0:
125,310,100624,1,0,1:2:0:0:
56,123,100795,5,0,1:2:0:0:
205,243,100965,1,0,1:2:0:0:
21,332,101135,1,0,1:2:0:0:
136,156,101306,1,0,1:2:0:0:
284,384,101476,5,0,1:2:0:0:
91,227,101647,1,0,1:2:0:0:
317,139,101817,1,0,1:2:0:0:
136,312,101988,1,0,1:2:0:0:
415,373,102158,5,0,1:2:0:0:
205,243,102329,1,0,1:2:0:0:
446,104,102499,1,0,1:2:0:0:
271,304,102670,1,0,1:2:0:0:
198,40,102840,5,0,1:2:0:0:
416,225,103010,1,0,1:2:0:0:
136,312,103181,1,0,1:2:0:0:
302,69,103351,1,0,1:2:0:0:
28,212,103522,5,0,1:2:0:0:
324,83,103692,1,0,1:2:0:0:
120,334,103863,1,0,1:2:0:0:
468,384,104033,1,0,1:2:0:0:
233,115,104204,5,0,1:2:0:0:
512,302,104374,1,0,1:2:0:0:
139,179,104545,1,0,1:2:0:0:
474,0,104715,1,0,1:2:0:0:
366,384,104885,6,0,L|325:338,1,52.2,2|0,1:2|1:2,2:0:0:0:
46,0,105056,2,0,P|43:29|68:13,1,52.2,2|0,1:2|2:0,2:0:0:0:
95,288,105567,6,0,P|63:295|14:297,2,69.6,2|0|0,2:0|2:0|2:0,2:0:0:0:
178,234,106079,2,0,P|211:241|259:243,2,69.6,2|0|0,2:0|2:0|2:0,2:0:0:0:
115,159,106590,2,0,P|83:166|34:168,2,69.6,2|0|0,2:0|2:0|2:0,2:0:0:0:
187,91,107101,2,0,P|222:88|256:81,2,69.6,2|0|0,2:0|2:0|2:0,2:0:0:0:
115,159,107613,5,2,2:0:0:0:
57,0,107954,1,2,2:0:0:0:
220,158,108295,6,0,P|200:202|168:236,2,69.6,2|0|0,2:0|2:0|2:0,2:0:0:0:
317,141,108806,2,0,P|322:189|311:234,2,69.6,2|0|0,2:0|2:0|2:0,2:0:0:0:
393,79,109317,2,0,P|422:118|435:163,2,69.6,2|0|0,2:0|2:0|2:0,2:0:0:0:
453,0,109829,2,0,P|497:19|530:52,2,69.6,2|0|0,2:0|2:0|2:0,2:0:0:0:
307,46,110340,1,2,2:0:0:0:
2,279,111022,6,0,L|91:265,1,78.3000000000001,4|2,3:2|2:0,2:0:0:0:
209,203,111363,2,0,P|262:212|292:313,1,156.6,2|0,3:2|3:2,2:0:0:0:
112,286,111874,1,2,3:2:0:0:
112,286,111959,1,0,3:0:0:0:
112,286,112045,1,0,3:2:0:0:
181,130,112215,2,0,P|194:83|198:36,1,78.3000000000001,2|0,2:0|3:2,2:0:0:0:
20,145,112556,2,0,P|25:183|36:221,1,78.3000000000001,2|2,2:0|3:2,2:0:0:0:
131,360,112897,2,0,P|205:358|273:312,1,156.6,2|2,2:0|2:0,2:0:0:0:
436,210,113408,5,2,3:2:0:0:
406,199,113493,1,2,2:0:0:0:
376,191,113579,1,2,2:0:0:0:
346,179,113664,1,2,2:0:0:0:
316,169,113749,5,2,3:2:0:0:
362,320,113920,1,2,2:0:0:0:
199,275,114090,2,0,P|184:224|183:180,1,78.3000000000001,2|0,3:2|2:0,2:0:0:0:
305,70,114431,1,0,3:2:0:0:
127,120,114601,2,0,P|86:115|38:106,1,78.3000000000001,2|0,2:0|3:2,2:0:0:0:
204,0,114942,6,0,P|203:71|249:153,1,156.6,2|2,2:0|2:0,2:0:0:0:
89,237,115454,1,2,3:2:0:0:
268,319,115624,1,0,2:0:0:0:
89,237,115795,1,2,3:2:0:0:
241,145,115965,1,2,2:0:0:0:
136,321,116135,5,2,3:2:0:0:
113,339,116221,1,2,2:0:0:0:
87,353,116306,1,2,2:0:0:0:
58,359,116391,1,2,2:0:0:0:
28,356,116476,2,0,L|13:291,3,39.15,2|2|2|2,3:2|2:0|2:0|2:0,2:0:0:0:
176,240,116817,5,2,3:2:0:0:
225,384,116987,1,2,2:0:0:0:
359,313,117157,2,0,P|394:279|403:246,1,78.2999976104737,2|0,3:2|2:0,2:0:0:0:
241,145,117498,2,0,P|275:180|308:189,1,78.2999976104737,0|2,3:2|2:0,2:0:0:0:
404,107,117839,1,0,3:2:0:0:
278,283,118010,6,0,P|199:263|105:250,1,156.599995220947,2|2,2:0|2:0,2:0:0:0:
217,384,118521,2,0,P|296:364|390:351,1,156.599995220947,2|2,3:2|3:2,2:0:0:0:
497,230,119032,1,2,2:0:0:0:
441,320,119203,5,2,3:2:0:0:
430,292,119288,1,2,2:0:0:0:
420,264,119373,1,2,2:0:0:0:
410,235,119459,1,2,2:0:0:0:
399,207,119544,5,2,3:2:0:0:
477,131,119714,2,0,P|424:109|379:106,1,78.3000000000001,2|0,2:0|3:2,2:0:0:0:
289,180,120055,1,2,3:2:0:0:
174,87,120226,2,0,P|227:65|272:62,1,78.3000000000001,2|0,3:2|3:2,2:0:0:0:
303,200,120567,1,2,3:2:0:0:
195,328,120737,2,0,P|156:320|121:303,1,78.3000000000001,2|0,3:2|3:2,2:0:0:0:
305,227,121078,1,2,3:2:0:0:
414,384,121248,2,0,P|453:376|488:359,1,78.3000000000001,2|0,3:2|2:0,2:0:0:0:
364,135,121589,5,4,2:0:0:0:
495,281,121760,1,0,2:0:0:0:
364,135,121930,1,0,3:2:0:0:
277,316,122101,5,2,2:0:0:0:
277,316,122186,1,2,2:0:0:0:
277,316,122271,2,0,B|239:338|197:339|197:339|164:313|119:303,1,156.6,4|2,3:2|3:2,2:0:0:0:
23,239,122782,1,2,2:0:0:0:
125,138,122953,2,0,P|146:190|143:223,1,78.3000000000001,2|2,3:2|2:0,2:0:0:0:
47,324,123294,1,2,3:2:0:0:
228,241,123464,6,0,P|269:230|328:226,1,78.3000000000001,2|0,2:0|3:2,2:0:0:0:
147,382,123805,2,0,P|136:341|132:282,1,78.3000000000001,2|0,2:0|3:2,2:0:0:0:
304,226,124146,2,0,P|315:267|319:326,1,78.3000000000001,2|0,2:0|3:2,2:0:0:0:
140,115,124487,1,2,2:0:0:0:
279,0,124657,5,2,3:2:0:0:
286,28,124743,1,2,2:0:0:0:
294,56,124828,1,2,2:0:0:0:
302,84,124913,1,2,2:0:0:0:
310,112,124998,6,0,P|380:89|472:79,1,156.6,2|0,3:2|3:2,2:0:0:0:
310,112,125510,1,0,2:0:0:0:
432,281,125680,2,0,P|467:223|467:184,1,78.3000000000001,2|0,3:2|3:2,2:0:0:0:
468,213,125936,1,0,3:0:0:0:
468,213,126021,1,0,3:2:0:0:
299,248,126192,1,0,2:0:0:0:
462,384,126362,6,0,P|427:325|340:314,1,156.6,2|0,3:2|3:2,2:0:0:0:
154,384,126873,1,0,3:0:0:0:
87,251,127044,1,2,3:2:0:0:
250,342,127214,1,0,2:0:0:0:
191,256,127385,5,2,3:2:0:0:
198,227,127470,1,2,2:0:0:0:
204,198,127555,1,2,2:0:0:0:
211,169,127640,1,2,2:0:0:0:
217,140,127726,6,0,P|295:148|391:174,1,156.6,2|2,3:2|3:2,2:0:0:0:
191,256,128237,2,0,P|144:251|95:240,1,78.3000000000001,2|0,2:0|3:2,2:0:0:0:
294,192,128578,1,2,2:0:0:0:
346,363,128748,1,0,3:2:0:0:
469,319,128919,6,0,B|501:274|505:218|505:218|472:168,1,156.6,2|2,2:0|2:0,2:0:0:0:
332,44,129430,1,2,3:2:0:0:
512,94,129601,1,0,2:0:0:0:
332,44,129771,2,0,P|288:55|229:61,1,78.3000000000001,2|0,3:2|2:0,2:0:0:0:
109,0,130112,5,2,3:2:0:0:
89,21,130197,1,2,2:0:0:0:
74,46,130282,1,2,2:0:0:0:
73,75,130368,1,2,2:0:0:0:
84,101,130453,6,0,B|145:93|145:93|178:104|178:104|237:95,1,156.6,2|2,3:2|3:2,2:0:0:0:
167,260,130964,2,0,P|137:210|135:181,1,78.3000000000001,2|0,3:2|3:2,2:0:0:0:
318,132,131305,2,0,P|348:182|350:211,1,78.3000000000001,2|0,3:2|3:2,2:0:0:0:
274,273,131646,1,2,3:2:0:0:
391,363,131817,6,0,P|458:372|495:287,1,156.6,2|2,3:2|3:2,2:0:0:0:
402,135,132328,1,0,3:0:0:0:
402,135,132413,1,0,3:0:0:0:
402,135,132498,2,0,P|393:178|422:296,2,156.6,4|2|2,2:0|3:2|2:0,2:0:0:0:
402,135,133521,5,0,2:0:0:0:
302,42,133862,1,0,2:0:0:0:
429,0,134203,1,0,2:0:0:0:
319,131,134544,6,0,B|261:141|221:209|221:209|160:218|94:171,1,243.6,2|0,2:0|2:0,2:0:0:0:
15,106,135567,1,0,2:0:0:0:
165,6,135907,6,0,P|186:52|180:143,1,121.8,2|0,2:0|2:0,2:0:0:0:
112,182,136419,2,0,P|159:220|222:215,1,121.8,0|0,2:0|2:0,2:0:0:0:
364,131,137101,1,0,2:0:0:0:
426,198,137271,6,0,P|445:240|431:319,1,121.8,2|0,2:0|2:0,2:0:0:0:
376,376,137782,2,0,P|316:357|242:349,1,121.8,2|0,2:0|2:0,2:0:0:0:
25,266,138464,1,0,2:0:0:0:
101,324,138635,6,0,B|105:277|128:234|128:234|108:177|108:177|128:133|134:88,1,243.6,2|0,2:0|2:0,2:0:0:0:
76,12,139657,1,0,2:0:0:0:
229,79,139998,6,0,P|316:79|388:20,2,182.7,2|2|2,2:0|2:0|2:0,2:0:0:0:
11,199,141362,6,0,P|63:247|99:251,1,87,2|0,3:2|3:2,2:0:0:0:
76,250,141618,1,0,3:0:0:0:
76,250,141703,1,0,1:0:0:0:
254,181,141873,1,0,2:0:0:0:
212,364,142044,2,0,P|191:312|187:271,1,87,0|0,3:2|3:2,2:0:0:0:
137,133,142385,1,2,1:2:0:0:
283,273,142555,5,2,3:2:0:0:
283,273,142640,1,0,3:0:0:0:
283,273,142726,2,0,B|337:293|391:279|391:279|410:250|443:235,1,174,2|0,3:2|1:0,2:0:0:0:
496,78,143237,1,0,2:0:0:0:
352,200,143407,1,2,3:2:0:0:
512,287,143578,1,0,3:2:0:0:
384,109,143748,2,0,L|297:119,1,87,2|0,1:2|3:0,2:0:0:0:
297,119,144004,5,0,3:0:0:0:
297,119,144089,1,2,3:2:0:0:
171,249,144260,1,2,2:0:0:0:
124,33,144430,1,0,1:2:0:0:
322,219,144601,5,2,2:0:0:0:
46,111,144771,1,0,3:2:0:0:
345,235,144942,1,2,3:2:0:0:
55,378,145112,2,0,L|95:208,1,156.6,2|0,1:2|2:0,2:0:0:0:
84,190,145453,5,2,3:2:0:0:
377,365,145623,1,2,3:2:0:0:
377,365,145964,1,0,1:2:0:0:
471,270,146135,5,0,1:2:0:0:
474,244,146220,1,0,1:2:0:0:
466,218,146305,1,0,1:2:0:0:
449,198,146390,1,0,1:2:0:0:
426,184,146476,1,0,1:2:0:0:
391,222,146561,1,0,1:2:0:0:
342,241,146646,1,0,1:2:0:0:
289,243,146731,1,0,1:2:0:0:
241,220,146817,6,0,P|278:107|266:11,1,208.8,4|0,3:2|1:2,2:0:0:0:
6,134,147328,2,0,P|17:198|44:236,1,104.4,0|0,2:0|3:2,2:0:0:0:
176,74,147669,1,2,3:2:0:0:
176,74,147754,1,0,3:0:0:0:
176,74,147839,1,2,1:2:0:0:
187,376,148010,6,0,B|161:340|124:326|124:326|153:274|133:202,1,208.8,2|0,3:2|3:2,2:0:0:0:
317,88,148521,2,0,P|372:118|436:113,1,104.4,0|0,1:2|2:0,2:0:0:0:
238,182,148862,1,2,3:2:0:0:
378,0,149032,1,2,3:2:0:0:
453,239,149203,6,0,P|417:317|306:314,1,208.8,2|0,1:2|3:2,2:0:0:0:
151,147,149714,1,0,2:0:0:0:
366,254,149885,1,0,1:2:0:0:
151,147,150055,1,2,2:0:0:0:
378,0,150226,1,2,3:2:0:0:
219,270,150396,1,2,3:2:0:0:
512,157,150567,6,0,B|468:151|430:134|430:134|380:146|380:146|343:127|302:120,1,208.8,2|0,1:2|2:0,2:0:0:0:
105,248,151078,1,0,3:2:0:0:
286,100,151248,1,2,1:2:0:0:
22,0,151419,6,0,B|3:78|63:115|63:115|70:79|121:61,1,208.8,2|2,2:0|3:2,2:0:0:0:
302,200,151930,1,2,1:2:0:0:
115,63,152101,1,2,2:0:0:0:
114,371,152271,6,0,P|129:275|194:157,1,208.8,4|0,3:2|1:2,2:0:0:0:
311,309,152782,1,0,2:0:0:0:
105,248,152953,2,0,P|101:195|83:145,1,104.4,0|0,3:2|3:2,2:0:0:0:
203,329,153294,1,2,1:2:0:0:
318,107,153464,1,2,3:2:0:0:
105,248,153635,1,2,2:0:0:0:
318,107,153805,1,2,3:2:0:0:
385,384,153976,1,0,1:2:0:0:
194,128,154146,5,2,3:2:0:0:
205,152,154231,1,0,1:2:0:0:
211,178,154317,1,0,3:2:0:0:
109,341,154487,1,2,3:2:0:0:
352,204,154657,1,2,1:2:0:0:
109,341,154828,1,2,2:0:0:0:
30,29,154998,5,2,3:2:0:0:
240,371,155169,1,0,1:2:0:0:
240,371,155254,1,0,1:2:0:0:
240,371,155339,1,0,1:2:0:0:
11,54,155510,1,2,3:2:0:0:
382,190,155680,1,0,1:2:0:0:
382,190,155765,1,0,1:2:0:0:
382,190,155851,1,0,1:2:0:0:
0,89,156021,1,2,3:2:0:0:
190,42,156192,5,0,1:2:0:0:
211,21,156277,1,0,1:2:0:0:
238,7,156362,1,0,1:2:0:0:
267,4,156447,1,0,1:2:0:0:
296,11,156532,1,0,1:2:0:0:
319,43,156618,1,0,1:2:0:0:
351,65,156703,1,0,1:2:0:0:
389,72,156788,1,0,1:2:0:0:
427,69,156873,1,0,1:2:0:0:
461,49,156959,1,0,1:2:0:0:
442,14,157044,5,0,1:2:0:0:
387,31,157129,1,0,1:2:0:0:
358,83,157214,1,0,1:2:0:0:
376,137,157299,1,0,1:2:0:0:
422,171,157385,1,0,1:2:0:0:
455,220,157470,1,0,1:2:0:0:
454,277,157555,1,0,1:2:0:0:
424,325,157640,1,0,1:2:0:0:
370,347,157726,6,0,L|293:132,1,208.8,4|0,3:2|1:2,2:0:0:0:
116,36,158237,2,0,P|109:98|86:149,1,104.4,0|0,2:0|3:2,2:0:0:0:
227,327,158578,1,2,3:2:0:0:
227,327,158663,1,0,3:0:0:0:
227,327,158748,1,2,1:2:0:0:
4,377,158919,6,0,P|20:303|155:278,1,208.8,2|0,3:2|3:2,2:0:0:0:
343,219,159430,2,0,P|323:171|321:112,1,104.4,0|0,1:2|2:0,2:0:0:0:
441,323,159771,1,2,3:2:0:0:
220,168,159942,1,2,3:2:0:0:
420,35,160112,6,0,P|488:101|473:219,1,208.8,2|0,1:2|3:2,2:0:0:0:
300,89,160623,1,0,2:0:0:0:
441,323,160794,2,0,L|337:307,1,104.4,0|0,1:2|2:0,2:0:0:0:
145,384,161135,1,2,3:2:0:0:
306,186,161305,1,2,3:2:0:0:
94,47,161476,6,0,B|114:119|85:171|85:171|122:185|148:221,1,208.8,2|0,1:2|3:2,2:0:0:0:
208,47,161987,1,0,3:2:0:0:
0,161,162157,1,2,1:2:0:0:
233,287,162328,2,0,P|336:298|407:220,1,208.8,2|2,2:0|3:2,2:0:0:0:
199,141,162839,1,2,1:2:0:0:
145,384,163010,1,2,2:0:0:0:
404,227,163180,6,0,B|405:173|362:139|362:139|395:85|459:79,1,208.8,4|0,3:2|1:2,2:0:0:0:
328,336,163692,1,0,2:0:0:0:
199,141,163862,2,0,P|163:74|161:33,1,104.4,0|0,3:2|3:2,2:0:0:0:
442,132,164203,2,0,P|432:183|404:227,1,104.4,0|2,1:2|3:2,2:0:0:0:
202,316,164544,1,2,2:0:0:0:
312,102,164714,1,2,3:2:0:0:
202,316,164885,1,0,1:2:0:0:
93,135,165055,5,2,3:2:0:0:
82,106,165140,1,0,1:2:0:0:
70,81,165226,1,0,3:2:0:0:
273,183,165396,2,0,P|373:203|444:124,1,208.8,2|2,3:2|2:0,2:0:0:0:
216,0,165907,5,2,3:2:0:0:
441,132,166078,1,2,2:0:0:0:
186,232,166248,1,0,1:2:0:0:
362,40,166419,2,0,L|472:12,1,104.4,2|0,2:0|3:2,2:0:0:0:
376,242,166760,1,2,3:2:0:0:
162,80,166930,1,0,1:2:0:0:
202,364,167101,6,0,P|264:294|265:163,1,208.8,4|0,3:2|2:0,2:0:0:0:
78,265,167612,1,2,1:2:0:0:
0,42,167782,5,0,1:2:0:0:
26,14,167868,1,0,1:2:0:0:
64,6,167953,1,0,1:2:0:0:
101,10,168038,1,0,1:2:0:0:
133,31,168123,1,0,1:2:0:0:
162,80,168209,1,0,1:2:0:0:
207,111,168294,1,0,1:2:0:0:
261,118,168379,1,0,1:2:0:0:
312,100,168464,1,0,1:2:0:0:
349,59,168549,1,0,1:2:0:0:
363,7,168635,5,2,3:2:0:0:
256,192,168720,12,0,170680,2:0:0:0:
0,207,171362,6,0,B|124:182|167:50|167:50|179:182|232:243,1,426.3,2|0,3:2|2:0,2:0:0:0:
344,380,172726,2,0,P|285:297|35:334,1,365.4,2|2,3:2|2:0,2:0:0:0:
35,20,174089,6,0,B|127:32|200:183|200:183|308:61|414:88,2,487.2,2|0|2,3:2|3:2|3:2,2:0:0:0:
35,20,176987,6,0,L|18:78,1,60.8999999999999,2|2,2:0|2:0,2:0:0:0:
104,129,177328,2,0,P|59:167|-2:169,1,121.8,2|2,2:0|2:0,2:0:0:0:
0,169,177839,1,2,2:0:0:0:
65,265,178010,2,0,L|201:244,1,121.8,2|2,2:0|3:2,2:0:0:0:
266,198,178521,2,0,P|280:236|279:266,1,60.8999999999999,2|2,2:0|2:0,2:0:0:0:
231,331,178862,1,2,2:0:0:0:
376,384,179203,1,2,2:0:0:0:
467,220,179544,6,0,P|479:177|475:155,2,60.8999999999999,2|2|2,3:2|2:0|2:0,2:0:0:0:
380,292,180226,2,0,L|352:174,1,121.8,2|2,2:0|2:0,2:0:0:0:
480,72,180907,6,0,B|423:61|373:29|373:29|301:46|301:46|250:18|192:11,1,304.5,2|0,3:2|2:0,2:0:0:0:
192,11,181930,1,2,2:0:0:0:
26,0,182271,6,0,P|22:136|102:216,2,243.6,2|2|2,3:2|2:0|3:2,2:0:0:0:
255,72,184317,2,0,L|127:96,1,121.8,2|2,2:0|2:0,2:0:0:0:
135,94,184828,1,2,2:0:0:0:
49,179,184998,6,0,L|118:192,1,60.8999999999999,2|2,3:2|2:0,2:0:0:0:
191,266,185339,2,0,L|122:279,1,60.8999999999999,2|0,2:0|2:0,2:0:0:0:
54,373,185680,2,0,P|20:338|19:256,1,121.8,2|2,2:0|2:0,2:0:0:0:
213,361,186362,6,0,L|286:372,1,60.8999999999999,2|0,3:2|3:2,2:0:0:0:
352,328,186703,2,0,P|376:298|369:211,2,121.8,2|2|2,2:0|2:0|2:0,2:0:0:0:
270,262,187726,5,2,3:2:0:0:
270,262,187896,2,0,P|244:224|236:129,1,121.8,2|2,2:0|2:0,2:0:0:0:
182,66,188407,2,0,P|233:102|296:98,1,121.8,2|2,2:0|2:0,2:0:0:0:
359,26,188919,2,0,P|341:78|363:155,1,121.8,2|2,2:0|3:2,2:0:0:0:
428,213,189430,1,2,2:0:0:0:
269,355,189771,5,2,2:0:0:0:
199,297,189942,2,0,P|139:299|83:330,1,121.8,2|0,2:0|1:2,2:0:0:0:
85,327,190368,5,0,1:2:0:0:
85,327,190453,2,0,P|76:249|38:180,1,156.599995220947,4|2,3:2|3:2,2:0:0:0:
98,66,190964,2,0,P|132:91|173:95,1,78.3000000000001,2|0,2:0|3:2,2:0:0:0:
283,155,191305,2,0,P|269:192|267:236,1,78.3000000000001,2|0,2:0|3:2,2:0:0:0:
193,384,191646,6,0,P|255:339|334:355,1,156.6,2|2,2:0|2:0,2:0:0:0:
456,384,192157,2,0,P|470:347|472:303,1,78.3000000000001,0|0,3:2|2:0,2:0:0:0:
355,197,192498,2,0,P|357:235|371:272,1,78.3000000000001,2|0,3:2|2:0,2:0:0:0:
496,175,192839,1,2,3:2:0:0:
397,54,193010,5,0,1:2:0:0:
397,54,193095,1,0,1:2:0:0:
397,54,193180,2,0,P|342:44|294:39,1,95.7,4|0,1:2|2:0,2:0:0:0:
154,180,193521,1,0,1:2:0:0:
79,11,193692,1,0,1:2:0:0:
256,121,193862,2,0,P|270:181|255:228,1,95.7,2|0,1:2|2:0,2:0:0:0:
125,325,194203,1,0,1:2:0:0:
38,144,194373,5,0,1:2:0:0:
38,144,194459,1,0,1:2:0:0:
38,144,194544,1,2,1:2:0:0:
175,204,194714,1,0,1:2:0:0:
37,298,194885,1,0,1:2:0:0:
161,95,195055,1,0,1:2:0:0:
224,334,195226,5,2,1:2:0:0:
72,59,195396,1,2,1:2:0:0:
335,254,195567,1,2,1:2:0:0:
0,221,195737,1,2,1:2:0:0:
276,19,195907,6,0,P|257:70|255:128,1,87,4|0,3:2|3:0,2:0:0:0:
253,102,196163,1,0,3:0:0:0:
253,102,196248,1,2,3:2:0:0:
435,87,196419,2,0,P|471:114|517:129,1,87,2|0,2:0|3:2,2:0:0:0:
335,254,196760,2,0,P|308:218|293:172,1,87,2|0,2:0|3:2,2:0:0:0:
493,221,197101,6,0,P|482:293|409:365,1,174,2|2,2:0|2:0,2:0:0:0:
233,293,197612,2,0,P|223:250|197:212,1,87,2|0,3:2|2:0,2:0:0:0:
182,74,197953,5,0,3:2:0:0:
135,61,198038,1,0,3:2:0:0:
88,71,198123,1,0,3:2:0:0:
51,101,198209,1,0,3:2:0:0:
55,126,198294,5,0,3:2:0:0:
71,146,198379,1,0,3:2:0:0:
96,152,198464,1,0,3:2:0:0:
120,142,198549,1,0,3:2:0:0:
132,118,198635,6,0,L|114:224,1,87,4|0,3:2|2:0,2:0:0:0:
80,384,198976,1,0,1:2:0:0:
237,175,199146,1,0,1:2:0:0:
30,274,199317,1,2,1:2:0:0:
252,381,199487,1,0,1:0:0:0:
0,266,199657,1,0,1:2:0:0:
327,220,199828,5,0,1:2:0:0:
327,220,199913,1,0,1:2:0:0:
327,220,199998,1,2,1:2:0:0:
190,272,200169,2,0,P|153:231|135:101,1,174,2|2,1:2|1:2,2:0:0:0:
354,8,200680,1,2,1:2:0:0:
223,179,200851,1,2,1:2:0:0:
374,28,201021,1,2,2:0:0:0:
413,301,201192,1,2,1:2:0:0:
204,93,201362,6,0,P|251:92|302:81,1,87,4|0,3:2|2:0,2:0:0:0:
190,272,201703,1,2,1:2:0:0:
44,195,201873,2,0,P|13:157|7:97,1,87,2|0,2:0|3:2,2:0:0:0:
205,296,202214,2,0,P|193:337|165:370,1,87,2|0,2:0|1:2,2:0:0:0:
114,62,202555,6,0,P|115:135|202:173,1,174,2|2,2:0|2:0,2:0:0:0:
377,118,203067,2,0,P|419:129|468:134,1,87,2|0,1:2|2:0,2:0:0:0:
321,266,203407,2,0,P|316:222|305:180,1,87,2|0,3:2|2:0,2:0:0:0:
503,89,203748,2,0,P|498:132|487:174,1,87,2|0,1:2|2:0,2:0:0:0:
373,380,204089,6,0,P|417:325|512:336,2,174,2|0|2,3:2|1:2|3:2,2:0:0:0:
512,207,204942,1,0,2:0:0:0:
349,80,205112,6,0,P|346:154|424:224,1,174,2|0,1:2|3:2,2:0:0:0:
235,368,205623,1,0,2:0:0:0:
160,175,205794,1,0,1:2:0:0:
257,260,205964,5,0,1:2:0:0:
257,260,206049,1,0,1:0:0:0:
257,260,206135,1,0,1:2:0:0:
66,318,206305,1,0,1:2:0:0:
231,90,206476,1,0,1:2:0:0:
69,344,206646,1,0,1:2:0:0:
10,46,206817,6,0,B|1:100|18:144|18:144|54:155|63:199,1,174,4|2,3:2|1:2,2:0:0:0:
240,345,207328,2,0,P|248:294|263:240,1,87,2|0,2:0|3:2,2:0:0:0:
231,90,207669,2,0,P|187:104|125:105,1,87,2|0,2:0|1:2,2:0:0:0:
401,199,208010,6,0,L|436:26,1,174,2|2,2:0|2:0,2:0:0:0:
228,179,208521,2,0,P|240:233|270:274,1,87,2|0,1:2|1:2,2:0:0:0:
256,259,208777,1,0,1:2:0:0:
256,259,208862,1,0,3:2:0:0:
401,199,209032,1,2,2:0:0:0:
363,384,209203,1,2,1:2:0:0:
308,127,209373,1,2,2:0:0:0:
500,291,209544,5,2,3:2:0:0:
245,358,209714,1,0,1:2:0:0:
245,358,209799,1,0,1:2:0:0:
245,358,209885,1,0,1:2:0:0:
512,116,210055,5,2,3:2:0:0:
324,301,210226,1,0,1:2:0:0:
324,301,210311,1,0,1:2:0:0:
324,301,210396,1,0,1:2:0:0:
443,0,210567,1,2,3:2:0:0:
411,262,210737,5,0,1:2:0:0:
451,237,210822,1,0,1:2:0:0:
453,189,210907,1,0,1:2:0:0:
422,152,210993,1,0,1:2:0:0:
373,145,211078,1,0,1:2:0:0:
331,169,211163,1,0,1:2:0:0:
320,215,211248,1,0,1:2:0:0:
292,254,211334,1,0,1:2:0:0:
257,286,211419,1,0,1:2:0:0:
208,289,211504,1,0,1:2:0:0:
169,262,211589,5,0,1:2:0:0:
189,204,211674,1,0,1:2:0:0:
244,177,211760,1,0,1:2:0:0:
303,187,211845,1,0,1:2:0:0:
329,241,211930,1,0,1:2:0:0:
383,267,212015,1,0,1:2:0:0:
444,263,212101,1,0,1:2:0:0:
492,226,212186,1,0,1:2:0:0:
509,167,212271,5,0,3:2:0:0:
124,43,221646,5,0,1:2:0:0:
124,43,221731,1,0,1:2:0:0:
124,43,221817,2,0,P|145:99|146:137,1,78.3000000000001,0|0,1:2|2:0,2:0:0:0:
200,237,222157,1,0,1:2:0:0:
65,166,222328,1,0,1:2:0:0:
248,46,222498,5,0,1:2:0:0:
115,286,222669,1,0,1:2:0:0:
410,133,222839,1,4,1:2:0:0:
217,218,223010,2,0,L|122:196,1,78.3000000000001,2|2,1:2|2:0,2:0:0:0:
198,346,223351,1,0,3:2:0:0:
288,121,223521,1,0,1:2:0:0:
115,286,223692,5,2,2:0:0:0:
115,286,223777,1,2,2:0:0:0:
115,286,223862,1,2,1:2:0:0:
311,333,224032,5,0,1:2:0:0:
353,348,224118,1,0,1:2:0:0:
400,349,224203,1,0,1:2:0:0:
444,334,224288,1,0,1:2:0:0:
480,304,224373,1,0,1:2:0:0:
504,264,224459,1,0,1:2:0:0:
512,218,224544,1,0,1:2:0:0:
512,218,224885,6,0,B|461:208|425:189|425:189|377:195|377:195|337:176|295:167,1,226.2,4|0,2:0|1:2,2:0:0:0:
89,252,225396,1,2,1:2:0:0:
257,49,225567,1,2,2:0:0:0:
251,384,225737,6,0,B|253:340|277:308|277:308|227:290|194:200,1,208.8,4|0,3:2|3:2,2:0:0:0:
1,62,226248,2,0,P|42:115|80:124,1,104.4,0|0,1:2|2:0,2:0:0:0:
339,0,226589,1,2,3:2:0:0:
198,212,226760,1,2,3:2:0:0:
512,111,226930,6,0,B|459:150|400:150|400:150|376:99|325:92,1,208.8,2|0,1:2|3:2,2:0:0:0:
157,7,227442,1,0,2:0:0:0:
315,174,227612,1,0,1:2:0:0:
75,123,227782,1,2,3:2:0:0:
75,123,227868,1,0,3:0:0:0:
75,123,227953,1,2,3:2:0:0:
339,0,228123,1,2,3:2:0:0:
180,191,228294,6,0,B|143:245|178:299|193:277|227:337|193:385,1,208.8,2|0,1:2|2:0,2:0:0:0:
315,174,228805,1,0,3:2:0:0:
80,334,228976,1,2,1:2:0:0:
404,384,229146,2,0,P|456:297|425:201,1,208.8,2|2,2:0|3:2,2:0:0:0:
220,297,229657,1,2,1:2:0:0:
139,69,229828,5,2,3:2:0:0:
139,69,229913,1,0,3:0:0:0:
139,69,229998,2,0,B|180:37|237:37|237:37|273:81|328:85,1,208.8,4|0,3:2|1:2,2:0:0:0:
180,191,230510,1,0,2:0:0:0:
410,32,230680,2,0,P|436:76|441:128,1,104.4,0|0,3:2|3:2,2:0:0:0:
316,314,231021,1,2,1:2:0:0:
512,195,231192,5,2,3:2:0:0:
261,97,231362,1,2,2:0:0:0:
512,195,231532,1,2,3:2:0:0:
214,287,231703,1,0,1:2:0:0:
380,104,231873,5,2,3:2:0:0:
391,75,231959,1,0,1:2:0:0:
403,50,232044,1,0,3:2:0:0:
449,317,232214,1,2,3:2:0:0:
261,97,232385,1,2,1:2:0:0:
449,317,232555,1,2,2:0:0:0:
482,4,232726,5,2,3:2:0:0:
290,352,232896,1,0,1:2:0:0:
290,352,232981,1,0,1:2:0:0:
290,352,233067,1,0,1:2:0:0:
501,29,233237,1,2,3:2:0:0:
152,191,233407,1,0,1:2:0:0:
152,191,233493,1,0,1:2:0:0:
152,191,233578,1,0,1:2:0:0:
512,64,233748,1,2,3:2:0:0:
343,14,233919,5,0,1:2:0:0:
322,35,234004,1,0,1:2:0:0:
295,49,234089,1,0,1:2:0:0:
266,52,234174,1,0,1:2:0:0:
237,45,234260,1,0,1:2:0:0:
206,20,234345,1,0,1:2:0:0:
170,3,234430,1,0,1:2:0:0:
130,3,234515,1,0,1:2:0:0:
96,10,234601,1,0,1:2:0:0:
63,31,234686,1,0,1:2:0:0:
45,66,234771,5,0,1:2:0:0:
102,66,234856,1,0,1:2:0:0:
151,94,234942,1,0,1:2:0:0:
171,147,235027,1,0,1:2:0:0:
153,201,235112,1,0,1:2:0:0:
107,236,235197,1,0,1:2:0:0:
50,242,235282,1,0,1:2:0:0:
2,209,235368,1,0,1:2:0:0:
1,151,235453,6,0,B|47:122|108:156|86:170|136:204|199:176,1,208.8,4|0,3:2|1:2,2:0:0:0:
364,284,235964,2,0,P|344:345|348:396,1,104.4,0|0,2:0|3:2,2:0:0:0:
454,168,236305,1,2,3:2:0:0:
454,168,236390,1,0,3:0:0:0:
454,168,236476,1,2,1:2:0:0:
239,283,236646,6,0,P|130:294|23:315,1,208.8,2|0,3:2|3:2,2:0:0:0:
323,192,237157,2,0,P|360:246|361:299,1,104.4,0|0,1:2|2:0,2:0:0:0:
153,384,237498,1,2,3:2:0:0:
74,152,237669,1,2,3:2:0:0:
331,375,237839,6,0,B|405:369|444:324|444:324|470:354|512:366,1,208.8,2|0,1:2|3:2,2:0:0:0:
265,270,238351,1,0,2:0:0:0:
501,94,238521,2,0,P|498:142|471:194,1,104.4,0|0,1:2|2:0,2:0:0:0:
296,30,238862,1,2,3:2:0:0:
402,258,239032,1,2,3:2:0:0:
104,131,239203,6,0,B|152:184|236:195|236:195|302:155,1,208.8,2|0,1:2|2:0,2:0:0:0:
22,230,239714,1,0,3:2:0:0:
22,230,239799,1,0,3:0:0:0:
22,230,239885,1,2,1:2:0:0:
199,7,240055,2,0,P|219:54|218:106,1,104.4,2|0,2:0|3:2,2:0:0:0:
171,290,240396,1,2,3:2:0:0:
368,103,240567,1,2,1:2:0:0:
171,290,240737,1,2,2:0:0:0:
65,24,240907,6,0,B|62:67|38:99|38:99|88:117|121:207,1,208.8,4|0,3:2|1:2,2:0:0:0:
228,384,241419,1,0,2:0:0:0:
354,194,241589,2,0,P|417:217|466:221,1,104.4,0|0,3:2|3:2,2:0:0:0:
171,290,241930,2,0,P|108:313|59:317,1,104.4,0|2,1:2|3:2,2:0:0:0:
331,354,242271,1,2,2:0:0:0:
217,106,242442,1,2,3:2:0:0:
331,354,242612,1,0,1:2:0:0:
106,214,242782,5,2,3:2:0:0:
77,203,242868,1,0,1:2:0:0:
52,191,242953,1,0,3:2:0:0:
271,270,243123,1,2,3:2:0:0:
104,117,243294,1,2,1:2:0:0:
327,27,243464,1,2,2:0:0:0:
206,189,243635,5,2,3:2:0:0:
479,10,243805,2,0,P|482:58|509:110,1,104.4,2|0,2:0|1:2,2:0:0:0:
428,325,244146,2,0,P|376:329|330:353,1,104.4,2|0,2:0|3:2,2:0:0:0:
104,117,244487,1,2,3:2:0:0:
365,200,244657,1,0,1:2:0:0:
154,367,244828,6,0,P|208:316|197:177,1,208.8,4|0,3:2|2:0,2:0:0:0:
63,6,245339,5,2,1:2:0:0:
112,29,245424,1,0,1:0:0:0:
129,80,245510,1,0,1:2:0:0:
103,128,245595,1,0,1:2:0:0:
52,148,245680,1,0,1:2:0:0:
0,131,245765,1,0,1:2:0:0:
29,84,245851,1,0,1:2:0:0:
82,77,245936,1,0,1:2:0:0:
131,101,246021,1,0,1:2:0:0:
159,147,246106,1,0,1:2:0:0:
202,181,246192,1,0,1:2:0:0:
256,184,246277,1,0,1:2:0:0:
299,149,246362,6,0,P|329:76|258:-4,2,191.4,4|0|0,3:2|1:2|3:2,2:0:0:0:
171,258,247214,1,0,3:0:0:0:
131,101,247385,5,2,1:2:0:0:
294,261,247555,2,0,P|272:303|267:350,1,95.7,2|0,2:0|3:2,2:0:0:0:
89,199,247896,1,0,3:0:0:0:
299,149,248067,2,0,P|346:154|388:175,1,95.7,0|0,1:2|2:0,2:0:0:0:
176,354,248407,6,0,P|133:375|86:380,1,95.7,2|0,3:2|3:0,2:0:0:0:
294,261,248748,2,0,P|341:267|383:288,1,95.7,2|0,1:2|2:0,2:0:0:0:
234,20,249089,6,0,P|195:70|203:199,1,191.4,2|2,3:2|1:2,2:0:0:0:
425,304,249601,2,0,P|454:267|466:221,1,95.7,2|0,2:0|3:2,2:0:0:0:
341,76,249942,1,2,3:2:0:0:
294,261,250112,1,0,1:2:0:0:
490,129,250282,6,0,P|517:71|422:4,1,191.4,2|2,3:2|3:2,2:0:0:0:
218,184,250794,1,2,1:2:0:0:
341,76,250964,1,2,2:0:0:0:
294,261,251135,1,2,3:2:0:0:
294,261,251220,1,0,3:0:0:0:
294,261,251305,1,2,3:2:0:0:
161,101,251476,5,2,1:2:0:0:
373,193,251646,1,2,2:0:0:0:
123,384,251817,6,0,P|149:344|155:229,1,143.55,0|0,3:2|2:0,2:0:0:0:
146,222,252157,2,0,P|103:248|46:255,1,95.7,0|0,1:2|2:0,2:0:0:0:
279,364,252498,1,2,3:2:0:0:
373,193,252669,1,2,3:2:0:0:
279,364,252839,1,0,1:2:0:0:
482,294,253010,6,0,P|382:278|275:256,1,191.4,2|2,3:2|3:2,2:0:0:0:
161,101,253521,2,0,L|261:87,1,95.7,2|0,1:2|3:2,2:0:0:0:
255,87,253777,1,0,1:2:0:0:
255,87,253862,1,0,3:2:0:0:
92,173,254032,1,0,3:2:0:0:
325,24,254203,2,0,P|351:77|346:125,1,95.7,2|0,1:2|2:0,2:0:0:0:
172,235,254544,5,2,3:2:0:0:
87,23,254714,1,2,2:0:0:0:
298,179,254885,1,2,1:2:0:0:
0,190,255055,2,0,P|47:190|94:173,1,95.7,2|0,2:0|3:2,2:0:0:0:
268,360,255396,1,2,3:2:0:0:
190,137,255567,1,2,1:2:0:0:
93,356,255737,6,0,L|-25:330,1,95.7,4|0,3:2|2:0,2:0:0:0:
202,112,256078,5,2,3:2:0:0:
15,205,256248,1,2,1:2:0:0:
279,284,256419,5,0,1:2:0:0:
324,294,256504,1,0,1:2:0:0:
360,262,256589,1,0,1:2:0:0:
364,213,256674,1,0,1:2:0:0:
334,174,256760,1,0,1:2:0:0:
288,161,256845,1,0,1:2:0:0:
247,186,256930,1,0,1:2:0:0:
200,194,257015,1,0,1:2:0:0:
154,178,257101,1,0,1:2:0:0:
123,141,257186,1,0,1:2:0:0:
117,93,257271,6,0,P|214:77|315:55,2,191.4,4|2|2,3:2|1:2|3:2,2:0:0:0:
56,294,258123,1,2,2:0:0:0:
247,186,258294,1,0,1:2:0:0:
194,384,258464,6,0,P|185:338|163:293,1,95.7,2|0,3:2|2:0,2:0:0:0:
25,102,258805,1,2,3:2:0:0:
247,186,258976,1,2,1:2:0:0:
4,211,259146,5,2,2:0:0:0:
4,211,259231,1,2,2:0:0:0:
4,211,259317,1,2,3:2:0:0:
253,286,259487,1,2,2:0:0:0:
4,211,259657,1,2,1:2:0:0:
253,286,259828,2,0,P|300:278|346:265,1,95.7,2|2,2:0|3:2,2:0:0:0:
414,93,260169,5,2,2:0:0:0:
247,186,260339,1,2,1:2:0:0:
468,283,260510,2,0,P|485:238|483:191,1,95.7,2|0,2:0|3:2,2:0:0:0:
302,31,260851,1,2,2:0:0:0:
388,191,261021,1,2,1:2:0:0:
512,0,261192,2,0,L|406:16,1,95.7,2|0,3:2|2:0,2:0:0:0:
247,186,261532,5,2,3:2:0:0:
175,3,261703,1,2,1:2:0:0:
324,118,261873,1,2,2:0:0:0:
129,229,262044,1,2,3:2:0:0:
228,92,262214,1,2,3:2:0:0:
228,92,262299,1,2,3:2:0:0:
228,92,262385,2,0,L|250:205,1,95.7,2|0,1:2|2:0,2:0:0:0:
79,342,262726,5,6,3:2:0:0:
15,141,262896,1,0,2:0:0:0:
79,342,263067,1,2,1:2:0:0:
287,272,263237,2,0,L|378:300,1,95.7,0|0,2:0|3:2,2:0:0:0:
142,130,263578,1,2,2:0:0:0:
378,205,263748,1,2,1:2:0:0:
228,379,263919,6,0,P|208:335|198:288,1,95.7,2|0,3:2|2:0,2:0:0:0:
261,90,264260,1,2,3:2:0:0:
106,250,264430,2,0,P|59:240|15:220,1,95.7,2|0,1:2|3:2,2:0:0:0:
15,220,264686,1,0,1:2:0:0:
15,220,264771,1,0,3:2:0:0:
93,26,264942,1,0,2:0:0:0:
209,204,265112,1,2,1:2:0:0:
0,84,265282,1,2,2:0:0:0:
288,0,265453,6,0,P|265:61|263:115,1,95.7,2|2,3:2|2:0,2:0:0:0:
378,300,265794,1,2,1:2:0:0:
512,137,265964,2,0,P|464:129|421:110,1,95.7,2|2,2:0|3:2,2:0:0:0:
209,204,266305,1,2,2:0:0:0:
467,378,266476,6,0,P|502:291|458:210,1,191.4,4|0,1:2|1:2,2:0:0:0:
261,90,266987,1,0,1:2:0:0:
329,186,267157,1,0,1:2:0:0:
421,110,267328,1,0,1:2:0:0:
209,204,267498,5,0,1:2:0:0:
351,330,267669,1,0,1:2:0:0:
421,110,267839,1,0,1:2:0:0:
255,298,268010,1,0,1:2:0:0:
508,384,268180,5,0,1:2:0:0:
227,286,268351,1,0,1:2:0:0:
421,110,268521,1,0,1:2:0:0:
138,243,268692,1,0,1:2:0:0:
449,296,268862,5,0,1:2:0:0:
250,59,269032,1,0,1:2:0:0:
512,193,269203,1,0,1:2:0:0:
227,286,269373,1,0,1:2:0:0:
415,0,269544,5,0,1:2:0:0:
78,175,269714,1,0,1:2:0:0:
437,20,269885,1,0,1:2:0:0:
252,383,270055,1,0,1:2:0:0:
14,4,270226,6,0,L|45:41,1,47.85,0|0,1:2|1:2,2:0:0:0:
486,373,270396,2,0,P|489:344|466:358,1,47.85,0|0,1:2|2:0,2:0:0:0:
