osu file format v14

[General]
AudioFilename: audio.mp3
AudioLeadIn: 0
PreviewTime: 66745
Countdown: 0
SampleSet: Soft
StackLeniency: 0.7
Mode: 0
LetterboxInBreaks: 0
WidescreenStoryboard: 1

[Editor]
Bookmarks: 14245,27396,40547,53697,63560,66848,79999,89862,91505,93149,106300,119451,132601,145752,155615,158903,172053,181916,185204,198355,211505,218081,224656,234519,236779
DistanceSpacing: 0.3
BeatDivisor: 4
GridSize: 32
TimelineZoom: 2.1

[Metadata]
Title:Saigo no Yume
TitleUnicode:最期の夢
Artist:Nakae Mitsuki
ArtistUnicode:中恵光城
Creator:Lasse
Version:Regret
Source:
Tags:Meis Clauson DastinIa The Root of Heads yuiko japanese pop rock
BeatmapID:2233041
BeatmapSetID:1066459

[Difficulty]
HPDrainRate:6
CircleSize:4.4
OverallDifficulty:7.8
ApproachRate:8.2
SliderMultiplier:3.59999990463257
SliderTickRate:1

[Events]
//Background and Video events
0,0,"oatmeal.jpg",0,0
//Break Periods
2,211710,217264
//Storyboard Layer 0 (Background)
//Storyboard Layer 1 (Fail)
//Storyboard Layer 2 (Pass)
//Storyboard Layer 3 (Foreground)
//Storyboard Layer 4 (Overlay)
//Storyboard Sound Samples

[TimingPoints]
1100,821.917808219178,4,2,35,30,1,0
1100,-250,4,2,35,30,0,0
1305,-250,4,2,35,5,0,0
2949,-250,4,2,35,20,0,0
3360,-250,4,2,35,18,0,0
3565,-250,4,2,35,22,0,0
3976,-250,4,2,35,25,0,0
4387,-250,4,2,35,30,0,0
5004,-250,4,2,35,20,0,0
6236,-250,4,2,35,22,0,0
6647,-250,4,2,35,16,0,0
6853,-200,4,2,35,26,0,0
7264,-200,4,2,35,22,0,0
7675,-250,4,2,35,30,0,0
7880,-250,4,2,35,5,0,0
9730,-250,4,2,35,18,0,0
10141,-250,4,2,35,20,0,0
10552,-250,4,2,35,18,0,0
10963,-222.222222222222,4,2,35,30,0,0
11373,-222.222222222222,4,2,35,20,0,0
11579,-200,4,2,35,30,0,0
11990,-200,4,2,35,20,0,0
12195,-250,4,2,35,22,0,0
12401,-250,4,2,35,5,0,0
13428,-250,4,2,35,24,0,0
14250,-200,4,2,35,32,0,0
17127,-200,4,2,35,28,0,0
17538,-200,4,2,35,32,0,0
20415,-200,4,2,35,28,0,0
20826,-200,4,2,35,34,0,0
22058,-200,4,2,35,28,0,0
22675,-200,4,2,35,34,0,0
23702,-200,4,2,35,28,0,0
24113,-181.818181818182,4,2,35,36,0,0
24524,-181.818181818182,4,2,35,30,0,0
24730,-166.666666666667,4,2,35,36,0,0
25346,-200,4,2,35,28,0,0
25963,-200,4,2,35,26,0,0
26373,-200,4,2,35,28,0,0
26990,-200,4,2,35,30,0,0
27093,-200,4,2,35,32,0,0
27195,-200,4,2,35,34,0,0
27298,-200,4,2,35,36,0,0
27401,-125,4,2,35,40,0,0
33463,-125,4,2,35,22,0,0
33565,-142.857142857143,4,2,35,40,0,0
33976,-125,4,2,35,40,0,0
40038,-125,4,2,35,22,0,0
40141,-142.857142857143,4,2,35,40,0,0
40346,-142.857142857143,4,2,35,34,0,0
40552,-111.111111111111,4,2,35,44,0,0
46613,-111.111111111111,4,2,35,22,0,0
46716,-111.111111111111,4,2,35,44,0,0
53189,-111.111111111111,4,2,35,22,0,0
53291,-125,4,2,35,44,0,0
53702,-111.111111111111,4,2,35,44,0,0
59764,-111.111111111111,4,2,35,22,0,0
59867,-111.111111111111,4,2,35,44,0,0
63565,-111.111111111111,4,2,35,46,0,0
63976,-111.111111111111,4,2,35,48,0,0
64387,-111.111111111111,4,2,35,50,0,0
64798,-111.111111111111,4,2,35,52,0,0
65209,-111.111111111111,4,2,35,54,0,0
65620,-111.111111111111,4,2,35,56,0,0
65826,-111.111111111111,4,2,35,58,0,0
65928,-111.111111111111,4,2,35,59,0,0
66031,-111.111111111111,4,2,35,60,0,0
66236,-111.111111111111,4,2,35,61,0,0
66442,-111.111111111111,4,2,35,62,0,0
66647,-111.111111111111,4,2,35,63,0,0
66853,-83.3333333333333,4,2,35,70,0,1
67161,-83.3333333333333,4,2,35,30,0,1
67264,-83.3333333333333,4,2,35,60,0,1
67469,-100,4,2,35,60,0,1
68291,-83.3333333333333,4,2,35,60,0,1
68600,-83.3333333333333,4,2,35,30,0,1
68702,-100,4,2,35,60,0,1
69319,-83.3333333333333,4,2,35,60,0,1
69627,-83.3333333333333,4,2,35,30,0,1
69730,-83.3333333333333,4,2,35,60,0,1
70141,-125,4,2,35,60,0,1
70757,-100,4,2,35,60,0,1
71579,-76.9230769230769,4,2,35,60,0,1
71990,-83.3333333333333,4,2,35,60,0,1
72606,-83.3333333333333,4,2,35,60,0,1
73428,-83.3333333333333,4,2,35,65,0,1
73736,-83.3333333333333,4,2,35,30,0,1
73839,-83.3333333333333,4,2,35,60,0,1
74045,-100,4,2,35,60,0,1
74867,-83.3333333333333,4,2,35,60,0,1
75175,-83.3333333333333,4,2,35,30,0,1
75278,-100,4,2,35,60,0,1
75894,-83.3333333333333,4,2,35,60,0,1
76202,-83.3333333333333,4,2,35,30,0,1
76305,-83.3333333333333,4,2,35,60,0,1
76716,-125,4,2,35,60,0,1
77332,-100,4,2,35,60,0,1
78154,-76.9230769230769,4,2,35,60,0,1
78565,-90.9090909090909,4,2,35,60,0,1
79182,-83.3333333333333,4,2,35,60,0,0
80004,-83.3333333333333,4,2,35,70,0,1
80312,-83.3333333333333,4,2,35,30,0,1
80415,-83.3333333333333,4,2,35,60,0,1
80620,-100,4,2,35,60,0,1
81442,-83.3333333333333,4,2,35,60,0,1
81750,-83.3333333333333,4,2,35,30,0,1
81853,-100,4,2,35,60,0,1
82469,-83.3333333333333,4,2,35,60,0,1
82778,-83.3333333333333,4,2,35,30,0,1
82880,-83.3333333333333,4,2,35,60,0,1
83291,-125,4,2,35,60,0,1
83908,-100,4,2,35,60,0,1
84730,-76.9230769230769,4,2,35,60,0,1
85141,-83.3333333333333,4,2,35,60,0,1
85757,-83.3333333333333,4,2,35,60,0,1
86579,-83.3333333333333,4,2,35,65,0,1
86887,-83.3333333333333,4,2,35,30,0,1
86990,-83.3333333333333,4,2,35,60,0,1
87195,-100,4,2,35,60,0,1
88017,-83.3333333333333,4,2,35,60,0,1
88326,-83.3333333333333,4,2,35,30,0,1
88428,-100,4,2,35,60,0,1
89045,-83.3333333333333,4,2,35,64,0,1
89867,-100,4,2,35,60,0,0
90278,-100,4,2,35,55,0,0
90483,-100,4,2,35,60,0,0
90894,-100,4,2,35,55,0,0
91099,-100,4,2,35,60,0,0
91510,-100,4,2,35,60,0,0
92127,-100,4,2,35,52,0,0
92538,-100,4,2,35,50,0,0
92743,-100,4,2,35,48,0,0
93154,-133.333333333333,4,2,35,42,0,0
98908,-161.290322580645,4,2,35,42,0,0
99319,-161.290322580645,4,2,35,36,0,0
99730,-133.333333333333,4,2,35,42,0,0
105483,-161.290322580645,4,2,35,42,0,0
105894,-161.290322580645,4,2,35,36,0,0
106305,-133.333333333333,4,2,35,42,0,0
112058,-161.290322580645,4,2,35,42,0,0
112367,-161.290322580645,4,2,35,22,0,0
112469,-175.438596491228,4,2,35,42,0,0
112675,-175.438596491228,4,2,35,34,0,0
112880,-133.333333333333,4,2,35,42,0,0
116168,-121.951219512195,4,2,35,44,0,0
117401,-142.857142857143,4,2,35,42,0,0
118017,-166.666666666667,4,2,35,42,0,0
118223,-166.666666666667,4,2,35,40,0,0
118634,-166.666666666667,4,2,35,46,0,0
118839,-166.666666666667,4,2,35,44,0,0
119045,-166.666666666667,4,2,35,42,0,0
119250,-166.666666666667,4,2,35,40,0,0
119456,-125,4,2,35,42,0,0
125517,-125,4,2,35,22,0,0
125620,-142.857142857143,4,2,35,42,0,0
126031,-125,4,2,35,42,0,0
132093,-125,4,2,35,22,0,0
132195,-142.857142857143,4,2,35,42,0,0
132401,-142.857142857143,4,2,35,34,0,0
132606,-111.111111111111,4,2,35,46,0,0
138668,-111.111111111111,4,2,35,24,0,0
138771,-111.111111111111,4,2,35,46,0,0
145243,-111.111111111111,4,2,35,24,0,0
145346,-125,4,2,35,46,0,0
145757,-111.111111111111,4,2,35,46,0,0
151819,-111.111111111111,4,2,35,24,0,0
151921,-111.111111111111,4,2,35,46,0,0
155620,-111.111111111111,4,2,35,48,0,0
156031,-111.111111111111,4,2,35,50,0,0
156853,-111.111111111111,4,2,35,52,0,0
157264,-111.111111111111,4,2,35,54,0,0
157675,-111.111111111111,4,2,35,56,0,0
157880,-111.111111111111,4,2,35,58,0,0
157983,-111.111111111111,4,2,35,59,0,0
158086,-111.111111111111,4,2,35,60,0,0
158291,-111.111111111111,4,2,35,62,0,0
158908,-83.3333333333333,4,2,35,70,0,1
159216,-83.3333333333333,4,2,35,30,0,1
159319,-83.3333333333333,4,2,35,60,0,1
159524,-100,4,2,35,60,0,1
160346,-83.3333333333333,4,2,35,60,0,1
160654,-83.3333333333333,4,2,35,30,0,1
160757,-100,4,2,35,60,0,1
161373,-83.3333333333333,4,2,35,60,0,1
161682,-83.3333333333333,4,2,35,30,0,1
161784,-83.3333333333333,4,2,35,60,0,1
162195,-125,4,2,35,60,0,1
162812,-100,4,2,35,60,0,1
163634,-76.9230769230769,4,2,35,60,0,1
164045,-83.3333333333333,4,2,35,60,0,1
164661,-83.3333333333333,4,2,35,60,0,1
165483,-83.3333333333333,4,2,35,65,0,1
165791,-83.3333333333333,4,2,35,30,0,1
165894,-83.3333333333333,4,2,35,60,0,1
166100,-100,4,2,35,60,0,1
166921,-83.3333333333333,4,2,35,60,0,1
167230,-83.3333333333333,4,2,35,30,0,1
167332,-100,4,2,35,60,0,1
167949,-83.3333333333333,4,2,35,60,0,1
168257,-83.3333333333333,4,2,35,30,0,1
168360,-83.3333333333333,4,2,35,60,0,1
168771,-125,4,2,35,60,0,1
169387,-100,4,2,35,60,0,1
170209,-76.9230769230769,4,2,35,60,0,1
170620,-90.9090909090909,4,2,35,60,0,1
171236,-83.3333333333333,4,2,35,60,0,0
172058,-83.3333333333333,4,2,35,70,0,1
172367,-83.3333333333333,4,2,35,30,0,1
172469,-83.3333333333333,4,2,35,60,0,1
172675,-100,4,2,35,60,0,1
173497,-83.3333333333333,4,2,35,60,0,1
173805,-83.3333333333333,4,2,35,30,0,1
173908,-100,4,2,35,60,0,1
174524,-83.3333333333333,4,2,35,60,0,1
174832,-83.3333333333333,4,2,35,30,0,1
174935,-83.3333333333333,4,2,35,60,0,1
175346,-125,4,2,35,60,0,1
175963,-100,4,2,35,60,0,1
176784,-76.9230769230769,4,2,35,60,0,1
177195,-83.3333333333333,4,2,35,60,0,1
177812,-83.3333333333333,4,2,35,60,0,1
178634,-83.3333333333333,4,2,35,65,0,1
178942,-83.3333333333333,4,2,35,30,0,1
179045,-83.3333333333333,4,2,35,60,0,1
179250,-100,4,2,35,60,0,1
180072,-83.3333333333333,4,2,35,60,0,1
180380,-83.3333333333333,4,2,35,30,0,1
180483,-100,4,2,35,60,0,1
181100,-83.3333333333333,4,2,35,64,0,1
181921,-100,4,2,35,60,0,0
182332,-100,4,2,35,55,0,0
182538,-100,4,2,35,60,0,0
182949,-100,4,2,35,55,0,0
183154,-100,4,2,35,60,0,0
183565,-100,4,2,35,55,0,0
183771,-100,4,2,35,60,0,0
184182,-100,4,2,35,55,0,0
184284,-100,4,2,35,56,0,0
184387,-100,4,2,35,58,0,0
184593,-100,4,2,35,56,0,0
184798,-100,4,2,35,54,0,0
185004,-100,4,2,35,52,0,0
185209,-100,4,2,35,60,0,0
185517,-100,4,2,35,28,0,0
185620,-100,4,2,35,58,0,0
188805,-100,4,2,35,28,0,0
188908,-100,4,2,35,58,0,0
192093,-100,4,2,35,28,0,0
192195,-100,4,2,35,58,0,0
193736,-100,4,2,35,28,0,0
193839,-100,4,2,35,58,0,0
195380,-100,4,2,35,28,0,0
195483,-100,4,2,35,58,0,0
198360,-90.9090909090909,4,2,35,64,0,0
198668,-90.9090909090909,4,2,35,28,0,0
198771,-90.9090909090909,4,2,35,60,0,0
201956,-90.9090909090909,4,2,35,28,0,0
202058,-90.9090909090909,4,2,35,60,0,0
205243,-90.9090909090909,4,2,35,28,0,0
205346,-90.9090909090909,4,2,35,60,0,0
206887,-90.9090909090909,4,2,35,28,0,0
206990,-90.9090909090909,4,2,35,60,0,0
208223,-90.9090909090909,4,2,35,62,0,0
208531,-90.9090909090909,4,2,35,28,0,0
208634,-90.9090909090909,4,2,35,62,0,0
208839,-90.9090909090909,4,2,35,60,0,0
209045,-90.9090909090909,4,2,35,64,0,0
209456,-90.9090909090909,4,2,35,60,0,0
209661,-111.111111111111,4,2,35,60,0,0
210483,-111.111111111111,4,2,35,56,0,0
210689,-111.111111111111,4,2,35,58,0,0
210826,-111.111111111111,4,2,35,57,0,0
210963,-111.111111111111,4,2,35,56,0,0
211100,-111.111111111111,4,2,35,55,0,0
211373,-111.111111111111,4,2,36,54,0,0
211510,-100,4,2,36,45,0,0
218086,-83.3333333333333,4,2,35,74,0,1
218394,-83.3333333333333,4,2,35,30,0,1
218497,-83.3333333333333,4,2,35,62,0,1
218702,-100,4,2,35,62,0,1
219524,-83.3333333333333,4,2,35,62,0,1
219832,-83.3333333333333,4,2,35,30,0,1
219935,-100,4,2,35,62,0,1
220552,-83.3333333333333,4,2,35,62,0,1
220860,-83.3333333333333,4,2,35,30,0,1
220963,-83.3333333333333,4,2,35,62,0,1
221373,-125,4,2,35,62,0,1
221990,-100,4,2,35,62,0,1
222812,-76.9230769230769,4,2,35,62,0,1
223223,-90.9090909090909,4,2,35,62,0,1
223839,-83.3333333333333,4,2,35,62,0,0
224661,-83.3333333333333,4,2,35,74,0,1
224969,-83.3333333333333,4,2,35,30,0,1
225072,-83.3333333333333,4,2,35,62,0,1
225278,-100,4,2,35,62,0,1
226099,-83.3333333333333,4,2,35,62,0,1
226408,-83.3333333333333,4,2,35,30,0,1
226510,-100,4,2,35,62,0,1
227127,-83.3333333333333,4,2,35,62,0,1
227435,-83.3333333333333,4,2,35,30,0,1
227538,-83.3333333333333,4,2,35,62,0,1
227949,-125,4,2,35,62,0,1
228565,-100,4,2,35,62,0,1
229387,-76.9230769230769,4,2,35,62,0,1
229798,-83.3333333333333,4,2,35,62,0,1
230415,-83.3333333333333,4,2,35,62,0,1
231236,-83.3333333333333,4,2,35,68,0,1
231545,-83.3333333333333,4,2,35,30,0,1
231647,-83.3333333333333,4,2,35,62,0,1
231853,-100,4,2,35,62,0,1
232675,-83.3333333333333,4,2,35,62,0,1
232983,-83.3333333333333,4,2,35,30,0,1
233086,-100,4,2,35,62,0,1
233702,-83.3333333333333,4,2,35,65,0,1
234524,-90.9090909090909,4,2,35,62,0,0
234935,-90.9090909090909,4,2,35,54,0,0
235141,-90.9090909090909,4,2,35,62,0,0
235552,-90.9090909090909,4,2,35,54,0,0
235757,-90.9090909090909,4,2,35,62,0,0
236168,-90.9090909090909,4,2,35,54,0,0
236373,-90.9090909090909,4,2,35,62,0,0
236784,-100,4,2,35,54,0,0

[Colours]
Combo1 : 255,170,170
Combo2 : 160,220,240
Combo3 : 255,200,150
Combo4 : 180,240,140

[HitObjects]
87,51,1100,6,0,B|136:102|133:229|43:243|43:243|15:198|42:156,1,323.999991416931,14|0,0:1|0:0,0:0:0:0:
135,106,3360,1,0,0:0:0:0:
135,106,3565,2,0,L|210:94,1,71.9999980926514,2|2,0:0|0:0,0:0:0:0:
324,31,4387,2,0,B|292:32|273:46|273:46|260:20|235:9,2,107.999997138977,10|0|0,0:1|0:0|0:0,0:0:0:0:
324,31,6236,2,0,P|355:48|390:47,1,71.9999980926514,2|0,0:0|0:0,0:0:0:0:
475,37,6853,2,0,P|431:29|390:47,1,89.9999976158143,2|2,0:0|0:0,0:0:0:0:
297,135,7675,6,0,B|244:207|265:316|357:349|357:349|341:293|380:253,1,359.999990463257,10|0,0:1|0:0,0:0:0:0:
499,326,10141,2,0,L|411:314,1,71.9999980926514,2|2,0:0|0:0,0:0:0:0:
306,271,10963,2,0,P|345:277|377:255,1,80.9999953823091,10|0,0:1|0:0,0:0:0:0:
457,237,11579,2,0,P|413:230|377:254,1,89.9999976158143,2|0,0:0|0:0,0:0:0:0:
384,340,12195,2,0,P|479:330|458:237,1,215.999994277954,2|2,0:0|0:0,0:0:0:0:
291,104,14250,6,0,L|197:88,1,89.9999976158143,10|0,0:1|0:0,0:0:0:0:
178,109,14867,2,0,L|311:131,1,134.999996423721,2|0,0:0|0:0,0:0:0:0:
222,246,16100,1,0,0:0:0:0:
222,246,16305,2,0,P|224:273|205:295,1,44.9999988079071,2|0,0:0|0:0,0:0:0:0:
153,328,16716,2,0,B|115:323|115:323|103:327|103:327|54:320,1,89.9999976158143,2|2,0:0|0:0,0:0:0:0:
221,245,17538,6,0,P|215:202|237:164,1,89.9999976158143,10|0,0:1|0:0,0:0:0:0:
265,147,18154,2,0,P|231:204|242:269,1,134.999996423721,2|0,0:0|0:0,0:0:0:0:
369,350,19387,2,0,L|427:364,1,44.9999988079071,2|0,0:0|0:0,0:0:0:0:
412,360,19798,1,0,0:0:0:0:
485,324,20004,2,0,P|481:277|510:239,1,89.9999976158143,2|0,0:0|0:0,0:0:0:0:
479,106,20826,6,0,B|450:120|450:120|368:92,1,89.9999976158143,10|0,0:1|0:0,0:0:0:0:
370,120,21442,2,0,B|455:149|455:149|495:129,1,134.999996423721,2|2,0:0|0:0,0:0:0:0:
340,10,22675,1,0,0:0:0:0:
340,10,22880,2,0,P|328:38|303:58,1,44.9999988079071,2|0,0:0|0:0,0:0:0:0:
247,66,23291,2,0,B|211:62|211:62|199:66|199:66|158:62,1,89.9999976158143,2|2,0:0|0:0,0:0:0:0:
20,134,24113,6,0,P|2:197|27:229,1,99.0000003986359,2|0,0:0|0:0,0:0:0:0:
76,266,24730,2,0,B|132:264|132:264|142:262|142:262|154:265|154:265|242:263,1,161.999990764618,2|2,0:0|0:0,0:0:0:0:
455,334,25963,6,0,P|461:354|458:378,1,44.9999988079071,2|0,0:0|0:0,0:0:0:0:
444,379,26373,2,0,P|436:357|439:335,1,44.9999988079071,2|0,0:0|0:0,0:0:0:0:
491,259,26990,5,0,3:0:0:0:
496,248,27093,1,0,3:0:0:0:
498,238,27195,1,0,3:0:0:0:
498,226,27298,1,0,3:0:0:0:
496,215,27401,6,0,B|449:194|460:138|460:138|480:118|488:91,1,143.999996185303,14|0,0:1|0:0,0:0:0:0:
408,12,28017,2,0,P|406:67|430:86,1,71.9999980926514,2|8,0:0|0:0,0:0:0:0:
496,215,28634,2,0,P|417:171|334:199,1,143.999996185303,10|0,0:1|0:0,0:0:0:0:
268,264,29250,1,8,0:0:0:0:
295,335,29456,2,0,B|306:353|336:354|336:354|333:329|315:319,1,71.9999980926514,8|0,0:1|0:0,0:0:0:0:
268,264,29867,2,0,P|235:221|256:117,1,143.999996185303,10|0,0:0|3:0,0:0:0:0:
263,108,30415,1,0,3:0:0:0:
294,97,30552,1,0,3:0:0:0:
313,69,30689,6,0,B|292:24|227:11|227:11|168:43,1,143.999996185303,10|0,0:1|0:0,0:0:0:0:
151,84,31305,2,0,P|123:68|125:23,1,71.9999980926514,2|8,0:0|0:0,0:0:0:0:
242,135,31921,2,0,P|264:189|196:288,1,143.999996185303,10|0,0:1|0:0,0:0:0:0:
131,313,32538,2,0,L|49:292,1,71.9999980926514,8|0,0:0|0:0,0:0:0:0:
131,313,32949,1,8,0:1:0:0:
22,223,33154,2,0,P|14:165|61:106,1,107.999997138977,10|0,0:0|0:0,0:0:0:0:
45,118,33565,2,0,P|81:120|109:97,1,62.9999964084627,8|0,2:1|1:0,0:0:0:0:
161,50,33873,1,0,1:0:0:0:
169,42,33976,6,0,B|198:12|198:12|173:73|213:113,1,143.999996185303,10|0,0:1|0:0,0:0:0:0:
287,183,34593,2,0,P|249:184|215:194,1,71.9999980926514,2|8,0:0|0:0,0:0:0:0:
402,85,35209,2,0,P|327:80|264:55,1,143.999996185303,10|0,0:1|0:0,0:0:0:0:
361,161,35826,1,8,0:0:0:0:
415,218,36031,2,0,B|431:241|454:240|454:240|455:220|439:214,1,71.9999980926514,8|0,0:1|0:0,0:0:0:0:
361,161,36442,2,0,P|313:172|327:287,1,143.999996185303,10|0,0:0|3:0,0:0:0:0:
304,286,36990,1,0,3:0:0:0:
325,312,37127,1,0,3:0:0:0:
348,336,37264,6,0,B|388:335|388:335|401:328|401:328|503:324,1,143.999996185303,10|0,0:1|0:0,0:0:0:0:
377,225,37880,2,0,P|359:196|360:160,2,71.9999980926514,2|8|0,0:0|0:0|0:0,0:0:0:0:
497,126,38497,2,0,P|511:194|467:249,1,143.999996185303,10|0,0:1|0:0,0:0:0:0:
360,159,39113,1,8,0:0:0:0:
419,103,39319,1,2,0:0:0:0:
497,126,39524,1,8,0:1:0:0:
399,25,39730,2,0,P|377:72|326:77,1,107.999997138977,10|0,0:0|0:0,0:0:0:0:
317,75,40141,2,0,L|302:8,1,62.9999964084627,8|0,0:1|1:0,0:0:0:0:
207,80,40552,6,0,P|132:88|120:162,1,161.999990764618,14|0,0:1|0:0,0:0:0:0:
163,256,41168,2,0,B|128:251|128:251|122:252|122:252|82:245,1,80.9999953823091,2|8,0:0|0:0,0:0:0:0:
260,310,41784,1,8,0:1:0:0:
260,310,41990,2,0,B|225:323|225:323|275:272|240:206,1,161.999990764618,2|8,0:0|0:0,0:0:0:0:
173,122,42606,2,0,B|138:117|138:117|132:118|132:118|92:111,1,80.9999953823091,8|0,0:1|0:0,0:0:0:0:
232,36,43017,2,0,B|274:37|307:66|307:66|323:29|363:14,1,161.999990764618,10|0,0:0|3:0,0:0:0:0:
395,3,43565,1,0,3:0:0:0:
430,15,43702,1,0,3:0:0:0:
446,48,43839,6,0,B|440:102|440:102|474:144|488:197,1,161.999990764618,10|0,0:1|0:0,0:0:0:0:
441,254,44456,1,2,0:0:0:0:
499,341,44661,2,0,B|522:311|522:311|375:340,1,161.999990764618,8|8,0:0|0:1,0:0:0:0:
326,383,45278,2,0,P|312:345|319:306,1,80.9999953823091,2|0,0:0|0:0,0:0:0:0:
244,185,45689,1,8,0:0:0:0:
244,185,45894,2,0,P|251:224|239:262,1,80.9999953823091,2|8,0:0|0:1,0:0:0:0:
159,320,46305,2,0,L|26:309,1,121.499993073464,10|0,0:0|0:0,0:0:0:0:
29,315,46716,2,0,P|14:276|21:236,1,80.9999953823091,8|0,0:1|1:0,0:0:0:0:
78,176,47024,1,0,1:0:0:0:
87,172,47127,6,0,B|132:153|132:153|79:117|93:51,1,161.999990764618,10|0,0:1|0:0,0:0:0:0:
178,0,47743,2,0,B|192:22|192:22|176:44|179:74,1,80.9999953823091,2|8,0:0|0:0,0:0:0:0:
328,201,48360,1,8,0:1:0:0:
328,201,48565,2,0,B|385:211|420:153|420:153|417:129|426:103,1,161.999990764618,2|8,0:0|0:0,0:0:0:0:
508,92,49182,2,0,B|530:120|518:145|518:145|498:147|492:126,1,80.9999953823091,8|0,0:1|0:0,0:0:0:0:
361,55,49593,2,0,P|291:15|212:20,1,161.999990764618,10|0,0:0|3:0,0:0:0:0:
178,38,50141,1,0,3:0:0:0:
155,68,50278,1,0,3:0:0:0:
147,105,50415,6,0,B|129:158|64:171|64:171|48:151|22:144,1,161.999990764618,10|0,0:1|0:0,0:0:0:0:
4,216,51031,1,2,0:0:0:0:
64,311,51236,2,0,B|85:369|85:369|194:329,1,161.999990764618,8|8,0:0|0:1,0:0:0:0:
289,266,51853,2,0,B|255:287|255:287|217:257,1,80.9999953823091,2|0,0:0|0:0,0:0:0:0:
345,198,52264,1,8,0:0:0:0:
345,198,52469,2,0,P|336:145|365:107,1,80.9999953823091,2|8,0:0|0:1,0:0:0:0:
432,254,52880,2,0,P|460:302|416:388,1,121.499993073464,10|0,0:0|0:0,0:0:0:0:
439,371,53291,2,0,B|408:365|408:365|400:366|400:366|355:359,1,71.9999980926514,8|0,0:1|1:0,0:0:0:0:
196,369,53702,6,0,B|165:380|165:380|184:309|184:309|166:245,1,161.999990764618,14|0,0:1|0:0,0:0:0:0:
132,191,54319,1,2,0:0:0:0:
0,141,54524,2,0,B|24:175|57:174|57:174|71:124|121:114,1,161.999990764618,8|8,0:0|0:1,0:0:0:0:
240,230,55141,2,0,P|170:256|132:192,1,161.999990764618,2|8,0:0|0:0,0:0:0:0:
190,74,55757,2,0,P|210:50|209:-1,1,80.9999953823091,8|0,0:1|0:0,0:0:0:0:
121,114,56168,2,0,P|99:190|127:265,1,161.999990764618,8|0,0:0|3:0,0:0:0:0:
152,291,56716,1,0,3:0:0:0:
188,301,56853,1,0,3:0:0:0:
225,293,56990,6,0,B|268:247|331:258|331:258|372:290,1,161.999990764618,10|0,0:1|0:0,0:0:0:0:
425,329,57606,1,2,0:0:0:0:
512,252,57812,2,0,B|456:206|477:140|477:140|517:100,1,161.999990764618,8|8,0:0|0:1,0:0:0:0:
484,0,58428,2,0,B|486:29|486:29|440:69,1,80.9999953823091,2|0,0:0|0:0,0:0:0:0:
345,145,58839,1,8,0:0:0:0:
345,145,59045,2,0,P|353:107|337:70,1,80.9999953823091,2|8,0:0|0:1,0:0:0:0:
207,0,59456,2,0,P|172:48|182:131,1,121.499993073464,10|0,0:0|0:0,0:0:0:0:
178,116,59867,2,0,P|221:133|246:173,1,80.9999953823091,8|0,0:1|1:0,0:0:0:0:
251,242,60175,1,0,1:0:0:0:
246,251,60278,6,0,B|207:306|134:304|134:304|79:273,1,161.999990764618,10|0,0:1|0:0,0:0:0:0:
43,249,60894,1,2,0:0:0:0:
104,120,61100,2,0,B|171:114|171:114|183:117|183:117|290:109,1,161.999990764618,8|8,0:0|0:1,0:0:0:0:
369,82,61716,2,0,P|289:74|317:22,1,161.999990764618,2|8,0:0|0:0,0:0:0:0:
369,82,62332,2,0,B|371:111|330:123|330:123|330:111|341:99,1,80.9999953823091,8|0,0:1|0:0,0:0:0:0:
447,49,62743,2,0,P|496:70|487:195,1,161.999990764618,10|0,0:0|3:0,0:0:0:0:
491,200,63291,1,0,3:0:0:0:
471,232,63428,1,0,3:0:0:0:
451,264,63565,5,10,0:1:0:0:
337,197,63976,5,10,0:1:0:0:
290,358,64387,5,10,0:1:0:0:
165,123,64798,5,10,0:1:0:0:
63,384,65209,5,10,0:1:0:0:
0,92,65620,5,10,0:1:0:0:
67,203,65826,5,8,0:0:0:0:
71,214,65928,1,8,0:0:0:0:
76,225,66031,1,10,0:0:0:0:
162,68,66236,1,8,0:3:0:0:
144,281,66442,1,6,0:3:0:0:
259,139,66647,1,4,0:3:0:0:
95,124,66853,6,0,B|65:81|88:21|88:21|55:5|35:35,1,161.999990764618,14|0,0:1|0:0,0:0:0:0:
1,95,67264,1,8,0:1:0:0:
171,150,67469,2,0,B|206:143|206:143|217:147|217:147|259:140,1,89.9999976158143,2|8,0:0|0:0,0:0:0:0:
224,232,67880,1,2,0:0:0:0:
313,303,68086,1,8,0:1:0:0:
179,361,68291,2,0,B|115:354|115:354|99:358|99:358|0:348,1,161.999995056153,8|0,0:0|0:0,0:0:0:0:
8,355,68702,2,0,P|-7:316|14:266,1,89.9999976158143,8|8,0:1|0:1,0:0:0:0:
312,152,69319,6,0,B|381:160|381:160|389:158|389:158|398:161|398:161|484:171,1,161.999995056153,10|0,0:0|0:0,0:0:0:0:
510,235,69730,1,10,0:1:0:0:
497,98,69935,1,0,1:0:0:0:
493,90,70038,1,0,1:0:0:0:
489,82,70141,6,0,B|486:39|430:6|430:6|362:32,1,143.999996185303,10|8,0:1|0:1,0:0:0:0:
264,129,70757,2,0,L|372:138,1,90,2|8,0:0|0:0,0:0:0:0:
178,100,71168,1,2,0:0:0:0:
278,16,71373,1,8,0:1:0:0:
178,100,71579,2,0,B|164:136|183:172|183:172|97:129|134:33,1,233.999983089448,8|8,0:0|0:1,0:0:0:0:
269,128,72195,1,8,0:1:0:0:
84,360,72606,5,10,0:0:0:0:
0,329,72812,1,8,0:1:0:0:
70,270,73017,5,10,0:0:0:0:
240,335,73223,1,8,0:0:0:0:
314,164,73428,6,0,B|276:192|230:166|230:166|215:125|178:107,1,161.999990764618,14|0,0:1|0:0,0:0:0:0:
120,74,73839,1,8,0:1:0:0:
116,186,74045,2,0,B|125:217|155:220|155:220|149:198|156:171,1,89.9999976158143,2|8,0:0|0:0,0:0:0:0:
258,57,74456,1,2,0:0:0:0:
314,164,74661,1,8,0:1:0:0:
490,149,74867,2,0,P|486:36|422:-5,1,161.999995056153,8|0,0:0|0:0,0:0:0:0:
444,9,75278,2,0,P|410:61|420:93,1,90,8|8,0:1|0:1,0:0:0:0:
455,376,75894,6,0,P|502:312|490:235,1,161.999995056153,10|0,0:0|0:0,0:0:0:0:
428,192,76305,1,10,0:1:0:0:
290,98,76510,1,0,1:0:0:0:
293,106,76613,1,0,1:0:0:0:
296,113,76716,6,0,B|308:154|357:160|357:160|374:128|413:116,1,144,10|8,0:1|0:1,0:0:0:0:
247,36,77332,2,0,P|208:16|162:15,1,89.9999976158143,2|8,0:0|0:0,0:0:0:0:
45,36,77743,1,2,0:0:0:0:
141,152,77949,1,8,0:1:0:0:
9,110,78154,2,0,P|54:76|111:80,1,116.999991544724,8|0,0:0|0:0,0:0:0:0:
212,239,78565,2,0,B|171:231|171:231|155:238|155:238|115:231,1,99.0000003986359,8|8,0:1|0:1,0:0:0:0:
498,0,79182,5,8,0:0:0:0:
407,79,79387,1,8,0:3:0:0:
430,197,79593,5,6,0:3:0:0:
294,40,79798,1,8,0:0:0:0:
212,239,80004,6,0,B|230:311|182:348|182:348|165:336|143:333,1,161.999990764618,14|0,0:1|0:0,0:0:0:0:
73,362,80415,1,8,0:1:0:0:
9,214,80620,2,0,B|45:210|45:210|50:214|50:214|109:208,1,89.9999976158143,2|8,0:0|0:0,0:0:0:0:
223,173,81031,1,2,0:0:0:0:
86,101,81236,1,8,0:1:0:0:
225,27,81442,2,0,B|256:0|256:0|142:40,1,161.999990764618,8|0,0:0|0:0,0:0:0:0:
142,51,81853,2,0,P|163:85|151:140,1,89.9999976158143,8|8,0:1|0:1,0:0:0:0:
5,351,82469,6,0,B|-17:370|-17:370|-34:290|35:258,1,161.999990764618,10|0,0:0|0:0,0:0:0:0:
108,237,82880,1,10,0:1:0:0:
234,339,83086,1,0,1:0:0:0:
239,348,83189,1,0,1:0:0:0:
244,357,83291,6,0,B|282:376|282:376|277:326|277:326|306:252,1,143.999996185303,10|8,0:1|0:1,0:0:0:0:
400,193,83908,2,0,L|513:184,1,89.9999976158143,2|8,0:0|0:0,0:0:0:0:
341,113,84319,1,2,0:0:0:0:
428,57,84524,1,8,0:1:0:0:
302,0,84730,2,0,B|242:26|223:116|238:143|238:143|250:114|226:73,1,233.999983089448,8|8,0:0|0:1,0:0:0:0:
88,4,85346,1,8,0:1:0:0:
35,327,85757,5,10,0:0:0:0:
126,302,85963,1,8,0:1:0:0:
204,192,86168,5,10,0:2:0:0:
0,141,86373,1,8,0:0:0:0:
196,51,86579,6,0,B|202:24|202:24|150:44|150:44|184:134,1,161.999990764618,14|0,0:1|0:0,0:0:0:0:
204,192,86990,1,8,0:1:0:0:
348,116,87195,2,0,B|311:112|311:112|299:115|299:115|248:106,1,89.9999976158143,2|8,0:0|0:0,0:0:0:0:
415,66,87606,1,2,0:0:0:0:
285,0,87812,1,8,0:1:0:0:
415,66,88017,2,0,B|448:115|418:169|418:169|439:144|472:137,1,161.999990764618,8|0,0:0|0:0,0:0:0:0:
472,139,88428,2,0,P|497:118|487:39,1,89.9999976158143,8|8,0:1|0:1,0:0:0:0:
204,0,89045,5,10,0:0:0:0:
149,195,89250,1,8,0:1:0:0:
137,164,89353,1,8,0:1:0:0:
122,135,89456,2,0,P|116:125|92:112,1,26.9999984607697,8|8,0:0|0:0,0:0:0:0:
0,328,89867,5,10,0:1:0:0:
134,380,90072,2,0,L|234:367,1,89.9999976158143,10|8,0:1|0:1,0:0:0:0:
0,251,90483,5,10,0:1:0:0:
134,303,90689,2,0,L|223:291,1,89.9999976158143,10|8,0:1|0:1,0:0:0:0:
0,174,91100,5,10,0:1:0:0:
134,380,91305,1,10,0:1:0:0:
196,91,92127,5,8,0:0:0:0:
178,87,92230,1,8,0:0:0:0:
160,84,92332,1,8,0:0:0:0:
263,0,92538,5,8,0:3:0:0:
300,163,92743,5,4,0:3:0:0:
512,77,93154,5,14,0:1:0:0:
512,77,93360,2,0,L|420:67,1,67.5000007867814,2|0,0:0|0:0,0:0:0:0:
375,96,93771,2,0,P|366:63|393:24,1,67.5000007867814,2|8,0:0|0:0,0:0:0:0:
441,145,94182,1,2,0:0:0:0:
441,145,94387,2,0,P|441:232|407:271,1,135.000001573563,8|0,0:1|0:0,0:0:0:0:
348,336,95004,2,0,L|329:254,1,67.5000007867814,8|0,0:0|0:1,0:0:0:0:
332,270,95415,1,2,0:0:0:0:
256,300,95620,2,0,P|200:263|180:200,1,135.000001573563,8|0,0:0|3:0,0:0:0:0:
184,168,96168,1,0,3:0:0:0:
198,140,96305,1,0,3:0:0:0:
222,120,96442,6,0,B|257:73|213:28|213:28|182:37,1,135.000001573563,10|0,0:1|0:0,0:0:0:0:
182,37,97058,1,2,0:0:0:0:
124,84,97264,2,0,P|107:48|119:9,1,67.5000007867814,8|0,0:0|0:0,0:0:0:0:
54,122,97675,2,0,P|12:170|35:245,1,135.000001573563,10|0,0:1|0:0,0:0:0:0:
93,297,98291,1,8,0:0:0:0:
93,297,98497,2,0,P|118:280|171:278,1,67.5000007867814,2|0,0:0|0:0,0:0:0:0:
230,323,98908,2,0,B|275:357|275:357|307:312,1,111.59999261612,10|8,0:0|0:1,0:0:0:0:
501,155,99730,5,10,0:1:0:0:
501,155,99935,2,0,B|469:150|469:150|462:153|462:153|435:149,1,67.5000007867814,2|0,0:0|0:0,0:0:0:0:
372,96,100346,2,0,P|365:63|385:38,1,67.5000007867814,2|8,0:0|0:0,0:0:0:0:
442,156,100757,1,2,0:0:0:0:
442,156,100963,2,0,B|479:188|467:244|467:244|425:278,1,135.000001573563,8|0,0:1|0:0,0:0:0:0:
369,342,101579,2,0,P|375:309|355:284,1,67.5000007867814,8|8,0:0|0:1,0:0:0:0:
355,284,101990,1,2,0:0:0:0:
280,349,102195,2,0,B|243:317|255:261|255:261|284:236,1,135.000001573563,8|0,0:0|3:0,0:0:0:0:
312,220,102743,1,0,3:0:0:0:
339,204,102880,1,0,3:0:0:0:
364,187,103017,6,0,P|392:127|363:69,1,135.000001573563,10|0,0:1|0:0,0:0:0:0:
275,17,103634,2,0,L|188:3,1,67.5000007867814,2|8,0:0|0:0,0:0:0:0:
275,17,104045,1,2,0:0:0:0:
363,69,104250,2,0,P|428:63|464:8,1,135.000001573563,8|0,0:1|0:0,0:0:0:0:
422,112,104867,1,8,0:0:0:0:
497,151,105072,1,2,0:0:0:0:
403,201,105278,1,8,0:1:0:0:
472,310,105483,2,0,B|517:344|517:344|511:287,1,111.59999261612,10|8,0:0|0:1,0:0:0:0:
414,113,106305,5,14,0:1:0:0:
414,113,106510,2,0,B|384:108|384:108|378:110|378:110|348:106,1,67.5000007867814,2|0,0:0|0:0,0:0:0:0:
263,39,106921,2,0,B|292:34|292:34|298:35|298:35|332:31,1,67.5000007867814,2|8,0:0|0:0,0:0:0:0:
259,119,107332,1,2,0:0:0:0:
259,119,107538,2,0,B|269:175|226:206|226:206|191:193,1,135.000001573563,8|0,0:1|0:0,0:0:0:0:
115,128,108154,2,0,P|124:100|118:62,1,67.5000007867814,8|8,0:0|0:1,0:0:0:0:
118,62,108565,1,2,0:0:0:0:
33,145,108771,2,0,B|23:201|66:232|66:232|100:219,1,135.000001573563,8|0,0:0|3:0,0:0:0:0:
129,208,109319,1,0,3:0:0:0:
159,199,109456,1,0,3:0:0:0:
189,191,109593,6,0,B|231:201|231:201|246:229|246:229|309:254,1,135.000001573563,10|0,0:1|0:0,0:0:0:0:
301,251,110209,1,2,0:0:0:0:
378,197,110415,2,0,P|379:161|405:124,1,67.5000007867814,8|0,0:0|0:0,0:0:0:0:
465,238,110826,2,0,P|518:279|509:340,1,135.000001573563,10|0,0:1|0:0,0:0:0:0:
418,382,111442,1,8,0:0:0:0:
418,382,111647,2,0,L|344:369,1,67.5000007867814,2|8,0:0|0:1,0:0:0:0:
284,303,112058,2,0,P|299:275|282:219,1,83.6999944620898,10|0,0:0|0:0,0:0:0:0:
280,218,112469,2,0,L|221:201,1,51.2999980147934,8|0,0:1|1:0,0:0:0:0:
167,116,112880,5,10,0:1:0:0:
167,116,113086,2,0,P|178:85|170:52,1,67.5000007867814,2|0,0:0|0:0,0:0:0:0:
87,134,113497,2,0,P|66:108|33:98,1,67.5000007867814,2|8,0:0|0:0,0:0:0:0:
67,213,113908,1,2,0:0:0:0:
67,213,114113,2,0,P|23:262|38:325,1,135.000001573563,8|0,0:1|0:0,0:0:0:0:
120,377,114730,2,0,L|204:362,1,67.5000007867814,8|8,0:0|0:1,0:0:0:0:
186,365,115141,1,2,0:0:0:0:
256,300,115346,2,0,P|254:235|199:199,1,135.000001573563,8|0,0:0|3:0,0:0:0:0:
168,191,115894,1,0,3:0:0:0:
137,182,116031,1,0,3:0:0:0:
106,175,116168,6,0,B|78:185|78:185|95:130|95:130|77:62,1,147.599998342133,10|0,0:1|0:0,0:0:0:0:
106,175,116784,2,0,L|127:247,1,73.7999991710663,2|8,0:0|0:0,0:0:0:0:
126,245,117195,1,2,0:0:0:0:
200,313,117401,2,0,P|265:307|274:250,1,125.999992816925,8|0,0:1|0:0,0:0:0:0:
322,180,118017,1,8,0:0:0:0:
322,180,118223,2,0,L|252:174,1,53.9999969215394,2|8,0:0|0:1,0:0:0:0:
164,109,118634,5,10,0:0:0:0:
300,59,118839,1,8,0:0:0:0:
174,89,119045,5,8,0:3:0:0:
289,78,119250,1,4,0:3:0:0:
122,16,119456,6,0,B|92:1|92:1|75:9|75:9|56:11|56:11|33:80,1,143.999996185303,14|0,0:1|0:0,0:0:0:0:
92,176,120072,2,0,L|169:189,1,71.9999980926514,2|8,0:0|0:0,0:0:0:0:
23,219,120689,2,0,L|164:188,1,143.999996185303,10|0,0:1|0:0,0:0:0:0:
77,321,121305,1,8,0:0:0:0:
148,358,121510,2,0,P|161:318|137:284,1,71.9999980926514,8|0,0:1|0:0,0:0:0:0:
270,384,121921,2,0,P|246:314|277:250,1,143.999996185303,10|0,0:0|3:0,0:0:0:0:
302,235,122469,1,0,3:0:0:0:
332,221,122606,1,0,3:0:0:0:
362,206,122743,6,0,B|406:166|390:118|390:118|367:104|351:68,1,143.999996185303,10|0,0:1|0:0,0:0:0:0:
450,0,123360,2,0,P|456:32|403:29,1,71.9999980926514,2|8,0:0|0:0,0:0:0:0:
237,94,123976,2,0,P|190:50|96:48,1,143.999996185303,10|0,0:1|0:0,0:0:0:0:
196,158,124593,2,0,P|163:166|137:226,1,71.9999980926514,8|0,0:0|0:0,0:0:0:0:
196,158,125004,1,8,0:1:0:0:
225,296,125209,2,0,P|261:334|313:348,1,107.999997138977,10|0,0:0|0:0,0:0:0:0:
324,344,125620,2,0,P|353:322|384:315,1,62.9999964084627,8|0,0:1|1:0,0:0:0:0:
462,330,125928,1,0,1:0:0:0:
470,335,126031,6,0,B|479:349|486:357|503:353|503:353|506:342|506:329|501:312|501:312|473:292|476:250,1,143.999996185303,10|0,0:1|0:0,0:0:0:0:
512,145,126647,2,0,P|486:170|449:176,1,71.9999980926514,2|8,0:0|0:0,0:0:0:0:
220,55,127264,2,0,B|283:48|283:48|293:52|293:52|377:44,1,143.999996185303,10|0,0:1|0:0,0:0:0:0:
233,132,127880,1,8,0:0:0:0:
160,104,128086,2,0,P|144:72|146:36,1,71.9999980926514,8|0,0:1|0:0,0:0:0:0:
233,132,128497,2,0,B|275:174|260:233|260:233|217:258,1,143.999996185303,10|0,0:0|3:0,0:0:0:0:
199,264,129045,1,0,3:0:0:0:
169,279,129182,1,0,3:0:0:0:
138,292,129319,6,0,B|114:301|114:301|74:277|74:277|52:200,1,143.999996185303,10|0,0:1|0:0,0:0:0:0:
8,91,129935,1,2,0:0:0:0:
8,91,130141,2,0,B|19:125|19:125|-6:165,1,71.9999980926514,8|0,0:0|0:0,0:0:0:0:
71,42,130552,2,0,P|145:15|217:32,1,143.999996185303,10|0,0:1|0:0,0:0:0:0:
320,101,131168,1,8,0:0:0:0:
290,23,131373,1,2,0:0:0:0:
207,27,131579,1,8,0:1:0:0:
320,101,131784,2,0,P|367:124|430:115,1,107.999997138977,10|0,0:0|0:0,0:0:0:0:
428,112,132195,2,0,P|431:76|453:44,1,62.9999964084627,8|0,0:1|1:0,0:0:0:0:
506,191,132606,6,0,B|547:241|525:305|525:305|479:337,1,161.999990764618,14|0,0:1|0:0,0:0:0:0:
404,384,133223,2,0,B|409:349|409:349|408:343|408:343|413:301,1,80.9999953823091,2|8,0:0|0:0,0:0:0:0:
281,187,133839,1,8,0:1:0:0:
281,187,134045,2,0,B|318:208|318:208|328:144|328:144|367:95,1,161.999990764618,2|8,0:0|0:0,0:0:0:0:
290,20,134661,2,0,B|253:16|253:16|249:18|249:18|204:13,1,80.9999953823091,8|0,0:1|0:0,0:0:0:0:
362,101,135072,2,0,P|444:107|474:32,1,161.999990764618,10|0,0:0|3:0,0:0:0:0:
463,8,135620,1,0,3:0:0:0:
425,11,135757,1,0,3:0:0:0:
405,44,135894,6,0,B|376:96|409:150|409:150|434:150|467:172,1,161.999990764618,10|0,0:1|0:0,0:0:0:0:
500,223,136510,1,10,0:1:0:0:
497,371,136716,2,0,B|511:300|440:277|440:277|457:293|459:318,1,161.999990764618,8|8,0:2|0:1,0:0:0:0:
301,339,137332,2,0,L|403:330,1,80.9999953823091,2|0,0:0|0:0,0:0:0:0:
252,268,137743,1,8,0:0:0:0:
252,268,137949,2,0,P|257:228|233:193,1,80.9999953823091,2|8,0:0|0:1,0:0:0:0:
171,311,138360,2,0,P|135:282|45:296,1,121.499993073464,10|0,0:0|0:0,0:0:0:0:
57,291,138771,2,0,P|35:257|40:218,1,80.9999953823091,8|0,0:1|1:0,0:0:0:0:
80,150,139079,1,0,1:0:0:0:
88,147,139182,6,0,B|117:134|117:134|121:112|121:112|136:85|136:85|108:3,1,161.999990764618,10|0,0:1|0:0,0:0:0:0:
111,12,139798,1,2,0:0:0:0:
161,117,140004,2,0,B|165:173|218:204|218:204|243:187|283:195,1,161.999990764618,8|8,0:0|0:1,0:0:0:0:
350,283,140620,2,0,B|315:280|315:280|305:284|305:284|270:280,1,80.9999953823091,2|0,0:0|0:0,0:0:0:0:
412,204,141031,1,8,0:0:0:0:
412,204,141236,2,0,P|405:164|427:131,1,80.9999953823091,8|0,0:1|0:0,0:0:0:0:
512,44,141647,2,0,P|442:84|366:52,1,161.999990764618,10|0,0:0|3:0,0:0:0:0:
345,28,142195,1,0,3:0:0:0:
307,21,142332,1,0,3:0:0:0:
271,32,142469,6,0,P|252:67|254:107,1,80.9999953823091,10|8,0:1|0:0,0:0:0:0:
254,107,142880,1,2,0:0:0:0:
328,191,143086,2,0,B|423:184,1,80.9999953823091,8|8,0:1|0:0,0:0:0:0:
260,359,143702,1,10,0:1:0:0:
197,292,143908,2,0,P|199:252|180:216,1,80.9999953823091,8|0,0:0|0:0,0:0:0:0:
92,155,144319,1,8,0:0:0:0:
36,215,144524,1,2,0:0:0:0:
13,137,144730,1,8,0:1:0:0:
169,131,144935,2,0,L|314:97,1,121.499993073464,10|0,0:0|0:0,0:0:0:0:
296,101,145346,2,0,P|302:56|282:30,1,71.9999980926514,8|0,0:1|1:0,0:0:0:0:
225,201,145757,6,0,B|186:274|230:317|230:317|235:292|222:269,1,161.999990764618,14|0,0:1|0:0,0:0:0:0:
159,253,146373,1,2,0:0:0:0:
246,354,146579,2,0,P|320:357|340:285,1,161.999990764618,8|8,0:0|0:1,0:0:0:0:
225,201,147195,2,0,P|150:204|130:132,1,161.999990764618,2|8,0:0|0:0,0:0:0:0:
191,41,147812,2,0,L|270:28,1,80.9999953823091,8|0,0:1|0:0,0:0:0:0:
109,17,148223,2,0,L|270:28,1,161.999990764618,10|0,0:0|3:0,0:0:0:0:
300,50,148771,1,0,3:0:0:0:
311,85,148908,1,0,3:0:0:0:
324,120,149045,6,0,B|350:187|423:165|423:165|429:140|455:111,1,161.999990764618,10|0,0:1|0:0,0:0:0:0:
494,81,149661,1,2,0:0:0:0:
501,180,149867,2,0,B|494:223|494:223|496:227|496:227|493:230|493:230|477:340,1,161.999990764618,8|8,0:0|0:1,0:0:0:0:
381,384,150483,2,0,L|367:304,1,80.9999953823091,2|0,0:0|0:0,0:0:0:0:
295,202,150894,1,8,0:0:0:0:
295,202,151100,2,0,L|281:282,1,80.9999953823091,2|8,0:0|0:1,0:0:0:0:
216,384,151510,2,0,P|197:334|127:325,1,121.499993073464,10|0,0:0|0:0,0:0:0:0:
129,329,151921,2,0,P|90:342|42:302,1,80.9999953823091,8|0,0:1|1:0,0:0:0:0:
6,264,152230,1,0,1:0:0:0:
2,257,152332,6,0,B|9:212|9:212|8:197|8:197|23:91,1,161.999990764618,10|0,0:1|0:0,0:0:0:0:
35,24,152949,1,2,0:0:0:0:
89,154,153154,2,0,B|108:220|181:203|181:203|209:153,1,161.999990764618,8|8,0:0|0:1,0:0:0:0:
286,93,153771,2,0,B|255:85|255:85|247:87|247:87|203:76,1,80.9999953823091,2|0,0:0|0:0,0:0:0:0:
351,13,154182,1,8,0:0:0:0:
350,13,154387,2,0,P|352:51|386:70,1,80.9999953823091,8|0,0:1|0:0,0:0:0:0:
483,155,154798,2,0,P|478:101|382:72,1,161.999990764618,10|0,0:0|3:0,0:0:0:0:
353,90,155346,1,0,3:0:0:0:
324,114,155483,1,0,3:0:0:0:
294,138,155620,5,10,0:1:0:0:
175,19,156031,5,10,0:1:0:0:
167,271,156442,5,10,0:1:0:0:
58,65,156853,5,10,0:1:0:0:
331,204,157264,5,10,0:1:0:0:
82,375,157675,5,10,0:1:0:0:
0,217,157880,5,8,0:0:0:0:
2,232,157983,1,8,0:0:0:0:
4,248,158086,1,10,0:0:0:0:
150,108,158291,1,10,0:0:0:0:
454,384,158908,6,0,B|396:348|396:348|436:259,1,161.999990764618,14|0,0:1|0:0,0:0:0:0:
472,196,159319,1,8,0:1:0:0:
360,127,159524,2,0,B|392:124|392:124|400:127|400:127|450:124,1,89.9999976158143,2|8,0:0|0:0,0:0:0:0:
322,43,159935,1,2,0:0:0:0:
275,167,160141,1,8,0:1:0:0:
187,41,160346,2,0,B|131:35|131:35|107:42|107:42|22:33,1,161.999990764618,8|0,0:0|0:0,0:0:0:0:
22,40,160757,2,0,P|0:78|6:122,1,89.9999976158143,8|8,0:1|0:1,0:0:0:0:
124,359,161373,6,0,B|147:379|147:379|164:311|164:311|127:264,1,161.999990764618,10|0,0:0|0:0,0:0:0:0:
74,208,161784,1,10,0:1:0:0:
172,87,161990,1,0,1:0:0:0:
180,93,162093,1,0,1:0:0:0:
188,99,162195,6,0,B|226:103|258:121|258:121|286:102|321:93,1,143.999996185303,10|8,0:1|0:1,0:0:0:0:
449,19,162812,2,0,P|408:17|347:0,1,89.9999976158143,2|8,0:0|0:0,0:0:0:0:
415,146,163223,1,2,0:0:0:0:
511,125,163428,1,8,0:1:0:0:
430,266,163634,2,0,B|414:292|372:306|326:267|334:209|362:165|419:145,1,233.999983089448,8|8,0:0|0:1,0:0:0:0:
512,320,164250,1,8,0:1:0:0:
197,384,164661,5,10,0:0:0:0:
239,269,164867,1,8,0:1:0:0:
162,176,165072,5,10,0:0:0:0:
197,384,165278,1,8,0:0:0:0:
280,154,165483,6,0,B|293:129|293:129|268:82|303:22|303:22|312:39|308:64,1,161.999990764618,14|0,0:1|0:0,0:0:0:0:
250,89,165894,1,8,0:1:0:0:
132,33,166100,2,0,P|82:9|18:25,1,89.9999976158143,2|8,0:0|0:0,0:0:0:0:
132,33,166510,1,2,0:0:0:0:
8,104,166716,1,8,0:1:0:0:
112,194,166921,2,0,P|55:249|50:328,1,161.999990764618,8|0,0:0|0:0,0:0:0:0:
57,337,167332,2,0,L|145:354,1,89.9999976158143,8|8,0:1|0:1,0:0:0:0:
461,328,167949,6,0,P|456:249|400:194,1,161.999990764618,10|0,0:0|0:0,0:0:0:0:
331,162,168360,1,10,0:1:0:0:
425,61,168565,1,0,1:0:0:0:
431,69,168668,1,0,1:0:0:0:
437,76,168771,6,0,B|469:93|469:93|480:32|480:32|513:-2,1,143.999996185303,10|8,0:1|0:1,0:0:0:0:
437,76,169387,2,0,L|342:60,1,89.9999976158143,2|8,0:0|0:0,0:0:0:0:
230,0,169798,1,2,0:0:0:0:
192,143,170004,1,8,0:1:0:0:
41,71,170209,2,0,B|73:68|73:68|79:64|79:64|88:65|88:65|163:57,1,116.999991544724,8|0,0:0|0:0,0:0:0:0:
59,204,170620,2,0,P|53:255|0:258,1,99.0000003986359,8|8,0:1|0:1,0:0:0:0:
350,5,171236,5,8,0:0:0:0:
399,134,171442,1,8,0:3:0:0:
484,6,171647,5,6,0:3:0:0:
262,129,171853,1,8,0:0:0:0:
442,269,172058,6,0,B|470:285|470:285|459:213|459:213|477:156,1,161.999990764618,14|0,0:1|0:0,0:0:0:0:
497,86,172469,1,8,0:1:0:0:
401,13,172675,2,0,B|446:26|446:26|484:6,1,89.9999976158143,2|8,0:0|0:0,0:0:0:0:
356,146,173086,1,2,0:0:0:0:
265,51,173291,1,8,0:1:0:0:
203,210,173497,2,0,B|175:231|175:231|184:165|184:165|173:106,1,161.999990764618,8|0,0:0|0:0,0:0:0:0:
170,97,173908,2,0,B|168:77|168:77|163:69|163:69|160:49|160:49|132:20,1,89.9999976158143,8|8,0:1|0:1,0:0:0:0:
0,252,174524,6,0,B|-28:326|26:366|26:366|83:335,1,161.999990764618,10|0,0:0|0:0,0:0:0:0:
122,310,174935,1,10,0:1:0:0:
289,343,175141,1,0,1:0:0:0:
295,351,175243,1,0,1:0:0:0:
301,359,175346,6,0,B|337:375|337:375|322:317|360:270,1,143.999996185303,10|8,0:1|0:1,0:0:0:0:
433,163,175963,2,0,B|469:160|469:160|483:167|483:167|528:163,1,89.9999976158143,2|8,0:0|0:0,0:0:0:0:
352,105,176373,1,2,0:0:0:0:
443,37,176579,1,8,0:1:0:0:
287,17,176784,2,0,B|223:22|173:44|173:44|124:19|62:13,1,233.999983089448,8|8,0:0|0:1,0:0:0:0:
175,180,177401,1,8,0:1:0:0:
2,356,177812,5,10,0:0:0:0:
22,258,178017,1,8,0:1:0:0:
175,180,178223,5,10,0:0:0:0:
217,374,178428,1,8,0:0:0:0:
359,202,178634,6,0,B|377:180|377:180|348:85|348:85|326:118,1,161.999990764618,14|0,0:1|0:0,0:0:0:0:
286,176,179045,1,8,0:1:0:0:
419,252,179250,2,0,B|456:248|456:248|466:253|466:253|524:248,1,89.9999976158143,2|8,0:0|0:0,0:0:0:0:
329,113,179661,1,2,0:0:0:0:
233,231,179867,1,8,0:1:0:0:
142,100,180072,2,0,B|100:15|100:15|35:63,1,161.999990764618,8|0,0:0|0:0,0:0:0:0:
42,64,180483,2,0,P|27:106|47:163,1,89.9999976158143,8|8,0:1|0:1,0:0:0:0:
256,374,181100,5,10,0:0:0:0:
168,238,181305,1,8,0:1:0:0:
159,269,181408,1,8,0:1:0:0:
140,295,181510,2,0,L|97:315,1,26.9999984607697,8|8,0:0|0:0,0:0:0:0:
20,103,181921,5,10,0:1:0:0:
189,31,182127,2,0,L|297:23,1,89.9999976158143,10|8,0:1|0:1,0:0:0:0:
0,175,182538,5,10,0:1:0:0:
285,100,182743,2,0,L|196:108,1,89.9999976158143,10|8,0:1|0:1,0:0:0:0:
40,31,183154,5,10,0:1:0:0:
202,185,183360,2,0,L|291:177,1,89.9999976158143,10|8,0:1|0:1,0:0:0:0:
116,0,183771,5,10,0:1:0:0:
36,242,183976,1,10,0:1:0:0:
149,273,184182,5,8,0:0:0:0:
149,255,184284,1,8,0:0:0:0:
148,236,184387,1,10,0:0:0:0:
0,313,184593,5,10,0:0:0:0:
101,384,184798,5,8,0:3:0:0:
194,344,185004,5,4,0:3:0:0:
332,379,185209,6,0,L|502:367,1,134.999996423721,14|0,0:1|0:0,0:0:0:0:
477,377,185620,2,0,P|494:330|465:281,1,89.9999976158143,10|0,0:1|0:0,0:0:0:0:
371,233,186031,2,0,P|321:241|293:291,1,89.9999976158143,10|0,0:0|0:0,0:0:0:0:
478,169,186442,2,0,P|495:122|466:73,1,89.9999976158143,2|0,0:0|0:0,0:0:0:0:
323,10,186853,6,0,B|246:63|277:141|277:141|297:124|290:94,1,179.999995231629,10|10,0:1|0:1,0:0:0:0:
290,117,187469,1,8,0:1:0:0:
184,2,187675,1,8,0:0:0:0:
0,179,188086,1,2,0:0:0:0:
177,384,188497,6,0,B|155:350|160:310|160:310|181:286|179:239,1,134.999996423721,10|0,0:1|0:0,0:0:0:0:
177,245,188908,2,0,L|164:151,1,89.9999976158143,10|0,0:1|0:0,0:0:0:0:
52,17,189319,2,0,P|62:58|37:95,1,89.9999976158143,10|0,0:0|0:0,0:0:0:0:
236,2,189730,2,0,P|237:45|273:80,1,89.9999976158143,2|0,0:0|0:0,0:0:0:0:
452,108,190141,6,0,B|482:125|482:125|494:31|494:31|440:-6,1,179.999995231629,10|10,0:1|0:1,0:0:0:0:
452,2,190757,1,8,0:1:0:0:
377,127,190963,2,0,L|389:226,1,89.9999976158143,10|0,0:0|0:0,0:0:0:0:
231,92,191373,2,0,L|219:191,1,89.9999976158143,2|0,0:0|0:0,0:0:0:0:
59,40,191784,6,0,B|64:83|64:83|63:89|63:89|65:93|65:93|73:172,1,134.999996423721,10|0,0:1|0:0,0:0:0:0:
71,186,192195,2,0,P|31:200|1:170,1,89.9999976158143,10|0,0:1|0:0,0:0:0:0:
251,67,192606,2,0,P|210:78|204:121,1,89.9999976158143,10|0,0:0|0:0,0:0:0:0:
307,229,193017,2,0,P|340:257|328:298,1,89.9999976158143,2|0,0:0|0:0,0:0:0:0:
179,377,193428,6,0,L|31:368,1,134.999996423721,10|0,0:1|0:0,0:0:0:0:
34,374,193839,2,0,B|18:385|18:385|-8:278|-8:278|38:225,1,179.999995231629,10|8,0:1|0:0,0:0:0:0:
253,69,194661,1,2,3:0:0:0:
143,23,194867,1,0,3:0:0:0:
265,88,195072,6,0,L|423:78,1,134.999996423721,10|0,0:1|0:0,0:0:0:0:
408,88,195483,2,0,B|433:50|433:50|409:-4,1,89.9999976158143,10|0,0:1|0:0,0:0:0:0:
304,185,195894,2,0,B|279:223|279:223|303:277,1,89.9999976158143,10|0,0:0|0:0,0:0:0:0:
407,364,196305,2,0,L|502:353,1,89.9999976158143,2|0,0:0|0:0,0:0:0:0:
304,185,196716,5,10,0:1:0:0:
203,300,196921,1,8,0:0:0:0:
152,137,197127,1,10,0:1:0:0:
152,137,197538,5,10,0:0:0:0:
96,240,197743,1,8,0:1:0:0:
75,50,197949,5,10,0:0:0:0:
96,240,198154,1,8,0:0:0:0:
235,115,198360,6,0,B|262:60|207:17|207:17|164:44,1,148.500000597954,14|0,0:1|0:0,0:0:0:0:
167,46,198771,2,0,P|121:63|74:49,1,99.0000003986359,10|0,0:1|0:0,0:0:0:0:
239,208,199182,2,0,P|252:161|236:116,1,99.0000003986359,10|0,0:0|0:0,0:0:0:0:
96,240,199593,2,0,P|83:287|99:332,1,99.0000003986359,2|0,0:0|0:0,0:0:0:0:
309,384,200004,6,0,B|355:367|406:372|406:372|450:345|499:337,1,198.000000797272,10|10,0:1|0:1,0:0:0:0:
498,337,200620,1,8,0:1:0:0:
333,287,200826,1,10,0:0:0:0:
505,14,201236,1,2,0:0:0:0:
243,152,201647,6,0,L|408:145,1,148.500000597954,10|0,0:1|0:0,0:0:0:0:
400,151,202058,2,0,P|417:104|384:51,1,99.0000003986359,10|0,0:1|0:0,0:0:0:0:
243,152,202469,2,0,P|226:199|259:252,1,99.0000003986359,10|0,0:0|0:0,0:0:0:0:
349,327,202880,2,0,B|394:329|394:329|403:334|403:334|446:336,1,99.0000003986359,2|0,0:0|0:0,0:0:0:0:
245,241,203291,6,0,B|168:235|168:235|139:243|139:243|40:236,1,198.000000797272,10|10,0:1|0:1,0:0:0:0:
48,237,203908,1,8,0:1:0:0:
188,318,204113,1,8,0:0:0:0:
149,0,204524,1,2,3:0:0:0:
56,29,204730,1,0,3:0:0:0:
197,100,204935,6,0,B|247:95|247:95|257:98|257:98|353:90,1,148.500000597954,10|0,0:1|0:0,0:0:0:0:
355,86,205346,2,0,B|358:60|377:40|377:40|359:27|348:-1,1,99.0000003986359,10|0,0:1|0:0,0:0:0:0:
251,262,205757,2,0,B|242:238|224:225|224:225|243:205|246:179,1,99.0000003986359,10|0,0:0|0:0,0:0:0:0:
387,384,206168,2,0,B|396:359|414:346|414:346|395:326|392:300,1,99.0000003986359,2|0,0:0|0:0,0:0:0:0:
480,174,206579,6,0,P|510:103|471:36,1,148.500000597954,10|0,0:1|0:0,0:0:0:0:
470,38,206990,2,0,B|410:85|349:59|349:59|342:23|299:-4,1,198.000000797272,10|8,0:1|0:0,0:0:0:0:
310,4,207606,1,8,0:1:0:0:
229,164,207812,1,2,3:0:0:0:
172,21,208017,1,0,3:0:0:0:
17,123,208223,6,0,L|202:103,1,148.500000597954,10|0,0:1|0:0,0:0:0:0:
176,110,208634,2,0,P|193:65|171:21,1,99.0000003986359,10|0,0:1|0:0,0:0:0:0:
20,206,209045,2,0,B|10:283|72:331|72:331|95:315|124:316,1,198.000000797272,14|8,0:0|0:1,0:0:0:0:
286,381,209661,5,8,0:0:0:0:
270,377,209764,1,8,0:0:0:0:
254,373,209867,1,8,0:0:0:0:
312,242,210072,6,0,B|362:228|362:228|404:268|482:259,1,161.999990764618,8|4,0:3|0:3,0:0:0:0:
512,48,210689,5,8,0:0:0:0:
481,86,210826,1,8,0:0:0:0:
432,89,210963,1,4,0:3:0:0:
400,120,211100,5,8,0:3:0:0:
379,95,211236,1,8,0:3:0:0:
347,86,211373,1,8,0:3:0:0:
339,96,211510,5,14,0:1:0:0:
382,0,218086,6,0,B|380:64|430:91|430:91|454:72|480:71,1,161.999990764618,14|0,0:1|0:0,0:0:0:0:
480,147,218497,1,8,0:1:0:0:
324,77,218702,2,0,P|275:60|208:57,1,89.9999976158143,2|8,0:0|0:0,0:0:0:0:
324,77,219113,1,2,0:0:0:0:
237,187,219319,1,8,0:1:0:0:
368,294,219524,2,0,B|426:323|426:323|454:220,1,161.999990764618,8|0,0:0|0:0,0:0:0:0:
446,218,219935,2,0,B|408:204|408:204|394:208|394:208|360:197,1,89.9999976158143,8|8,0:1|0:1,0:0:0:0:
143,297,220552,6,0,B|85:326|85:326|56:223,1,161.999990764618,10|0,0:0|0:0,0:0:0:0:
43,158,220963,1,10,0:1:0:0:
138,52,221168,1,0,1:0:0:0:
141,61,221271,1,0,1:0:0:0:
144,70,221373,6,0,B|140:106|109:118|109:118|81:79|34:82,1,143.999996185303,10|8,0:1|0:1,0:0:0:0:
169,185,221990,2,0,L|264:168,1,89.9999976158143,2|8,0:0|0:0,0:0:0:0:
376,83,222401,1,2,0:0:0:0:
350,244,222606,1,8,0:1:0:0:
511,184,222812,2,0,B|482:184|452:192|452:192|431:175|402:163,1,116.999991544724,8|0,0:0|0:0,0:0:0:0:
256,263,223223,2,0,B|261:294|261:294|259:300|259:300|262:304|262:304|274:385,1,99.0000003986359,8|8,0:1|0:1,0:0:0:0:
0,59,223839,5,8,0:0:0:0:
113,170,224045,1,8,0:3:0:0:
84,0,224250,5,6,0:3:0:0:
27,226,224456,1,8,0:0:0:0:
252,137,224661,6,0,B|277:119|277:119|218:62|160:111,1,161.999990764618,14|0,0:1|0:0,0:0:0:0:
113,170,225072,1,8,0:1:0:0:
229,264,225278,2,0,B|265:260|265:260|272:263|272:263|331:259,1,89.9999976158143,2|8,0:0|0:0,0:0:0:0:
197,367,225689,1,2,0:0:0:0:
123,256,225894,1,8,0:1:0:0:
25,369,226100,2,0,B|-5:388|-5:388|16:322|16:322|-1:246,1,161.999990764618,8|0,0:0|0:0,0:0:0:0:
2,255,226510,2,0,B|7:231|7:231|6:218|6:218|15:166,1,89.9999976158143,8|8,0:1|0:1,0:0:0:0:
289,26,227127,6,0,B|278:93|336:123|336:123|351:93|383:82,1,161.999990764618,10|0,0:0|0:0,0:0:0:0:
436,61,227538,1,10,0:1:0:0:
512,198,227743,1,0,1:0:0:0:
507,207,227846,1,0,1:0:0:0:
502,216,227949,6,0,B|464:235|464:235|453:193|453:193|395:146,1,143.999996185303,10|8,0:1|0:1,0:0:0:0:
278,261,228565,2,0,L|273:362,1,89.9999976158143,2|8,0:0|0:0,0:0:0:0:
173,226,228976,1,2,0:0:0:0:
279,151,229182,1,8,0:1:0:0:
162,57,229387,2,0,B|110:3|32:14|5:56|32:125|93:102,1,233.999983089448,8|8,0:0|0:1,0:0:0:0:
242,2,230004,1,8,0:1:0:0:
477,213,230415,5,10,0:0:0:0:
361,154,230620,1,8,0:1:0:0:
243,293,230826,5,10,0:0:0:0:
343,72,231031,1,8,0:0:0:0:
462,291,231236,6,0,B|512:314|512:314|476:212,1,161.999990764618,14|0,0:1|0:0,0:0:0:0:
445,143,231647,1,8,0:1:0:0:
343,72,231853,2,0,B|384:67|384:67|391:70|391:70|432:65,1,89.9999976158143,2|8,0:0|0:0,0:0:0:0:
263,12,232264,1,2,0:0:0:0:
234,161,232469,1,8,0:1:0:0:
89,49,232675,2,0,B|115:20|115:20|186:52|151:120,1,161.999990764618,8|0,0:0|0:0,0:0:0:0:
145,129,233086,2,0,P|105:148|61:143,1,89.9999976158143,8|8,0:1|0:1,0:0:0:0:
336,0,233702,5,10,0:0:0:0:
467,149,233908,1,8,0:1:0:0:
483,120,234010,1,8,0:1:0:0:
499,91,234113,2,0,L|523:48,1,26.9999984607697,8|8,0:0|0:0,0:0:0:0:
368,378,234524,5,10,0:1:0:0:
171,314,234730,2,0,P|157:269|185:208,1,99.0000003986359,10|8,0:1|0:1,0:0:0:0:
369,290,235141,5,10,0:1:0:0:
155,219,235346,2,0,P|138:264|150:313,1,99.0000003986359,10|8,0:1|0:1,0:0:0:0:
374,201,235757,5,10,0:1:0:0:
178,138,235963,2,0,P|164:93|192:32,1,99.0000003986359,10|8,0:1|0:1,0:0:0:0:
376,114,236373,5,10,0:1:0:0:
162,43,236579,2,0,P|145:88|157:137,1,99.0000003986359,10|8,0:1|0:1,0:0:0:0:
