osu file format v14

[General]
AudioFilename: audio.mp3
AudioLeadIn: 0
PreviewTime: 60410
Countdown: 0
SampleSet: Soft
StackLeniency: 0.5
Mode: 0
LetterboxInBreaks: 0
WidescreenStoryboard: 1

[Editor]
Bookmarks: 463,7963,15463,22963,30463,37963,45463,52963,60463,67963,75463,82963,90463
DistanceSpacing: 1.8
BeatDivisor: 6
GridSize: 16
TimelineZoom: 1.92

[Metadata]
Title:Rail Romanesque
TitleUnicode:レイル・ロマネスク
Artist:Nakae Mitsuki
ArtistUnicode:中恵光城
Creator:Kencho
Version:Pure Station
Source:まいてつ -pure station-
Tags:KaedekaShizuru Koiyuki Minakami Yuki Maitetsu Lose opening short ver eroge galgame visual novel 爱上火车 愛上火車
BeatmapID:2002342
BeatmapSetID:850119

[Difficulty]
HPDrainRate:5.1
CircleSize:4.3
OverallDifficulty:8.3
ApproachRate:9.1
SliderMultiplier:1.8
SliderTickRate:1

[Events]
//Background and Video events
Video,-550,"OP1.flv"
0,0,"BG.jpg",0,0
//Break Periods
//Storyboard Layer 0 (Background)
//Storyboard Layer 1 (Fail)
//Storyboard Layer 2 (Pass)
//Storyboard Layer 3 (Foreground)
//Storyboard Layer 4 (Overlay)
//Storyboard Sound Samples

[TimingPoints]
463,312.5,3,2,1,30,1,0
7963,-125,3,2,1,40,0,0
13588,-125,3,2,1,50,0,0
14525,-100,3,2,1,60,0,0
14994,-100,3,2,1,40,0,0
15463,-100,3,2,1,70,0,0
16608,-100,3,2,1,5,0,0
16713,-100,3,2,1,70,0,0
17233,-100,3,2,1,5,0,0
17338,-100,3,2,1,70,0,0
20358,-100,3,2,1,5,0,0
20463,-100,3,2,1,70,0,0
20983,-100,3,2,1,5,0,0
21088,-100,3,2,1,70,0,0
24108,-100,3,2,1,5,0,0
24213,-100,3,2,1,70,0,0
24733,-100,3,2,1,5,0,0
24838,-100,3,2,1,70,0,0
28483,-100,3,2,1,5,0,0
28588,-100,3,2,1,70,0,0
29213,-100,3,2,1,60,0,0
29525,-100,3,2,1,50,0,0
29838,-100,3,2,1,40,0,0
30150,-100,3,2,1,30,0,0
30463,-125,3,2,1,40,0,0
37963,-111.111111111111,3,2,1,50,0,0
44213,-111.111111111111,3,2,1,45,0,0
44525,-111.111111111111,3,2,1,40,0,0
44838,-111.111111111111,3,2,1,35,0,0
45150,-111.111111111111,3,2,1,30,0,0
45463,-100,3,2,1,60,0,0
58588,-100,3,2,1,70,0,0
60150,-100,3,2,1,50,0,0
60463,-83.3333333333333,3,2,1,80,0,1
61608,-83.3333333333333,3,2,1,5,0,1
61713,-83.3333333333333,3,2,1,80,0,1
61817,-83.3333333333333,3,2,1,5,0,1
61921,-83.3333333333333,3,2,1,80,0,1
62233,-83.3333333333333,3,2,1,5,0,1
62338,-83.3333333333333,3,2,1,80,0,1
62754,-83.3333333333333,3,2,1,5,0,1
62858,-83.3333333333333,3,2,1,80,0,1
64421,-83.3333333333333,3,2,1,5,0,1
64525,-83.3333333333333,3,2,1,80,0,1
65358,-83.3333333333333,3,2,1,5,0,1
65463,-83.3333333333333,3,2,1,80,0,1
65983,-83.3333333333333,3,2,1,5,0,1
66088,-83.3333333333333,3,2,1,80,0,1
67233,-83.3333333333333,3,2,1,5,0,1
67338,-83.3333333333333,3,2,1,80,0,1
67442,-83.3333333333333,3,2,1,5,0,1
67546,-83.3333333333333,3,2,1,80,0,1
69108,-83.3333333333333,3,2,1,5,0,1
69213,-83.3333333333333,3,2,1,80,0,1
69317,-83.3333333333333,3,2,1,5,0,1
69421,-83.3333333333333,3,2,1,80,0,1
69733,-83.3333333333333,3,2,1,5,0,1
69838,-83.3333333333333,3,2,1,80,0,1
70254,-83.3333333333333,3,2,1,5,0,1
70358,-83.3333333333333,3,2,1,80,0,1
72858,-83.3333333333333,3,2,1,5,0,1
72963,-83.3333333333333,3,2,1,80,0,1
73067,-83.3333333333333,3,2,1,5,0,1
73171,-83.3333333333333,3,2,1,80,0,1
73483,-83.3333333333333,3,2,1,5,0,1
73588,-83.3333333333333,3,2,1,80,0,1
75150,-83.3333333333333,3,2,1,60,0,1
75410,-83.3333333333333,3,2,1,60,0,0
75463,-83.3333333333333,3,2,1,80,0,1
76608,-83.3333333333333,3,2,1,5,0,1
76713,-83.3333333333333,3,2,1,80,0,1
76817,-83.3333333333333,3,2,1,5,0,1
76921,-83.3333333333333,3,2,1,80,0,1
77233,-83.3333333333333,3,2,1,5,0,1
77338,-83.3333333333333,3,2,1,80,0,1
77754,-83.3333333333333,3,2,1,5,0,1
77858,-83.3333333333333,3,2,1,80,0,1
79421,-83.3333333333333,3,2,1,5,0,1
79525,-83.3333333333333,3,2,1,80,0,1
80358,-83.3333333333333,3,2,1,5,0,1
80463,-83.3333333333333,3,2,1,80,0,1
80983,-83.3333333333333,3,2,1,5,0,1
81088,-83.3333333333333,3,2,1,80,0,1
82442,-83.3333333333333,3,2,1,5,0,1
82546,-83.3333333333333,3,2,1,80,0,1
84108,-83.3333333333333,3,2,1,5,0,1
84213,-83.3333333333333,3,2,1,80,0,1
84317,-83.3333333333333,3,2,1,5,0,1
84421,-83.3333333333333,3,2,1,80,0,1
84733,-83.3333333333333,3,2,1,5,0,1
84838,-83.3333333333333,3,2,1,80,0,1
85254,-83.3333333333333,3,2,1,5,0,1
85358,-83.3333333333333,3,2,1,80,0,1
87858,-83.3333333333333,3,2,1,5,0,1
87963,-83.3333333333333,3,2,1,80,0,1
88067,-83.3333333333333,3,2,1,5,0,1
88171,-83.3333333333333,3,2,1,80,0,1
88483,-83.3333333333333,3,2,1,5,0,1
88588,-83.3333333333333,3,2,1,80,0,1
90150,-83.3333333333333,3,2,1,60,0,1
90463,-100,3,2,1,80,0,0
90515,-100,3,2,1,40,0,0
92025,-100,3,2,1,25,0,0
94213,-100,3,2,1,10,0,0

[Colours]
Combo1 : 160,160,160
Combo2 : 255,64,48
Combo3 : 255,160,32
Combo4 : 72,56,56

[HitObjects]
89,295,7963,6,0,B|169:313|149:269|229:287,1,144,10|0,3:1|0:0,0:0:0:0:
313,335,8483,1,0,3:0:0:0:
313,335,8588,2,0,P|325:294|315:243,1,96,4|0,3:0|3:0,0:0:0:0:
232,149,8900,2,0,P|214:210|230:287,1,144,8|0,3:2|3:0,0:0:0:0:
318,103,9525,1,0,3:0:0:0:
453,240,9838,6,0,P|391:258|315:242,1,144,4|0,3:0|3:0,0:0:0:0:
168,82,10463,1,4,3:0:0:0:
31,335,10775,2,0,B|198:290|140:382|312:335,1,288,8|8,3:2|3:1,0:0:0:0:
426,271,11713,6,0,P|339:322|438:301,1,288,8|4,3:1|3:0,0:0:0:0:
340,61,12650,2,0,P|426:112|327:91,1,288,8|0,3:2|3:0,0:0:0:0:
217,21,13588,5,10,3:2:0:0:
217,21,14056,2,2,B|192:113|242:93|217:185,1,168,0|0,0:0|0:0,0:0:0:0:
138,140,14525,5,8,0:3:0:0:
296,66,14733,1,8,0:3:0:0:
296,66,14994,6,0,L|301:95,8,30,0|0|0|0|0|0|0|0|0,3:0|0:0|0:0|0:0|0:0|0:0|0:0|0:0|0:0,0:0:0:0:
381,18,15463,6,0,L|371:148,1,120,6|0,3:2|3:0,0:0:0:0:
133,11,15983,1,8,0:0:0:0:
133,11,16088,2,0,L|143:141,1,120,2|2,3:0|0:3,0:0:0:0:
204,191,16400,6,0,B|150:218|150:218|94:200,1,120,2|0,3:2|0:0,0:0:0:0:
15,177,16713,2,0,B|65:210|65:210|77:267,1,120,2|8,3:0|0:0,0:0:0:0:
98,348,17025,2,0,B|101:287|101:287|145:248,1,120,2|0,3:0|0:0,0:0:0:0:
318,188,17338,6,0,B|283:207|283:207|205:191,1,120,2|0,3:2|3:0,0:0:0:0:
152,93,17650,2,0,L|269:117,1,120,0|8,3:0|0:0,0:0:0:0:
351,41,17963,2,0,L|234:17,1,120,2|2,3:0|0:3,0:0:0:0:
152,93,18275,5,2,3:2:0:0:
317,188,18483,1,8,0:0:0:0:
317,188,18588,1,2,3:0:0:0:
464,67,18796,1,8,0:0:0:0:
464,67,18900,1,2,3:0:0:0:
464,67,19213,6,0,P|411:40|352:41,1,120,2|0,3:2|3:0,0:0:0:0:
284,337,19733,1,8,0:0:0:0:
284,337,19838,2,0,P|337:364|396:363,1,120,2|2,3:0|0:3,0:0:0:0:
485,250,20150,6,0,B|430:232|430:232|385:274,1,120,2|0,3:2|0:0,0:0:0:0:
306,243,20463,2,0,B|349:204|349:204|335:144,1,120,2|8,3:0|0:0,0:0:0:0:
401,91,20775,2,0,B|412:147|412:147|471:165,1,120,2|0,3:0|0:0,0:0:0:0:
442,22,21088,6,0,P|383:11|335:45,1,120,2|0,3:2|3:0,0:0:0:0:
335,144,21400,2,0,B|294:136|294:136|285:140|285:140|219:124,1,120,0|8,1:0|0:0,0:0:0:0:
172,58,21713,2,0,P|151:79|140:106,2,60,0|0|2,3:0|1:0|1:3,0:0:0:0:
195,189,22025,6,0,B|154:181|154:181|145:185|145:185|79:169,1,120,2|0,3:2|3:0,0:0:0:0:
29,105,22338,1,2,3:0:0:0:
245,253,22546,1,8,3:2:0:0:
245,253,22650,1,2,3:0:0:0:
245,253,22963,6,0,P|278:248|328:183,1,120,2|0,3:2|3:0,0:0:0:0:
456,382,23483,1,8,0:0:0:0:
456,382,23588,2,0,P|423:377|373:312,1,120,2|2,3:0|0:3,0:0:0:0:
463,177,23900,6,0,L|457:296,1,120,2|0,3:2|0:0,0:0:0:0:
379,226,24213,2,0,L|385:107,1,120,2|8,3:0|0:0,0:0:0:0:
307,35,24525,2,0,L|301:154,1,120,2|0,3:0|0:0,0:0:0:0:
232,242,24838,6,0,P|174:248|121:221,1,120,2|0,3:2|3:0,0:0:0:0:
80,118,25150,2,0,P|104:64|154:32,1,120,0|8,3:0|0:0,0:0:0:0:
264,48,25463,2,0,P|298:95|301:156,1,120,2|2,3:0|0:3,0:0:0:0:
232,242,25775,5,2,3:2:0:0:
80,118,25983,1,8,3:2:0:0:
80,118,26088,1,2,3:0:0:0:
264,48,26296,1,8,3:2:0:0:
264,48,26400,2,0,B|307:42|307:42|315:46|315:46|385:37,1,120,2|0,3:0|0:0,0:0:0:0:
461,25,26713,6,0,P|422:44|413:115,1,120,2|0,3:2|3:0,0:0:0:0:
493,384,27233,1,8,0:0:0:0:
493,384,27338,2,0,L|481:263,1,120,2|2,3:0|0:0,0:0:0:0:
472,175,27650,5,2,3:2:0:0:
297,363,27963,1,2,3:0:0:0:
208,153,28171,1,8,0:0:0:0:
208,153,28275,2,0,P|262:128|320:136,1,120,2|0,3:0|0:0,0:0:0:0:
391,208,28588,5,2,3:2:0:0:
411,31,28796,2,0,B|397:124|397:124|402:135|402:135|391:208,1,180,0|8,3:0|0:0,0:0:0:0:
373,328,29213,5,0,3:0:0:0:
349,290,29317,1,0,1:0:0:0:
306,278,29421,1,2,1:3:0:0:
264,293,29525,5,2,3:2:0:0:
232,324,29629,1,0,1:0:0:0:
187,326,29733,1,8,1:2:0:0:
150,298,29838,5,0,3:0:0:0:
138,254,29942,1,0,1:0:0:0:
159,214,30046,1,2,1:3:0:0:
199,195,30150,6,0,P|230:146|226:87,1,120,0|2,3:0|1:3,0:0:0:0:
176,2,30463,5,6,3:2:0:0:
429,138,31088,1,4,0:3:0:0:
432,121,31400,1,4,0:3:0:0:
274,303,31921,1,0,0:0:0:0:
274,303,32077,2,0,P|267:278|278:228,1,72,0|0,0:0|0:0,0:0:0:0:
320,166,32338,6,0,B|287:191|287:191|159:181,1,168,0|0,3:0|0:0,0:0:0:0:
73,378,33015,2,0,P|96:330|90:264,1,120,0|4,0:0|0:3,0:0:0:0:
19,108,33588,1,4,3:0:0:0:
125,179,33796,1,4,0:3:0:0:
125,179,33900,2,0,L|27:191,1,96,0|4,0:0|0:3,0:0:0:0:
140,96,34213,6,0,P|194:132|203:212,1,144,0|0,3:0|0:0,0:0:0:0:
116,320,34838,1,0,0:0:0:0:
279,244,35098,2,0,L|286:272,2,24,0|0|0,3:0|3:0|3:0,0:0:0:0:
304,347,35410,1,4,3:0:0:0:
189,384,35671,1,4,3:0:0:0:
189,384,35827,2,0,L|204:311,1,72,0|0,0:0|0:0,0:0:0:0:
148,234,36088,6,0,B|59:257|59:257|11:239,1,144,0|4,3:0|0:3,0:0:0:0:
57,65,36713,1,0,0:0:0:0:
148,234,37025,1,0,0:0:0:0:
249,70,37338,1,4,0:1:0:0:
249,70,37963,6,0,L|230:230,1,161.999995056153,6|4,3:0|0:3,0:0:0:0:
217,338,38483,1,0,3:0:0:0:
217,338,38588,2,0,P|265:333|313:299,1,107.999996704102,4|0,0:3|1:0,0:0:0:0:
309,218,38900,1,4,0:3:0:0:
471,220,39213,1,6,3:0:0:0:
415,128,39421,1,0,0:0:0:0:
415,128,39525,2,0,P|384:110|336:109,1,80.9999975280763,4|0,0:3|0:0,0:0:0:0:
262,135,39838,5,6,3:0:0:0:
360,312,40150,1,4,0:3:0:0:
204,268,40358,1,4,3:0:0:0:
204,268,40463,2,0,P|243:245|309:262,1,107.999996704102,4|4,3:0|0:3,0:0:0:0:
360,312,40775,1,4,3:0:0:0:
455,217,40983,2,0,L|444:162,1,53.9999983520508,4|4,3:0|3:0,0:0:0:0:
416,32,41296,2,0,P|366:84|283:58,1,161.999995056153,4|0,3:0|0:0,0:0:0:0:
234,0,41713,5,4,3:0:0:0:
247,201,42025,2,0,P|238:255|208:297,1,107.999996704102,4|4,0:3|3:0,0:0:0:0:
129,320,42338,1,4,0:3:0:0:
284,367,42650,1,6,3:0:0:0:
65,384,42963,2,0,P|42:334|49:281,1,107.999996704102,2|0,0:3|3:0,0:0:0:0:
94,216,43275,2,0,P|99:163|77:114,1,107.999996704102,6|0,0:3|0:0,0:0:0:0:
0,179,43588,6,0,L|166:155,1,161.999995056153,6|4,3:0|0:3,0:0:0:0:
211,224,44108,1,4,0:3:0:0:
211,224,44213,6,0,L|202:277,2,53.9999983520508,4|0|0,3:0|1:0|1:0,0:0:0:0:
249,142,44525,2,0,L|240:89,2,53.9999983520508,4|0|0,3:0|1:0|1:0,0:0:0:0:
300,209,44838,2,0,L|291:262,2,53.9999983520508,4|0|0,3:0|1:0|1:0,0:0:0:0:
338,127,45150,2,0,L|329:74,2,53.9999983520508,4|0|0,3:0|1:0|1:0,0:0:0:0:
300,209,45463,6,0,B|405:230|368:176|475:196,1,180,6|4,3:2|0:3,0:0:0:0:
439,379,45983,1,4,0:3:0:0:
439,379,46088,2,0,P|411:343|431:274,1,120,4|0,0:3|0:0,0:0:0:0:
505,227,46400,1,6,0:3:0:0:
307,118,46713,1,6,3:0:0:0:
253,289,46921,1,0,0:0:0:0:
253,289,47025,2,0,L|233:171,1,120,4|0,0:3|0:0,0:0:0:0:
220,92,47338,5,6,3:0:0:0:
253,289,47650,1,4,0:3:0:0:
146,145,47858,1,4,0:3:0:0:
146,145,47963,2,0,L|167:268,1,120,0|4,0:0|0:3,0:0:0:0:
179,342,48275,5,6,3:0:0:0:
239,205,48483,1,4,3:0:0:0:
239,205,48588,1,4,3:0:0:0:
167,370,48796,2,0,B|209:365|209:365|218:370|218:370|344:356,1,180,4|0,3:0|3:0,0:0:0:0:
434,370,49213,5,10,3:1:0:0:
448,100,49525,2,0,L|479:216,1,120,4|4,0:3|0:3,0:0:0:0:
503,304,49838,2,0,P|446:301|400:261,1,120,4|0,0:3|3:0,0:0:0:0:
391,217,50098,1,0,3:0:0:0:
391,217,50150,1,4,0:3:0:0:
278,257,50358,2,0,P|270:228|270:198,1,60,0|2,3:0|0:3,0:0:0:0:
160,95,50671,1,0,3:0:0:0:
160,95,50775,2,0,P|174:142|149:208,1,120,6|0,0:3|0:0,0:0:0:0:
72,253,51088,5,6,3:0:0:0:
108,32,51400,1,4,0:3:0:0:
264,121,51608,1,0,3:0:0:0:
264,121,51713,2,0,P|315:129|376:95,1,120,4|0,0:3|0:0,0:0:0:0:
304,41,52025,1,6,3:0:0:0:
492,133,52233,1,0,1:0:0:0:
492,133,52338,1,4,3:1:0:0:
360,296,52546,1,0,3:0:0:0:
360,296,52650,2,0,P|335:245|359:191,1,120,4|0,3:0|3:0,0:0:0:0:
492,133,52963,6,0,B|432:139|432:139|379:109|379:109|321:115,1,180,10|4,3:1|0:3,0:0:0:0:
226,189,53483,1,4,0:3:0:0:
226,189,53588,2,0,P|204:144|208:75,1,120,4|0,0:3|0:0,0:0:0:0:
286,31,53900,1,6,0:3:0:0:
215,292,54213,1,6,3:3:0:0:
83,129,54421,1,0,0:0:0:0:
83,129,54525,2,0,L|63:249,1,120,4|0,0:3|0:0,0:0:0:0:
50,326,54838,5,6,3:0:0:0:
167,83,55150,1,4,0:3:0:0:
298,247,55358,1,4,3:0:0:0:
298,247,55463,2,0,B|357:258|357:258|410:231,1,120,4|4,3:0|0:3,0:0:0:0:
438,145,55775,1,6,0:3:0:0:
335,106,55983,2,0,L|339:135,1,30,4|0,3:0|3:0,0:0:0:0:
464,323,56296,2,0,L|438:145,1,180,4|4,3:0|3:0,0:0:0:0:
425,55,56713,5,10,3:1:0:0:
228,163,57025,2,0,P|173:167|119:136,1,120,4|4,0:3|3:0,0:0:0:0:
195,63,57338,1,4,0:3:0:0:
139,280,57650,1,6,3:0:0:0:
341,146,57963,2,0,P|283:138|229:162,1,120,2|0,0:3|3:0,0:0:0:0:
246,281,58275,2,0,P|304:289|358:265,1,120,6|0,0:3|0:0,0:0:0:0:
453,190,58588,5,8,3:2:0:0:
453,190,59213,5,4,3:3:0:0:
449,175,59317,1,0,1:0:0:0:
445,160,59421,1,0,1:0:0:0:
407,172,59525,5,8,3:0:0:0:
378,167,59629,1,0,1:0:0:0:
349,162,59733,1,8,1:3:0:0:
311,174,59838,5,0,3:0:0:0:
282,169,59942,1,0,1:0:0:0:
253,164,60046,1,0,1:0:0:0:
215,176,60150,6,0,L|186:171,5,30,0|0|0|0|0|0,3:0|0:0|0:0|0:0|0:0|0:0,0:0:0:0:
134,99,60463,6,0,L|277:85,1,143.999995605469,6|0,3:2|3:0,0:0:0:0:
41,306,60983,1,8,0:0:0:0:
41,306,61088,2,0,L|184:320,1,143.999995605469,2|2,3:0|0:3,0:0:0:0:
281,368,61400,6,0,P|267:299|301:237,1,143.999995605469,2|0,3:2|0:0,0:0:0:0:
379,127,61713,2,0,P|344:153|308:153,1,71.9999978027344,2|0,3:0|0:0,0:0:0:0:
134,99,61921,1,8,0:0:0:0:
134,99,62025,2,0,P|201:122|237:182,1,143.999995605469,2|0,3:0|0:0,0:0:0:0:
340,265,62338,6,0,P|273:242|237:182,1,143.999995605469,2|0,3:2|3:0,0:0:0:0:
285,91,62650,2,0,P|301:115|317:155,1,71.9999978027344,0|0,1:0|0:0,0:0:0:0:
221,264,62858,1,8,0:0:0:0:
221,264,62963,2,0,B|136:276|168:228|82:238,1,143.999995605469,2|2,3:0|0:3,0:0:0:0:
23,297,63275,5,2,3:2:0:0:
201,182,63483,5,8,0:0:0:0:
221,264,63588,1,2,3:0:0:0:
104,320,63796,5,8,0:0:0:0:
84,238,63900,1,2,3:0:0:0:
84,238,64213,6,0,B|50:99,1,143.999995605469,2|0,3:2|0:0,0:0:0:0:
28,11,64525,1,0,0:0:0:0:
163,163,64733,1,8,0:0:0:0:
163,163,64838,2,0,P|210:174|297:111,1,143.999995605469,2|2,3:0|0:3,0:0:0:0:
395,316,65150,6,0,P|353:260|362:191,1,143.999995605469,2|0,3:2|0:0,0:0:0:0:
472,4,65463,6,0,P|444:69|379:95,1,143.999995605469,2|8,3:0|0:0,0:0:0:0:
163,93,65775,6,0,P|233:85|288:127,1,143.999995605469,2|0,3:0|0:0,0:0:0:0:
88,139,66088,6,0,B|75:98|75:98|96:0,1,143.999995605469,2|0,3:2|3:0,0:0:0:0:
163,93,66400,2,0,P|198:93|229:76,2,71.9999978027344,0|0|8,3:0|0:0|0:0,0:0:0:0:
289,20,66713,2,0,P|324:20|355:37,2,71.9999978027344,0|0|2,3:0|0:0|0:0,0:0:0:0:
319,136,67025,6,0,L|463:108,1,143.999995605469,2|0,3:2|0:0,0:0:0:0:
285,215,67338,2,0,L|191:197,1,71.9999978027344,2|0,3:0|0:0,0:0:0:0:
296,301,67546,1,8,0:0:0:0:
366,248,67650,1,2,3:0:0:0:
366,248,67963,6,0,P|421:288|406:355,1,143.999995605469,2|0,3:2|3:0,0:0:0:0:
83,327,68483,1,8,0:0:0:0:
83,327,68588,2,0,L|111:183,1,143.999995605469,2|2,3:0|0:3,0:0:0:0:
39,61,68900,6,0,B|75:79|75:79|179:65,1,143.999995605469,2|0,3:2|0:0,0:0:0:0:
323,43,69213,2,0,B|294:23|294:23|238:27,1,71.9999978027344,2|0,3:0|0:0,0:0:0:0:
312,132,69421,1,8,0:0:0:0:
312,132,69525,2,0,P|380:111|409:49,1,143.999995605469,2|0,3:0|0:0,0:0:0:0:
474,119,69838,6,0,L|461:262,1,143.999995605469,2|0,3:2|3:0,0:0:0:0:
345,325,70150,2,0,L|336:230,1,71.9999978027344,0|0,1:0|0:0,0:0:0:0:
225,138,70358,1,8,0:0:0:0:
225,138,70463,2,0,L|212:281,1,143.999995605469,2|2,3:0|0:3,0:0:0:0:
96,344,70775,5,2,3:2:0:0:
19,142,70983,5,8,3:2:0:0:
103,211,71088,1,2,3:0:0:0:
301,74,71296,5,8,3:2:0:0:
249,208,71400,1,2,3:0:0:0:
249,208,71713,6,0,L|394:193,1,143.999995605469,2|0,3:2|3:0,0:0:0:0:
120,359,72233,1,8,0:0:0:0:
120,359,72338,2,0,P|93:294|106:223,1,143.999995605469,2|2,3:0|0:0,0:0:0:0:
190,295,72650,6,0,B|221:310|221:310|258:270|249:209,1,143.999995605469,2|0,3:2|0:0,0:0:0:0:
193,56,72963,2,0,P|186:76|186:152,1,71.9999978027344,2|0,3:0|0:0,0:0:0:0:
329,262,73171,1,8,0:0:0:0:
329,262,73275,2,0,P|346:202|307:130,1,143.999995605469,2|0,3:0|0:0,0:0:0:0:
249,208,73588,5,2,3:2:0:0:
303,57,73796,2,0,B|442:32|398:102|512:76,1,215.999993408203,0|8,3:0|0:0,0:0:0:0:
468,3,74213,5,0,3:0:0:0:
432,3,74317,1,0,1:0:0:0:
399,17,74421,1,2,1:3:0:0:
380,48,74525,5,2,3:2:0:0:
397,79,74629,1,0,1:0:0:0:
426,100,74733,1,8,1:2:0:0:
462,103,74838,5,0,3:0:0:0:
480,71,74942,1,0,1:0:0:0:
484,36,75046,1,2,1:3:0:0:
468,3,75150,6,0,L|430:11,5,35.9999989013672,2|0|0|0|0|0,3:0|0:0|0:0|0:0|0:0|0:0,0:0:0:0:
327,55,75463,6,0,B|285:47|285:47|276:52|276:52|187:35,1,143.999995605469,6|0,3:2|3:0,0:0:0:0:
18,311,75983,1,8,0:0:0:0:
18,311,76088,2,0,B|60:319|60:319|69:314|69:314|158:331,1,143.999995605469,2|2,3:0|0:3,0:0:0:0:
252,384,76400,6,0,B|239:359|239:359|243:300|290:258,1,143.999995605469,2|0,3:2|0:0,0:0:0:0:
425,266,76713,2,0,P|397:288|363:298,1,71.9999978027344,2|0,3:0|0:0,0:0:0:0:
271,119,76921,1,8,0:0:0:0:
271,119,77025,2,0,B|299:120|299:120|348:153|361:214,1,143.999995605469,2|0,3:0|0:0,0:0:0:0:
207,194,77338,6,0,B|162:183|162:183|117:194|117:194|68:180,1,143.999995605469,2|0,3:2|3:0,0:0:0:0:
106,47,77650,2,0,P|121:82|120:118,1,71.9999978027344,0|0,1:0|0:0,0:0:0:0:
13,237,77858,1,8,0:0:0:0:
13,237,77963,2,0,L|39:89,1,143.999995605469,2|2,3:0|0:3,0:0:0:0:
81,286,78275,5,2,3:2:0:0:
201,239,78483,5,8,0:0:0:0:
149,335,78588,1,2,3:0:0:0:
306,323,78796,5,8,0:0:0:0:
217,384,78900,1,2,3:0:0:0:
217,384,79213,6,0,B|360:367,1,143.999995605469,2|0,3:2|0:0,0:0:0:0:
449,355,79525,1,0,0:0:0:0:
340,148,79733,1,8,0:0:0:0:
340,148,79838,2,0,P|317:180|334:286,1,143.999995605469,2|2,3:0|0:3,0:0:0:0:
414,86,80150,6,0,P|352:53|284:70,1,143.999995605469,2|0,3:2|0:0,0:0:0:0:
261,253,80463,6,0,P|321:215|340:148,1,143.999995605469,2|8,3:0|0:0,0:0:0:0:
193,37,80775,6,0,P|195:107|245:158,1,143.999995605469,2|0,3:0|0:0,0:0:0:0:
401,248,81088,6,0,B|360:234|360:234|261:253,1,143.999995605469,2|0,3:2|3:0,0:0:0:0:
193,301,81400,2,0,P|179:268|180:233,2,71.9999978027344,0|0|8,3:0|0:0|0:0,0:0:0:0:
200,384,81713,2,0,P|165:380|134:361,2,71.9999978027344,0|0|2,3:0|0:0|0:0,0:0:0:0:
268,336,82025,6,0,B|347:316|325:369|409:345,1,143.999995605469,2|0,3:2|0:0,0:0:0:0:
411,213,82338,2,0,P|379:248|376:291,1,71.9999978027344,2|0,3:0|0:0,0:0:0:0:
499,189,82546,1,8,0:0:0:0:
434,125,82650,1,2,3:0:0:0:
434,125,82963,6,0,B|407:112|407:112|349:117|317:173,1,143.999995605469,2|0,3:2|3:0,0:0:0:0:
81,124,83483,1,8,0:0:0:0:
81,124,83588,2,0,B|108:111|108:111|166:116|198:172,1,143.999995605469,2|2,3:0|0:3,0:0:0:0:
221,301,83900,6,0,P|184:241|198:173,1,143.999995605469,2|0,3:2|0:0,0:0:0:0:
351,212,84213,2,0,P|314:226|276:222,1,71.9999978027344,2|0,3:0|0:0,0:0:0:0:
259,95,84421,1,8,0:0:0:0:
259,95,84525,2,0,P|296:155|282:223,1,143.999995605469,2|0,3:0|0:0,0:0:0:0:
196,326,84838,6,0,B|169:339|169:339|111:334|79:278,1,143.999995605469,2|0,3:2|3:0,0:0:0:0:
24,132,85150,2,0,P|60:130|92:144,1,71.9999978027344,0|0,1:0|0:0,0:0:0:0:
21,348,85358,1,8,0:0:0:0:
21,348,85463,2,0,L|46:207,1,143.999995605469,2|2,3:0|0:3,0:0:0:0:
69,77,85775,5,2,3:2:0:0:
115,287,85983,5,8,3:2:0:0:
153,185,86088,1,2,3:0:0:0:
386,240,86296,5,8,3:2:0:0:
340,104,86400,1,2,3:0:0:0:
340,104,86713,6,0,P|411:93|472:126,1,143.999995605469,2|0,3:2|3:0,0:0:0:0:
245,356,87233,1,8,0:0:0:0:
245,356,87338,2,0,P|174:367|113:334,1,143.999995605469,2|2,3:0|0:0,0:0:0:0:
138,198,87650,6,0,P|209:187|270:220,1,143.999995605469,2|0,3:2|0:0,0:0:0:0:
63,248,87963,2,0,P|48:203|57:160,1,71.9999978027344,2|0,3:0|0:0,0:0:0:0:
119,96,88171,1,8,0:0:0:0:
119,96,88275,2,0,P|190:107|251:74,1,143.999995605469,2|0,3:0|0:0,0:0:0:0:
171,0,88588,5,2,3:2:0:0:
50,179,88796,2,0,P|54:270|163:302,1,215.999993408203,0|8,3:0|0:0,0:0:0:0:
159,200,89213,5,0,3:0:0:0:
144,210,89317,1,0,1:0:0:0:
129,220,89421,1,2,1:3:0:0:
126,184,89525,5,2,3:2:0:0:
162,122,89629,1,0,1:0:0:0:
233,114,89733,1,8,1:2:0:0:
289,160,89838,5,0,3:0:0:0:
279,231,89942,1,0,1:0:0:0:
269,302,90046,1,2,1:3:0:0:
264,338,90150,6,0,L|260:373,5,35.9999989013672,2|0|0|0|0|0,3:0|0:0|0:0|0:0|0:0|0:0,0:0:0:0:
339,278,90463,5,6,3:2:0:0:
256,192,90515,12,0,94213,0:0:0:0:
