osu file format v14

[General]
AudioFilename: audio.mp3
AudioLeadIn: 0
PreviewTime: 60410
Countdown: 0
SampleSet: Soft
StackLeniency: 0.7
Mode: 0
LetterboxInBreaks: 0
WidescreenStoryboard: 1

[Editor]
Bookmarks: 463,7963,15463,22963,30463,37963,45463,52963,60463,67963,75463,82963,90463
DistanceSpacing: 2
BeatDivisor: 6
GridSize: 8
TimelineZoom: 1.92

[Metadata]
Title:Rail Romanesque
TitleUnicode:レイル・ロマネスク
Artist:Nakae Mitsuki
ArtistUnicode:中恵光城
Creator:Kencho
Version:Koiyuki's Hard
Source:まいてつ -pure station-
Tags:KaedekaShizuru Koiyuki Minakami Yuki Maitetsu Lose opening short ver eroge galgame visual novel 爱上火车 愛上火車
BeatmapID:1785104
BeatmapSetID:850119

[Difficulty]
HPDrainRate:5
CircleSize:4
OverallDifficulty:5.5
ApproachRate:7
SliderMultiplier:1.4
SliderTickRate:1

[Events]
//Background and Video events
Video,-550,"OP1.flv"
0,0,"BG.jpg",0,0
//Break Periods
//Storyboard Layer 0 (Background)
//Storyboard Layer 1 (Fail)
//Storyboard Layer 2 (Pass)
//Storyboard Layer 3 (Foreground)
//Storyboard Layer 4 (Overlay)
//Storyboard Sound Samples

[TimingPoints]
463,312.5,3,2,1,30,1,0
7963,-166.666666666667,3,2,1,40,0,0
13588,-166.666666666667,3,2,1,50,0,0
14525,-166.666666666667,3,2,1,60,0,0
14994,-166.666666666667,3,2,1,40,0,0
15463,-133.333333333333,3,2,1,70,0,0
29213,-133.333333333333,3,2,1,60,0,0
29525,-133.333333333333,3,2,1,50,0,0
29838,-133.333333333333,3,2,1,40,0,0
30150,-133.333333333333,3,2,1,30,0,0
30463,-333.333333333333,3,2,1,40,0,0
37963,-166.666666666667,3,2,1,50,0,0
44213,-166.666666666667,3,2,1,45,0,0
44525,-166.666666666667,3,2,1,40,0,0
44838,-166.666666666667,3,2,1,35,0,0
45150,-166.666666666667,3,2,1,30,0,0
45463,-133.333333333333,3,2,1,60,0,0
58588,-133.333333333333,3,2,1,70,0,0
60150,-133.333333333333,3,2,1,50,0,0
60463,-133.333333333333,3,2,1,80,0,1
75150,-133.333333333333,3,2,1,60,0,1
75410,-133.333333333333,3,2,1,60,0,0
75463,-133.333333333333,3,2,1,80,0,1
90150,-133.333333333333,3,2,1,60,0,1
90463,-133.333333333333,3,2,1,80,0,0
90515,-133.333333333333,3,2,1,40,0,0
92025,-133.333333333333,3,2,1,25,0,0
94213,-133.333333333333,3,2,1,10,0,0

[Colours]
Combo1 : 160,160,160
Combo2 : 255,64,48
Combo3 : 255,160,32
Combo4 : 72,56,56

[HitObjects]
183,255,7963,6,0,P|133:229|64:227,1,125.999996154785,10|0,3:1|0:0,0:0:0:0:
10,162,8588,2,0,L|51:152,1,41.9999987182618,4|0,3:0|0:0,0:0:0:0:
117,100,8900,2,0,P|124:60|126:6,2,83.9999974365235,8|0|0,3:2|3:0|3:0,0:0:0:0:
183,255,9838,6,0,P|176:295|174:349,2,83.9999974365235,4|0|4,3:0|3:0|3:0,0:0:0:0:
286,182,10775,2,0,P|341:179|404:146,1,125.999996154785,8|0,3:2|0:0,0:0:0:0:
471,97,11400,2,0,L|480:139,1,41.9999987182618,8|0,3:1|0:0,0:0:0:0:
435,236,11713,6,0,P|357:183|286:182,1,167.999994873047,8|4,3:1|3:0,0:0:0:0:
163,67,12650,2,0,P|110:145|109:216,1,167.999994873047,8|0,3:2|3:0,0:0:0:0:
217,171,13588,5,10,3:2:0:0:
85,122,14056,2,2,P|-6:196|111:213,1,293.999991027832,0|0,0:0|0:0,0:0:0:0:
217,171,15463,6,0,P|252:173|286:182,1,70,6|0,3:2|3:0,0:0:0:0:
348,301,15983,1,8,0:0:0:0:
348,301,16088,2,0,L|436:288,1,70,2|2,3:0|0:3,0:0:0:0:
453,269,16400,2,0,P|469:317|462:371,2,105.000004005432,2|2|2,3:2|3:0|3:0,0:0:0:0:
309,227,17338,6,0,L|205:242,2,105.000004005432,2|0|2,3:2|3:0|3:0,0:0:0:0:
407,114,18275,2,0,P|417:80|414:46,1,70,2|8,3:2|0:0,0:0:0:0:
439,11,18588,2,0,P|446:44|466:73,1,70,2|8,3:0|0:0,0:0:0:0:
502,95,18900,1,2,3:0:0:0:
334,70,19213,6,0,L|264:80,1,70,2|0,3:2|3:0,0:0:0:0:
184,205,19733,1,8,0:0:0:0:
184,205,19838,2,0,P|171:244|171:281,1,70,2|2,3:0|0:3,0:0:0:0:
181,313,20150,2,0,P|138:295|81:296,2,105.000004005432,2|2|2,3:2|3:0|3:0,0:0:0:0:
272,172,21088,6,0,L|262:68,2,105.000004005432,2|0|0,3:2|1:0|3:0,0:0:0:0:
131,124,22025,2,0,L|123:40,1,70,2|0,3:2|3:0,0:0:0:0:
130,12,22338,2,0,P|100:27|47:35,1,70,2|8,3:0|3:2,0:0:0:0:
23,26,22650,1,2,3:0:0:0:
65,167,22963,6,0,P|70:202|67:236,1,70.0000026702882,2|0,3:2|3:0,0:0:0:0:
33,360,23483,1,8,0:0:0:0:
33,360,23588,2,0,P|66:351|101:346,1,70,2|2,3:0|0:3,0:0:0:0:
135,332,23900,2,0,L|248:351,2,105.000004005432,2|2|2,3:2|3:0|3:0,0:0:0:0:
40,205,24838,6,0,P|23:161|26:104,2,105.000004005432,2|0|2,3:2|3:0|3:0,0:0:0:0:
181,135,25775,2,0,P|215:135|248:146,1,70,2|8,3:2|3:2,0:0:0:0:
286,165,26088,2,0,P|321:165|354:154,1,70,2|8,3:0|3:2,0:0:0:0:
384,125,26400,2,0,P|418:125|451:136,1,70,2|0,3:0|0:0,0:0:0:0:
489,157,26713,6,0,L|480:87,1,70.0000026702882,2|0,3:2|3:0,0:0:0:0:
347,24,27233,1,8,0:0:0:0:
347,24,27338,2,0,L|356:94,1,70.0000026702882,2|2,3:0|0:0,0:0:0:0:
384,125,27650,2,0,P|403:168|402:226,1,105.000004005432,2|2,3:2|3:0,0:0:0:0:
346,314,28171,1,8,0:0:0:0:
346,314,28275,2,0,L|265:303,1,70.0000026702882,2|0,3:0|0:0,0:0:0:0:
238,285,28588,6,0,P|202:291|168:304,1,70,2|0,3:2|3:0,0:0:0:0:
43,174,29213,2,0,L|1:167,2,35,0|0|2,3:0|1:0|1:3,0:0:0:0:
66,144,29525,2,0,L|41:109,2,35,2|0|8,3:2|1:0|1:2,0:0:0:0:
103,139,29838,2,0,L|110:97,2,35,0|0|2,3:0|1:0|1:3,0:0:0:0:
133,162,30150,2,0,L|167:137,2,35,0|0|2,3:0|1:0|1:3,0:0:0:0:
138,199,30463,5,6,3:2:0:0:
282,161,31088,1,4,0:3:0:0:
282,161,31400,1,4,0:3:0:0:
177,55,32338,6,0,L|136:62,2,41.9999987182618,0|0|0,3:0|0:0|0:0,0:0:0:0:
248,78,33275,1,4,0:3:0:0:
301,19,33588,2,0,L|332:24,1,27.9999991455078,4|4,3:0|0:3,0:0:0:0:
407,36,34213,5,0,3:0:0:0:
497,190,35150,2,0,L|502:155,1,34.9999989318848,0|4,3:0|3:0,0:0:0:0:
426,214,35723,1,0,0:0:0:0:
360,321,36088,6,0,L|368:363,2,41.9999987182618,0|4|0,3:0|0:3|0:0,0:0:0:0:
289,297,37025,1,0,0:0:0:0:
229,342,37338,2,0,L|237:383,1,41.9999987182618,4|0,0:1|0:0,0:0:0:0:
249,229,37963,6,0,P|207:227|172:205,1,83.9999974365235,6|4,3:0|0:3,0:0:0:0:
110,245,38431,2,0,P|64:217|-1:239,1,125.999996154785,0|4,0:0|0:3,0:0:0:0:
126,324,39213,2,0,P|127:282|110:245,1,83.9999974365235,6|4,3:0|0:3,0:0:0:0:
52,141,39838,6,0,L|61:56,1,83.9999974365235,6|4,3:0|0:3,0:0:0:0:
157,13,40358,1,4,3:0:0:0:
157,13,40463,2,0,P|181:27|209:34,1,55.9999982910157,4|4,3:0|0:3,0:0:0:0:
271,69,40775,2,0,L|326:64,1,55.9999982910157,4|4,3:0|3:0,0:0:0:0:
384,19,41088,2,0,L|439:24,1,56,4|4,3:0|3:0,0:0:0:0:
486,196,41713,6,0,L|402:188,1,83.9999974365235,4|4,3:0|0:3,0:0:0:0:
305,204,42233,1,4,3:0:0:0:
305,204,42338,2,0,P|310:239|320:266,1,56,4|0,0:3|0:0,0:0:0:0:
345,289,42650,2,0,P|308:293|271:322,1,83.9999974365235,6|2,3:0|0:3,0:0:0:0:
417,365,43171,2,0,P|454:361|491:332,1,83.9999974365235,0|0,3:0|0:0,0:0:0:0:
506,294,43588,6,0,L|497:203,1,84,6|4,3:0|0:3,0:0:0:0:
442,70,44213,2,0,L|455:43,2,28,4|0|0,3:0|1:0|1:0,0:0:0:0:
412,47,44525,2,0,L|402:18,2,28,4|0|0,3:0|1:0|1:0,0:0:0:0:
374,52,44838,2,0,L|346:39,2,28,4|0|0,3:0|1:0|1:0,0:0:0:0:
351,82,45150,2,0,L|322:91,2,28,4|0|0,3:0|1:0|1:0,0:0:0:0:
355,119,45463,6,0,P|305:128|258:106,1,105,6|4,3:2|0:3,0:0:0:0:
208,39,45983,2,0,P|157:29|110:51,1,105,4|0,0:3|0:0,0:0:0:0:
83,83,46400,2,0,P|86:130|92:189,1,105.000004005432,6|6,0:3|3:0,0:0:0:0:
155,322,47025,1,4,0:3:0:0:
7,309,47338,5,6,3:0:0:0:
92,187,47650,2,0,L|85:257,1,70.0000026702882,4|4,0:3|0:3,0:0:0:0:
161,234,47963,2,0,L|168:164,1,70.0000026702882,0|4,0:0|0:3,0:0:0:0:
115,114,48275,2,0,P|68:114|25:149,1,105.000004005432,6|4,3:0|3:0,0:0:0:0:
181,14,48900,2,0,P|220:33|252:37,1,70,0|0,1:0|3:0,0:0:0:0:
288,30,49213,6,0,L|392:21,1,105.000004005432,10|4,3:1|0:3,0:0:0:0:
503,106,49838,2,0,L|433:112,1,70.0000026702882,4|0,0:3|3:0,0:0:0:0:
411,133,50098,1,0,3:0:0:0:
411,133,50202,2,0,P|402:161|401:188,1,52.5000020027161,0|0,0:0|3:0,0:0:0:0:
484,367,50671,2,0,B|495:318|495:318|484:256,1,105.000004005432,0|0,3:0|0:0,0:0:0:0:
443,261,51088,6,0,P|402:273|344:254,1,105.000004005432,6|4,3:0|0:3,0:0:0:0:
230,176,51713,2,0,L|237:247,1,70,4|0,0:3|0:0,0:0:0:0:
215,281,52025,2,0,P|213:316|199:348,1,70.0000026702882,6|0,3:0|1:0,0:0:0:0:
137,297,52338,2,0,P|110:320|78:333,1,70.0000026702882,4|0,3:1|3:0,0:0:0:0:
70,253,52650,2,0,P|35:251|3:237,1,70.0000026702882,4|0,3:0|3:0,0:0:0:0:
54,175,52963,6,0,P|38:126|57:72,1,105,10|4,3:1|0:3,0:0:0:0:
132,26,53483,2,0,P|181:48|239:42,1,105,4|0,0:3|0:0,0:0:0:0:
262,16,53900,2,0,P|308:-4|361:6,1,105.000004005432,6|6,0:3|3:3,0:0:0:0:
503,73,54525,1,4,0:3:0:0:
391,184,54838,6,0,L|405:79,2,105.000004005432,6|4|4,3:0|0:3|3:0,0:0:0:0:
502,295,55775,2,0,P|461:282|435:282,1,70.0000026702882,6|4,0:3|3:0,0:0:0:0:
413,305,56035,2,0,P|392:320|362:331,1,52.5000020027161,0|0,3:0|0:0,0:0:0:0:
321,336,56296,2,0,P|284:321|218:326,1,105.000004005432,4|4,3:0|3:0,0:0:0:0:
178,344,56713,5,10,3:1:0:0:
7,284,57025,2,0,P|42:282|77:262,1,70.0000026702882,4|4,0:3|3:0,0:0:0:0:
95,193,57338,2,0,L|88:87,1,105.000004005432,4|6,0:3|3:0,0:0:0:0:
210,12,57963,2,0,L|215:84,1,70.0000026702882,2|0,0:3|3:0,0:0:0:0:
195,119,58275,1,6,0:3:0:0:
195,119,58588,6,0,P|241:97|294:100,1,105.000004005432,8|4,3:2|0:3,0:0:0:0:
443,150,59213,2,0,L|471:176,2,35,4|0|0,3:3|1:0|1:0,0:0:0:0:
457,110,59525,2,0,L|495:108,2,35,8|0|8,3:0|1:0|1:3,0:0:0:0:
438,71,59838,2,0,L|464:43,2,35,0|0|0,3:0|1:0|1:0,0:0:0:0:
398,57,60150,2,0,L|396:18,2,35,0|0|0,3:0|0:0|0:0,0:0:0:0:
359,75,60463,5,6,3:2:0:0:
250,102,60671,2,0,P|204:95|156:60,1,105.000004005432,0|8,3:0|0:0,0:0:0:0:
137,24,61088,1,2,3:0:0:0:
32,62,61296,1,2,0:3:0:0:
32,62,61400,2,0,L|41:167,1,105.000004005432,2|2,3:2|3:0,0:0:0:0:
10,275,61921,2,0,P|55:279|95:326,1,105.000004005432,8|0,0:0|0:0,0:0:0:0:
97,364,62338,6,0,P|129:349|163:341,1,70,2|0,3:2|3:0,0:0:0:0:
317,375,62858,1,8,0:0:0:0:
317,375,62963,2,0,L|310:262,1,105.000004005432,2|2,3:0|3:2,0:0:0:0:
419,249,63483,1,8,0:0:0:0:
419,249,63588,2,0,L|424:320,1,70.0000026702882,2|8,3:0|0:0,0:0:0:0:
441,357,63900,1,2,3:0:0:0:
310,270,64213,6,0,L|303:157,1,105.000004005432,2|0,3:2|0:0,0:0:0:0:
401,128,64733,1,8,0:0:0:0:
401,128,64838,2,0,P|434:141|469:141,1,70,2|2,3:0|0:3,0:0:0:0:
504,119,65150,1,2,3:2:0:0:
361,51,65463,2,0,P|326:51|293:63,1,70,2|8,3:0|0:0,0:0:0:0:
266,95,65775,2,0,P|231:94|198:82,1,70,2|0,3:0|0:0,0:0:0:0:
167,53,66088,6,0,P|93:22|106:114,1,210.000008010865,2|0,3:2|3:0,0:0:0:0:
132,250,67025,1,2,3:2:0:0:
132,250,67338,2,0,P|131:288|126:319,1,70,2|8,3:0|0:0,0:0:0:0:
98,351,67650,1,2,3:0:0:0:
37,206,67963,5,2,3:2:0:0:
132,250,68171,2,0,P|120:203|125:148,1,105.000004005432,0|8,3:0|0:0,0:0:0:0:
148,120,68588,1,2,3:0:0:0:
250,164,68796,1,2,0:3:0:0:
250,164,68900,2,0,L|323:153,1,70,2|0,3:2|0:0,0:0:0:0:
355,176,69213,2,0,L|426:185,1,70,2|8,3:0|0:0,0:0:0:0:
462,166,69525,1,2,3:0:0:0:
511,307,69838,5,2,3:2:0:0:
374,366,70150,2,0,L|305:358,1,70,0|8,1:0|0:0,0:0:0:0:
269,335,70463,2,0,L|200:346,1,70,2|2,3:0|0:3,0:0:0:0:
166,370,70775,1,2,3:2:0:0:
65,318,70983,2,0,L|58:357,1,35.0000013351441,8|2,3:2|3:0,0:0:0:0:
161,257,71296,1,8,3:2:0:0:
161,257,71400,2,0,P|161:223|149:190,1,70,2|0,3:0|0:0,0:0:0:0:
117,161,71713,5,2,3:2:0:0:
40,78,71921,2,0,P|86:80|136:51,1,105.000004005432,0|8,3:0|0:0,0:0:0:0:
166,21,72338,2,0,P|208:22|245:34,1,70,2|2,3:0|0:0,0:0:0:0:
257,65,72650,2,0,L|372:52,1,105.000004005432,2|2,3:2|3:0,0:0:0:0:
479,40,73171,1,8,0:0:0:0:
479,40,73275,2,0,P|469:74|467:109,1,70,2|0,3:0|0:0,0:0:0:0:
479,149,73588,5,2,3:2:0:0:
512,264,73796,2,0,L|397:251,1,105.000004005432,0|8,3:0|0:0,0:0:0:0:
369,271,74213,2,0,P|363:287|360:304,2,35,0|0|2,3:0|1:0|1:3,0:0:0:0:
328,257,74525,2,0,P|312:264|297:274,2,35,2|0|8,3:2|1:0|1:2,0:0:0:0:
309,219,74838,2,0,P|292:212|275:209,2,35,0|0|2,3:0|1:0|1:3,0:0:0:0:
322,178,75150,2,0,P|335:145|338:110,1,70,2|0,3:0|0:0,0:0:0:0:
326,70,75463,5,6,3:2:0:0:
240,10,75671,2,0,L|134:24,1,105.000004005432,0|8,3:0|0:0,0:0:0:0:
99,3,76088,1,2,3:0:0:0:
25,87,76296,1,2,0:3:0:0:
25,87,76400,2,0,P|53:122|61:180,1,105.000004005432,2|2,3:2|3:0,0:0:0:0:
37,283,76921,2,0,P|72:255|130:247,1,105.000004005432,8|0,0:0|0:0,0:0:0:0:
157,280,77338,6,0,L|147:358,1,70,2|0,3:2|3:0,0:0:0:0:
260,224,77858,1,8,0:0:0:0:
260,224,77963,2,0,L|246:110,1,105.000004005432,2|2,3:0|3:2,0:0:0:0:
159,64,78483,1,8,0:0:0:0:
159,64,78588,2,0,L|168:142,1,70,2|8,3:0|0:0,0:0:0:0:
153,173,78900,1,2,3:0:0:0:
339,191,79213,6,0,L|325:77,1,105.000004005432,2|0,3:2|0:0,0:0:0:0:
389,5,79733,1,8,0:0:0:0:
389,5,79838,2,0,P|418:26|451:35,1,70,2|2,3:0|0:3,0:0:0:0:
492,28,80150,1,2,3:2:0:0:
418,158,80463,2,0,L|427:236,1,70,2|8,3:0|0:0,0:0:0:0:
461,249,80775,2,0,L|452:327,1,70,2|0,3:0|0:0,0:0:0:0:
478,353,81088,6,0,B|365:311|395:411|280:370,1,210.000008010865,2|0,3:2|3:0,0:0:0:0:
260,224,82025,1,2,3:2:0:0:
260,224,82338,2,0,P|202:207|180:206,1,70,2|8,3:0|0:0,0:0:0:0:
152,220,82650,1,2,3:0:0:0:
304,149,82963,5,2,3:2:0:0:
223,83,83171,2,0,P|179:99|121:99,1,105.000004005432,0|8,3:0|0:0,0:0:0:0:
83,81,83588,1,2,3:0:0:0:
3,159,83796,1,2,0:3:0:0:
3,159,83900,2,0,P|4:194|15:227,1,70,2|0,3:2|0:0,0:0:0:0:
47,255,84213,2,0,P|45:289|34:322,1,70,2|8,3:0|0:0,0:0:0:0:
11,358,84525,1,2,3:0:0:0:
166,294,84838,5,2,3:2:0:0:
332,316,85150,2,0,P|330:281|319:248,1,70,0|8,1:0|0:0,0:0:0:0:
288,220,85463,2,0,P|289:185|300:152,1,70,2|2,3:0|0:3,0:0:0:0:
324,117,85775,1,2,3:2:0:0:
430,149,85983,2,0,L|464:144,1,35.0000013351441,8|2,3:2|3:0,0:0:0:0:
506,46,86296,1,8,3:2:0:0:
506,46,86400,2,0,L|425:59,1,70,2|0,3:0|0:0,0:0:0:0:
397,42,86713,5,2,3:2:0:0:
324,117,86921,2,0,P|281:97|224:106,1,105.000004005432,0|8,3:0|0:0,0:0:0:0:
194,134,87338,2,0,P|159:150|122:150,1,70.0000026702882,2|2,3:0|0:0,0:0:0:0:
87,142,87650,2,0,L|95:38,1,105.000004005432,2|2,3:2|3:0,0:0:0:0:
145,228,88171,1,8,0:0:0:0:
145,228,88275,2,0,L|139:301,1,70.0000026702882,2|0,3:0|0:0,0:0:0:0:
117,328,88588,5,2,3:2:0:0:
220,381,88796,2,0,L|228:277,1,105.000004005432,0|8,3:0|0:0,0:0:0:0:
252,241,89213,2,0,P|249:223|245:206,2,35,0|0|2,3:0|1:0|1:3,0:0:0:0:
294,232,89525,2,0,P|304:218|314:203,2,35,2|0|8,3:2|1:0|1:2,0:0:0:0:
330,256,89838,2,0,P|347:253|364:249,2,35,0|0|2,3:0|1:0|1:3,0:0:0:0:
338,299,90150,2,0,P|351:309|366:319,2,35,2|0|0,3:0|0:0|0:0,0:0:0:0:
314,335,90463,5,6,3:2:0:0:
256,192,90515,12,0,94213,0:0:0:0:
