osu file format v14

[General]
AudioFilename: audio.mp3
AudioLeadIn: 0
PreviewTime: 60410
Countdown: 0
SampleSet: Soft
StackLeniency: 0.7
Mode: 0
LetterboxInBreaks: 0
WidescreenStoryboard: 1

[Editor]
Bookmarks: 463,7963,15463,22963,30463,37963,45463,52963,60463,67963,75463,82963,90463
DistanceSpacing: 1.5
BeatDivisor: 6
GridSize: 16
TimelineZoom: 1.92

[Metadata]
Title:Rail Romanesque
TitleUnicode:レイル・ロマネスク
Artist:Nakae Mitsuki
ArtistUnicode:中恵光城
Creator:Kencho
Version:Kaedeka's Normal
Source:まいてつ -pure station-
Tags:KaedekaShizuru Koiyuki Minakami Yuki Maitetsu Lose opening short ver eroge galgame visual novel 爱上火车 愛上火車
BeatmapID:1778776
BeatmapSetID:850119

[Difficulty]
HPDrainRate:3
CircleSize:2.5
OverallDifficulty:4
ApproachRate:5
SliderMultiplier:1.2
SliderTickRate:1

[Events]
//Background and Video events
Video,-550,"OP1.flv"
0,0,"BG.jpg",0,0
//Break Periods
//Storyboard Layer 0 (Background)
//Storyboard Layer 1 (Fail)
//Storyboard Layer 2 (Pass)
//Storyboard Layer 3 (Foreground)
//Storyboard Layer 4 (Overlay)
//Storyboard Sound Samples

[TimingPoints]
463,312.5,3,2,1,30,1,0
7963,-187.5,3,2,1,40,0,0
13588,-187.5,3,2,1,50,0,0
14525,-187.5,3,2,1,60,0,0
14994,-187.5,3,2,1,40,0,0
15463,-160.714285714286,3,2,1,70,0,0
29213,-160.714285714286,3,2,1,60,0,0
29525,-160.714285714286,3,2,1,50,0,0
29838,-160.714285714286,3,2,1,40,0,0
30150,-160.714285714286,3,2,1,30,0,0
30463,-187.5,3,2,1,40,0,0
37963,-187.5,3,2,1,50,0,0
44213,-187.5,3,2,1,45,0,0
44525,-187.5,3,2,1,40,0,0
44838,-187.5,3,2,1,35,0,0
45150,-187.5,3,2,1,30,0,0
45463,-160.714285714286,3,2,1,60,0,0
58588,-160.714285714286,3,2,1,70,0,0
60150,-160.714285714286,3,2,1,50,0,0
60463,-160.714285714286,3,2,1,80,0,1
75150,-160.714285714286,3,2,1,60,0,1
75410,-160.714285714286,3,2,1,60,0,0
75463,-160.714285714286,3,2,1,80,0,1
90150,-160.714285714286,3,2,1,60,0,1
90463,-160.714285714286,3,2,1,80,0,0
90515,-160.714285714286,3,2,1,40,0,0
92025,-160.714285714286,3,2,1,25,0,0
94213,-160.714285714286,3,2,1,10,0,0

[Colours]
Combo1 : 160,160,160
Combo2 : 255,64,48
Combo3 : 255,160,32
Combo4 : 72,56,56

[HitObjects]
162,321,7963,6,0,P|177:258|169:190,1,128,10|4,3:1|3:0,0:0:0:0:
98,133,8900,2,0,P|58:139|37:147,2,64,8|0|0,3:2|3:0|3:0,0:0:0:0:
166,66,9838,2,0,L|231:76,1,64,4|0,3:0|3:0,0:0:0:0:
310,128,10463,1,4,3:0:0:0:
363,48,10775,2,0,P|421:38|480:71,1,128,8|8,3:2|3:1,0:0:0:0:
408,135,11713,6,0,P|388:194|394:262,1,128,8|4,3:1|3:0,0:0:0:0:
446,339,12650,2,0,P|387:319|319:325,1,128,8|0,3:2|3:0,0:0:0:0:
236,367,13588,2,0,P|172:372|143:320,1,128,10|0,3:2|0:0,0:0:0:0:
175,232,14525,2,0,P|128:227|82:248,1,96,8|0,0:3|3:0,0:0:0:0:
15,93,15463,6,0,P|44:105|158:73,1,149.333339409722,6|2,3:2|3:0,0:0:0:0:
247,16,16400,2,0,P|283:20|318:39,2,74.6666697048612,2|2|2,3:2|3:0|3:0,0:0:0:0:
248,128,17338,2,0,P|226:158|192:178,1,74.6666697048612,2|0,3:2|3:0,0:0:0:0:
153,78,17963,1,2,3:0:0:0:
75,158,18275,2,0,P|44:101|66:7,1,149.333339409722,2|2,3:2|3:0,0:0:0:0:
153,78,19213,6,0,P|204:79|304:65,1,149.333339409722,2|2,3:2|3:0,0:0:0:0:
404,109,20150,2,0,P|405:73|414:32,2,74.6666697048612,2|2|2,3:2|3:0|3:0,0:0:0:0:
473,198,21088,2,0,P|471:260|435:352,1,149.333339409722,2|0,3:2|3:0,0:0:0:0:
338,299,22025,2,0,P|276:301|184:337,1,149.333339409722,2|2,3:2|3:0,0:0:0:0:
93,379,22963,6,0,P|35:344|38:268,1,149.333339409722,2|2,3:2|3:0,0:0:0:0:
135,215,23900,2,0,L|213:229,2,74.6666697048612,2|2|2,3:2|3:0|3:0,0:0:0:0:
54,137,24838,2,0,P|55:97|68:59,1,74.6666697048612,2|0,3:2|3:0,0:0:0:0:
163,11,25463,1,2,3:0:0:0:
256,73,25775,2,0,P|331:84|407:56,1,149.333339409722,2|2,3:2|3:0,0:0:0:0:
496,5,26713,6,0,B|455:67|455:67|463:143,1,149.333339409722,2|2,3:2|3:0,0:0:0:0:
494,249,27650,2,0,P|441:236|347:232,1,149.333339409722,2|2,3:2|3:0,0:0:0:0:
248,286,28588,2,0,P|173:285|100:270,1,149.333339409722,2|0,3:2|3:0,0:0:0:0:
54,168,29525,2,0,P|21:194|1:221,2,74.6666697048612,2|0|0,3:2|3:0|3:0,0:0:0:0:
136,118,30463,6,0,P|165:118|274:109,1,128,6|4,3:2|0:3,0:0:0:0:
330,42,31400,2,0,P|377:47|425:48,1,96,4|0,0:3|0:0,0:0:0:0:
470,30,32025,1,0,0:0:0:0:
498,122,32338,2,0,P|501:154|492:186,2,64,0|0|0,3:0|0:0|0:0,0:0:0:0:
405,146,33275,2,0,P|376:146|267:137,1,128,4|0,0:3|0:0,0:0:0:0:
192,93,34213,6,0,P|157:99|128:107,1,64,0|0,3:0|0:0,0:0:0:0:
49,160,34838,1,0,0:0:0:0:
132,207,35150,2,0,P|156:250|157:299,1,96,0|0,3:0|0:0,0:0:0:0:
146,343,35775,2,0,L|179:347,1,32,0|0,0:0|0:0,0:0:0:0:
224,360,36088,2,0,L|290:351,1,64,0|4,3:0|0:3,0:0:0:0:
360,288,36713,2,0,L|426:279,1,64,0|0,0:0|0:0,0:0:0:0:
511,319,37338,1,4,0:1:0:0:
489,129,37963,6,0,P|431:114|373:151,1,128,6|4,3:0|0:3,0:0:0:0:
304,212,38900,2,0,P|262:209|218:170,1,96,4|0,0:3|0:0,0:0:0:0:
206,131,39525,1,4,0:3:0:0:
117,169,39838,2,0,P|104:200|101:232,1,64,6|4,3:0|0:3,0:0:0:0:
116,325,40463,1,4,3:0:0:0:
206,292,40775,2,0,P|272:294|328:318,1,128,4|0,3:0|0:0,0:0:0:0:
408,371,41713,6,0,P|439:362|466:345,2,64,4|4|4,3:0|0:3|0:3,0:0:0:0:
400,275,42650,2,0,P|407:244|406:212,2,64,6|2|6,3:0|0:3|0:3,0:0:0:0:
313,234,43588,2,0,P|266:230|187:258,1,128,6|4,3:0|3:0,0:0:0:0:
117,318,44525,2,0,L|107:384,2,64,4|4|4,3:0|3:0|3:0,0:0:0:0:
49,228,45463,6,0,P|46:196|73:72,1,149.333339409722,6|4,3:2|0:3,0:0:0:0:
168,33,46400,2,0,L|280:46,1,112.000004557292,6|0,0:3|0:0,0:0:0:0:
331,25,47025,1,4,0:3:0:0:
407,108,47338,2,0,L|481:100,2,74.6666697048612,6|4|0,3:0|0:3|0:0,0:0:0:0:
311,167,48275,2,0,P|290:239|291:314,1,149.333339409722,6|0,3:0|1:0,0:0:0:0:
199,377,49213,6,0,L|125:369,1,74.6666697048612,10|4,3:1|0:3,0:0:0:0:
14,349,49838,1,4,0:3:0:0:
85,263,50150,2,0,P|92:208|81:150,1,112.000004557292,4|0,0:3|0:0,0:0:0:0:
42,113,50775,2,0,P|38:94|38:76,1,37.3333348524306,6|0,0:3|0:0,0:0:0:0:
74,33,51088,2,0,P|110:23|149:24,1,74.6666697048612,6|4,3:0|0:3,0:0:0:0:
229,100,51713,1,4,0:3:0:0:
320,34,52025,2,0,P|388:38|452:86,1,149.333339409722,6|4,3:0|3:0,0:0:0:0:
450,198,52963,6,0,P|391:244|318:250,1,149.333339409722,10|4,3:1|0:3,0:0:0:0:
225,188,53900,2,0,L|111:205,1,112.000004557292,6|0,0:3|0:0,0:0:0:0:
59,214,54525,1,4,0:3:0:0:
138,293,54838,2,0,P|149:328|150:370,2,74.6666697048612,6|4|4,3:0|0:3|3:0,0:0:0:0:
248,275,55775,2,0,P|286:275|395:298,1,149.333339409722,6|0,0:3|0:0,0:0:0:0:
489,359,56713,6,0,P|484:322|485:285,1,74.6666697048612,10|4,3:1|0:3,0:0:0:0:
511,176,57338,1,4,0:3:0:0:
402,200,57650,2,0,P|407:163|406:126,1,74.6666697048612,6|2,3:0|0:3,0:0:0:0:
380,17,58275,1,6,0:3:0:0:
291,85,58588,2,0,P|214:104|146:79,1,149.333339409722,8|4,3:2|3:3,0:0:0:0:
52,27,59525,2,0,L|37:109,2,74.6666697048612,8|0|0,3:0|3:0|3:0,0:0:0:0:
150,82,60463,6,0,P|178:149|167:226,1,149.333339409722,6|2,3:2|3:0,0:0:0:0:
110,319,61400,1,2,3:2:0:0:
12,265,61713,2,0,L|24:190,1,74.6666697048612,2|2,3:0|3:0,0:0:0:0:
7,81,62338,2,0,P|4:28|79:39,1,149.333339409722,2|2,3:2|3:0,0:0:0:0:
97,148,63275,1,2,3:2:0:0:
200,105,63588,2,0,L|275:113,1,74.6666697048612,2|2,3:0|3:0,0:0:0:0:
362,183,64213,6,0,P|400:183|438:168,1,74.6666697048612,2|0,3:2|0:0,0:0:0:0:
379,71,64838,1,2,3:0:0:0:
274,113,65150,2,0,P|255:146|248:187,1,74.6666697048612,2|2,3:2|3:0,0:0:0:0:
362,183,65775,1,2,3:0:0:0:
379,71,66088,2,0,P|321:10|254:2,1,149.333339409722,2|0,3:2|3:0,0:0:0:0:
158,50,67025,1,2,3:2:0:0:
57,2,67338,2,0,P|46:42|49:75,1,74.6666697048612,2|2,3:0|3:0,0:0:0:0:
105,172,67963,6,0,P|179:177|247:207,1,149.333339409722,2|2,3:2|3:0,0:0:0:0:
320,292,68900,2,0,P|358:283|394:281,2,74.6666697048612,2|2|2,3:2|3:0|3:0,0:0:0:0:
226,354,69838,2,0,P|188:345|152:343,1,74.6666697048612,2|0,3:2|1:0,0:0:0:0:
42,363,70463,1,2,3:0:0:0:
102,269,70775,2,0,P|112:224|28:211,1,149.333339409722,2|2,3:2|3:0,0:0:0:0:
15,96,71713,6,0,P|62:106|162:100,1,149.333339409722,2|2,3:2|3:0,0:0:0:0:
266,57,72650,2,0,P|233:92|189:182,1,149.333339409722,2|2,3:2|3:0,0:0:0:0:
174,294,73588,2,0,P|159:248|103:164,1,149.333339409722,2|0,3:2|3:0,0:0:0:0:
15,96,74525,2,0,P|45:68|76:56,1,74.6666697048612,2|0,3:2|3:0,0:0:0:0:
183,86,75150,1,2,3:0:0:0:
277,24,75463,6,0,P|339:16|423:50,1,149.333339409722,6|2,3:2|3:0,0:0:0:0:
500,122,76400,1,2,3:2:0:0:
449,222,76713,2,0,P|444:252|443:302,1,74.6666697048612,2|2,3:0|3:0,0:0:0:0:
363,376,77338,2,0,P|314:327|238:331,1,149.333339409722,2|2,3:2|3:0,0:0:0:0:
137,379,78275,1,2,3:2:0:0:
43,316,78588,2,0,P|37:279|36:241,1,74.6666697048612,2|2,3:0|3:0,0:0:0:0:
87,142,79213,6,0,P|120:124|157:123,1,74.6666697048612,2|0,3:2|0:0,0:0:0:0:
252,181,79838,1,2,3:0:0:0:
201,281,80150,2,0,P|168:299|131:300,1,74.6666697048612,2|2,3:2|3:0,0:0:0:0:
36,242,80775,1,2,3:0:0:0:
87,142,81088,2,0,B|90:107|76:69|76:69|110:82|150:78,1,149.333339409722,2|0,3:2|3:0,0:0:0:0:
247,23,82025,1,2,3:2:0:0:
344,78,82338,2,0,P|350:115|351:153,1,74.6666697048612,2|2,3:0|3:0,0:0:0:0:
338,263,82963,6,0,B|305:247|305:247|193:263,1,149.333339409722,2|2,3:2|3:0,0:0:0:0:
99,323,83900,2,0,B|62:327|62:327|28:312,2,74.6666697048612,2|2|2,3:2|3:0|3:0,0:0:0:0:
82,212,84838,2,0,B|61:182|61:182|57:146,1,74.6666697048612,2|0,3:2|1:0,0:0:0:0:
168,141,85463,1,2,3:0:0:0:
267,90,85775,2,0,B|283:123|283:123|267:235,1,149.333339409722,2|2,3:2|3:0,0:0:0:0:
192,318,86713,6,0,P|262:296|326:330,1,149.333339409722,2|2,3:2|3:0,0:0:0:0:
430,289,87650,2,0,P|376:240|374:167,1,149.333339409722,2|2,3:2|3:0,0:0:0:0:
286,98,88588,2,0,P|271:170|209:209,1,149.333339409722,2|0,3:2|3:0,0:0:0:0:
192,318,89525,2,0,P|232:318|265:306,2,74.6666697048612,2|0|2,3:2|3:0|3:0,0:0:0:0:
106,246,90463,5,6,3:2:0:0:
256,192,90515,12,0,94213,0:0:0:0:
