osu file format v14

[General]
AudioFilename: audio.mp3
AudioLeadIn: 0
PreviewTime: 60410
Countdown: 0
SampleSet: Soft
StackLeniency: 0.7
Mode: 0
LetterboxInBreaks: 0
WidescreenStoryboard: 1

[Editor]
Bookmarks: 463,7963,15463,22963,30463,37963,45463,52963,60463,67963,75463,82963,90463
DistanceSpacing: 1.5
BeatDivisor: 6
GridSize: 16
TimelineZoom: 1.92

[Metadata]
Title:Rail Romanesque
TitleUnicode:レイル・ロマネスク
Artist:Nakae Mitsuki
ArtistUnicode:中恵光城
Creator:Kencho
Version:Insane
Source:まいてつ -pure station-
Tags:KaedekaShizuru Koiyuki Minakami Yuki Maitetsu Lose opening short ver eroge galgame visual novel 爱上火车 愛上火車
BeatmapID:1777457
BeatmapSetID:850119

[Difficulty]
HPDrainRate:6
CircleSize:4
OverallDifficulty:6.9
ApproachRate:8.3
SliderMultiplier:1.6
SliderTickRate:1

[Events]
//Background and Video events
Video,-550,"OP1.flv"
0,0,"BG.jpg",0,0
//Break Periods
//Storyboard Layer 0 (Background)
//Storyboard Layer 1 (Fail)
//Storyboard Layer 2 (Pass)
//Storyboard Layer 3 (Foreground)
//Storyboard Layer 4 (Overlay)
//Storyboard Sound Samples

[TimingPoints]
463,312.5,3,2,1,30,1,0
7963,-166.666666666667,3,2,1,40,0,0
13588,-166.666666666667,3,2,1,50,0,0
14525,-133.333333333333,3,2,1,60,0,0
14994,-133.333333333333,3,2,1,40,0,0
15463,-133.333333333333,3,2,1,70,0,0
17233,-133.333333333333,3,2,1,5,0,0
17338,-133.333333333333,3,2,1,70,0,0
20983,-133.333333333333,3,2,1,5,0,0
21088,-133.333333333333,3,2,1,70,0,0
22858,-133.333333333333,3,2,1,5,0,0
22963,-133.333333333333,3,2,1,70,0,0
24733,-133.333333333333,3,2,1,5,0,0
24838,-133.333333333333,3,2,1,70,0,0
28483,-133.333333333333,3,2,1,5,0,0
28588,-133.333333333333,3,2,1,70,0,0
29213,-133.333333333333,3,2,1,60,0,0
29525,-133.333333333333,3,2,1,50,0,0
29838,-133.333333333333,3,2,1,40,0,0
30150,-133.333333333333,3,2,1,30,0,0
30463,-166.666666666667,3,2,1,40,0,0
37963,-133.333333333333,3,2,1,50,0,0
44213,-133.333333333333,3,2,1,45,0,0
44525,-133.333333333333,3,2,1,40,0,0
44838,-133.333333333333,3,2,1,35,0,0
45150,-133.333333333333,3,2,1,30,0,0
45463,-133.333333333333,3,2,1,60,0,0
58588,-133.333333333333,3,2,1,70,0,0
60150,-133.333333333333,3,2,1,50,0,0
60463,-111.111111111111,3,2,1,80,0,1
62233,-111.111111111111,3,2,1,5,0,1
62338,-111.111111111111,3,2,1,80,0,1
64108,-111.111111111111,3,2,1,5,0,1
64213,-111.111111111111,3,2,1,80,0,1
64421,-111.111111111111,3,2,1,5,0,1
64525,-111.111111111111,3,2,1,80,0,1
65358,-111.111111111111,3,2,1,5,0,1
65463,-111.111111111111,3,2,1,80,0,1
65983,-111.111111111111,3,2,1,5,0,1
66088,-111.111111111111,3,2,1,80,0,1
67233,-111.111111111111,3,2,1,5,0,1
67338,-111.111111111111,3,2,1,80,0,1
67858,-111.111111111111,3,2,1,5,0,1
67963,-111.111111111111,3,2,1,80,0,1
69733,-111.111111111111,3,2,1,5,0,1
69838,-111.111111111111,3,2,1,80,0,1
71608,-111.111111111111,3,2,1,5,0,1
71713,-111.111111111111,3,2,1,80,0,1
73483,-111.111111111111,3,2,1,5,0,1
73588,-111.111111111111,3,2,1,80,0,1
75150,-111.111111111111,3,2,1,60,0,1
75410,-111.111111111111,3,2,1,60,0,0
75463,-111.111111111111,3,2,1,80,0,1
77233,-111.111111111111,3,2,1,5,0,1
77338,-111.111111111111,3,2,1,80,0,1
79108,-111.111111111111,3,2,1,5,0,1
79213,-111.111111111111,3,2,1,80,0,1
79421,-111.111111111111,3,2,1,5,0,1
79525,-111.111111111111,3,2,1,80,0,1
80358,-111.111111111111,3,2,1,5,0,1
80463,-111.111111111111,3,2,1,80,0,1
80983,-111.111111111111,3,2,1,5,0,1
81088,-111.111111111111,3,2,1,80,0,1
82233,-111.111111111111,3,2,1,5,0,1
82338,-111.111111111111,3,2,1,80,0,1
82858,-111.111111111111,3,2,1,5,0,1
82963,-111.111111111111,3,2,1,80,0,1
84733,-111.111111111111,3,2,1,5,0,1
84838,-111.111111111111,3,2,1,80,0,1
86608,-111.111111111111,3,2,1,5,0,1
86713,-111.111111111111,3,2,1,80,0,1
88483,-111.111111111111,3,2,1,5,0,1
88588,-111.111111111111,3,2,1,80,0,1
90150,-111.111111111111,3,2,1,60,0,1
90463,-133.333333333333,3,2,1,80,0,0
90515,-133.333333333333,3,2,1,40,0,0
92025,-133.333333333333,3,2,1,25,0,0
94213,-133.333333333333,3,2,1,10,0,0

[Colours]
Combo1 : 160,160,160
Combo2 : 255,64,48
Combo3 : 255,160,32
Combo4 : 72,56,56

[HitObjects]
80,75,7963,6,0,P|104:141|92:212,1,143.999995605469,10|0,3:1|0:0,0:0:0:0:
53,287,8588,2,0,L|117:292,1,64,4|0,3:0|3:0,0:0:0:0:
164,321,8900,2,0,L|260:313,1,95.9999970703126,8|0,3:2|3:0,0:0:0:0:
422,357,9525,1,0,3:0:0:0:
379,194,9838,6,0,P|378:147|395:102,2,95.9999970703126,4|0|4,3:0|3:0|3:0,0:0:0:0:
422,357,10775,2,0,P|484:323|414:325,1,191.999994140625,8|8,3:2|3:1,0:0:0:0:
256,382,11713,6,0,B|230:268|282:307|256:194,1,191.999994140625,8|4,3:1|3:0,0:0:0:0:
89,212,12650,2,0,P|87:283|122:223,1,191.999994140625,8|0,3:2|3:0,0:0:0:0:
101,89,13588,5,10,3:2:0:0:
101,89,14056,2,2,B|137:95|137:95|174:82|174:82|210:89,1,111.999996582031,0|0,0:0|0:0,0:0:0:0:
180,164,14525,5,8,0:3:0:0:
131,14,14733,1,8,0:3:0:0:
131,14,14994,6,0,L|138:-4,8,20.0000007629395,0|0|0|0|0|0|0|0|0,3:0|0:0|0:0|0:0|0:0|0:0|0:0|0:0|0:0,0:0:0:0:
101,89,15463,6,0,P|61:89|27:69,1,80,6|0,3:2|3:0,0:0:0:0:
237,19,15983,1,8,0:0:0:0:
237,19,16088,2,0,P|277:19|311:39,1,80,2|2,3:0|0:3,0:0:0:0:
358,103,16400,1,2,3:2:0:0:
188,162,16713,1,2,3:0:0:0:
299,206,16921,1,8,0:0:0:0:
299,206,17025,2,0,L|291:286,1,80,2|0,3:0|0:0,0:0:0:0:
283,366,17338,6,0,P|322:360|354:336,1,80,2|0,3:2|3:0,0:0:0:0:
401,272,17650,2,0,P|440:278|472:302,1,80,0|8,3:0|0:0,0:0:0:0:
509,230,17963,2,0,L|501:150,1,80,2|2,3:0|0:3,0:0:0:0:
493,71,18275,1,2,3:2:0:0:
382,117,18483,1,8,0:0:0:0:
382,117,18588,1,2,3:0:0:0:
296,34,18796,1,8,0:0:0:0:
296,34,18900,2,0,P|260:38|225:63,1,80.0000030517579,2|0,3:0|0:0,0:0:0:0:
216,139,19213,6,0,P|230:103|225:63,1,80,2|0,3:2|3:0,0:0:0:0:
83,222,19733,1,8,0:0:0:0:
83,222,19838,2,0,P|78:262|92:299,1,80,2|2,3:0|0:3,0:0:0:0:
144,359,20150,1,2,3:2:0:0:
280,241,20463,1,2,3:0:0:0:
216,140,20671,1,8,0:0:0:0:
216,140,20775,2,0,L|136:132,1,80,2|0,3:0|0:0,0:0:0:0:
49,90,21088,6,0,P|63:127|58:167,1,80,2|0,3:2|3:0,0:0:0:0:
17,254,21400,2,0,L|96:242,1,80,0|8,1:0|0:0,0:0:0:0:
172,302,21713,2,0,L|178:263,2,40,0|0|2,3:0|1:0|1:3,0:0:0:0:
262,269,22025,2,0,P|251:232|253:192,1,80,2|0,3:2|3:0,0:0:0:0:
285,117,22338,1,2,3:0:0:0:
138,179,22546,1,8,3:2:0:0:
138,179,22650,2,0,P|149:142|147:102,1,80,2|0,3:0|0:0,0:0:0:0:
95,39,22963,6,0,L|16:51,1,80,2|0,3:2|3:0,0:0:0:0:
226,84,23483,1,8,0:0:0:0:
226,84,23588,2,0,L|305:72,1,80,2|2,3:0|0:3,0:0:0:0:
340,0,23900,1,2,3:2:0:0:
308,177,24213,1,2,3:0:0:0:
417,127,24421,1,8,0:0:0:0:
417,127,24525,2,0,P|428:165|425:204,1,80,2|0,3:0|0:0,0:0:0:0:
387,276,24838,6,0,L|307:268,1,80,2|0,3:2|3:0,0:0:0:0:
264,201,25150,2,0,L|184:209,1,80,0|8,3:0|0:0,0:0:0:0:
137,274,25463,2,0,L|57:266,1,80,2|2,3:0|0:3,0:0:0:0:
14,199,25775,1,2,3:2:0:0:
125,155,25983,1,8,3:2:0:0:
125,155,26088,1,2,3:0:0:0:
137,274,26296,1,8,3:2:0:0:
137,274,26400,2,0,L|145:354,1,80,2|0,3:0|0:0,0:0:0:0:
223,344,26713,6,0,B|183:340|183:340|146:353,1,80,2|0,3:2|3:0,0:0:0:0:
301,264,27233,1,8,0:0:0:0:
301,264,27338,2,0,B|341:268|341:268|378:255,1,80,2|2,3:0|0:0,0:0:0:0:
332,190,27650,1,2,3:2:0:0:
307,368,27963,1,2,3:0:0:0:
218,288,28171,1,8,0:0:0:0:
218,288,28275,2,0,L|138:296,1,80,2|0,3:0|0:0,0:0:0:0:
63,325,28588,5,2,3:2:0:0:
94,209,28796,2,0,P|95:156|70:95,1,120.000004577637,0|8,3:0|0:0,0:0:0:0:
7,17,29213,5,0,3:0:0:0:
31,58,29317,1,0,1:0:0:0:
77,70,29421,1,2,1:3:0:0:
124,60,29525,6,0,L|162:51,2,40,2|0|8,3:2|1:0|1:2,0:0:0:0:
234,88,29838,2,0,L|272:79,2,40,0|0|2,3:0|1:0|1:3,0:0:0:0:
344,116,30150,2,0,L|421:98,1,80,0|2,3:0|1:3,0:0:0:0:
501,80,30463,5,6,3:2:0:0:
469,220,31088,1,4,0:3:0:0:
469,220,31400,1,4,0:3:0:0:
362,165,31921,2,0,P|361:187|367:212,1,47.9999985351563,0|0,0:0|0:0,0:0:0:0:
387,242,32233,1,0,0:0:0:0:
387,242,32338,6,0,L|275:257,1,111.999996582031,0|0,3:0|0:0,0:0:0:0:
185,345,33015,2,0,P|201:312|202:268,1,79.9999975585938,0|4,0:0|0:3,0:0:0:0:
184,161,33588,1,4,3:0:0:0:
83,216,33796,1,4,0:3:0:0:
83,216,33900,2,0,L|87:150,1,63.9999980468751,0|4,0:0|0:3,0:0:0:0:
137,94,34213,6,0,P|93:104|47:87,2,95.9999970703126,0|0|0,3:0|0:0|0:0,0:0:0:0:
243,25,35098,2,0,L|238:4,2,15.9999995117188,0|0|0,3:0|3:0|3:0,0:0:0:0:
261,104,35410,2,0,P|299:108|337:92,1,79.9999975585938,4|4,3:0|3:0,0:0:0:0:
408,0,35827,2,0,L|402:50,1,47.9999985351563,0|0,0:0|0:0,0:0:0:0:
418,86,36088,6,0,B|466:83|466:83|507:106,2,95.9999970703126,0|4|0,3:0|0:3|0:0,0:0:0:0:
372,176,37025,2,0,P|334:189|298:153,1,95.9999970703126,0|4,0:0|0:1,0:0:0:0:
298,153,37963,6,0,L|313:281,1,120.000004577637,6|4,3:0|0:3,0:0:0:0:
321,352,38483,1,0,3:0:0:0:
321,352,38588,2,0,P|288:349|250:320,1,80.0000030517579,4|0,0:3|1:0,0:0:0:0:
188,247,38900,2,0,L|173:375,1,120.000004577637,4|6,0:3|3:0,0:0:0:0:
56,253,39421,1,0,0:0:0:0:
56,253,39525,2,0,P|82:238|113:236,1,60.0000022888185,4|0,0:3|0:0,0:0:0:0:
105,316,39838,5,6,3:0:0:0:
62,171,40150,1,4,0:3:0:0:
185,211,40358,1,4,3:0:0:0:
185,211,40463,2,0,P|151:232|112:236,1,80.0000030517579,4|4,3:0|0:3,0:0:0:0:
62,171,40775,1,4,3:0:0:0:
0,240,40983,2,0,L|8:286,1,40.000001525879,4|4,3:0|3:0,0:0:0:0:
25,384,41296,2,0,P|71:358|138:361,1,120.000004577637,4|0,3:0|0:0,0:0:0:0:
214,384,41713,5,4,3:0:0:0:
158,252,42025,2,0,P|164:212|188:179,1,80,4|4,0:3|3:0,0:0:0:0:
265,161,42338,1,4,0:3:0:0:
132,122,42650,1,6,3:0:0:0:
324,115,42963,2,0,P|339:153|334:190,1,80,2|0,0:3|3:0,0:0:0:0:
297,262,43275,2,0,L|376:274,1,80,6|0,0:3|0:0,0:0:0:0:
449,308,43588,6,0,B|427:316|427:316|420:265|442:222,1,120.000004577637,6|4,3:0|0:3,0:0:0:0:
508,166,44108,1,4,0:3:0:0:
508,166,44213,6,0,L|511:127,2,40,4|0|0,3:0|1:0|1:0,0:0:0:0:
442,222,44525,2,0,L|445:261,2,40,4|0|0,3:0|1:0|1:0,0:0:0:0:
397,154,44838,2,0,L|400:115,2,40,4|0|0,3:0|1:0|1:0,0:0:0:0:
336,206,45150,2,0,L|339:245,2,40,4|0|0,3:0|1:0|1:0,0:0:0:0:
290,138,45463,6,0,B|221:122|243:159|173:145,1,120.000004577637,6|4,3:2|0:3,0:0:0:0:
83,101,45983,1,4,0:3:0:0:
83,101,46088,2,0,P|73:137|79:181,1,80.0000030517579,4|0,0:3|0:0,0:0:0:0:
128,249,46400,2,0,L|113:368,1,120.000004577637,6|6,0:3|3:0,0:0:0:0:
215,364,46921,1,0,0:0:0:0:
215,364,47025,2,0,L|225:284,1,80.0000030517579,4|0,0:3|0:0,0:0:0:0:
235,205,47338,5,6,3:0:0:0:
333,318,47650,1,4,0:3:0:0:
313,159,47858,1,4,0:3:0:0:
313,159,47963,2,0,L|303:79,1,80.0000030517579,0|4,0:0|0:3,0:0:0:0:
293,0,48275,1,6,3:0:0:0:
440,104,48483,2,0,L|400:109,1,40.000001525879,4|4,3:0|3:0,0:0:0:0:
313,159,48796,2,0,L|194:144,1,120.000004577637,4|0,3:0|3:0,0:0:0:0:
130,95,49213,5,10,3:1:0:0:
71,265,49525,2,0,L|61:185,1,80.0000030517579,4|4,0:3|0:3,0:0:0:0:
51,106,49838,1,4,0:3:0:0:
156,163,50046,2,0,L|158:182,2,20.0000007629395,0|0|4,3:0|3:0|0:3,0:0:0:0:
252,91,50358,2,0,L|257:49,1,40.000001525879,0|2,3:0|0:3,0:0:0:0:
308,203,50671,1,0,3:0:0:0:
308,203,50775,2,0,L|298:283,1,80.0000030517579,6|0,0:3|0:0,0:0:0:0:
241,339,51088,5,6,3:0:0:0:
447,217,51400,1,4,0:3:0:0:
318,124,51608,1,0,3:0:0:0:
318,124,51713,2,0,L|308:204,1,80.0000030517579,4|0,0:3|0:0,0:0:0:0:
298,283,52025,2,0,P|259:271|231:244,1,80.0000030517579,6|0,3:0|1:0,0:0:0:0:
218,145,52338,2,0,P|227:185|217:223,1,80.0000030517579,4|0,3:1|3:0,0:0:0:0:
138,282,52650,2,0,P|167:255|205:244,1,80.0000030517579,4|0,3:0|3:0,0:0:0:0:
298,283,52963,6,0,B|337:288|337:288|375:275|375:275|415:280,1,120.000004577637,10|4,3:1|0:3,0:0:0:0:
344,136,53483,1,4,0:3:0:0:
344,136,53588,2,0,P|325:164|330:213,1,80.0000030517579,4|0,0:3|0:0,0:0:0:0:
415,280,53900,2,0,B|350:263|363:300|298:283,1,120.000004577637,6|6,0:3|3:3,0:0:0:0:
495,380,54421,1,0,0:0:0:0:
495,380,54525,2,0,L|503:299,1,80.0000030517579,4|0,0:3|0:0,0:0:0:0:
511,220,54838,5,6,3:0:0:0:
386,349,55150,1,4,0:3:0:0:
336,240,55358,1,4,3:0:0:0:
336,240,55463,2,0,P|303:238|260:256,1,80.0000030517579,4|4,3:0|0:3,0:0:0:0:
205,314,55775,1,6,0:3:0:0:
136,216,55983,2,0,L|138:187,1,20.0000007629395,4|0,3:0|3:0,0:0:0:0:
24,295,56296,2,0,L|11:175,1,120.000004577637,4|4,3:0|3:0,0:0:0:0:
3,95,56713,5,10,3:1:0:0:
136,216,57025,2,0,P|175:219|213:206,1,80,4|4,0:3|3:0,0:0:0:0:
266,145,57338,1,4,0:3:0:0:
238,323,57650,1,6,3:0:0:0:
368,252,57963,2,0,P|329:249|291:262,1,80,2|0,0:3|3:0,0:0:0:0:
238,323,58275,2,0,P|198:326|160:313,1,80,6|0,0:3|0:0,0:0:0:0:
76,227,58588,6,0,P|102:266|53:260,1,120.000004577637,8|4,3:2|0:3,0:0:0:0:
161,313,59213,5,4,3:3:0:0:
207,327,59317,1,0,1:0:0:0:
254,319,59421,1,0,1:0:0:0:
293,291,59525,6,0,L|298:249,2,40,8|0|8,3:0|1:0|1:3,0:0:0:0:
368,319,59838,2,0,L|373:361,2,40,0|0|0,3:0|1:0|1:0,0:0:0:0:
416,255,60150,2,0,L|418:236,4,20.0000007629395,0|0|0|0|0,3:0|0:0|0:0|0:0|0:0,0:0:0:0:
491,283,60463,5,6,3:2:0:0:
413,135,60671,2,0,P|351:132|287:181,1,143.999995605469,0|8,3:0|0:0,0:0:0:0:
265,261,61088,2,0,L|170:247,1,95.9999970703126,2|2,3:0|0:3,0:0:0:0:
102,296,61400,1,2,3:2:0:0:
4,64,61713,1,2,3:0:0:0:
127,176,61921,1,8,0:0:0:0:
127,176,62025,2,0,P|147:134|147:85,1,95.9999970703126,2|0,3:0|0:0,0:0:0:0:
101,14,62338,5,2,3:2:0:0:
226,125,62546,2,0,P|276:136|351:80,1,143.999995605469,0|8,3:0|0:0,0:0:0:0:
388,11,62963,2,0,P|397:56|432:89,1,95.9999970703126,2|2,3:0|0:3,0:0:0:0:
512,116,63275,1,2,3:2:0:0:
430,204,63483,5,8,0:0:0:0:
440,238,63588,1,2,3:0:0:0:
327,166,63796,1,8,0:0:0:0:
317,200,63900,2,0,P|279:210|217:195,1,95.9999970703126,2|0,3:0|0:0,0:0:0:0:
144,174,64213,6,0,L|132:272,1,95.9999970703126,2|0,3:2|0:0,0:0:0:0:
122,348,64525,1,0,0:0:0:0:
233,234,64733,1,8,0:0:0:0:
224,199,64838,1,2,3:0:0:0:
197,327,65046,1,2,0:3:0:0:
206,362,65150,6,0,B|253:372|253:372|299:359,1,96,2|0,3:2|0:0,0:0:0:0:
410,266,65463,6,0,P|368:250|339:284,1,95.9999970703126,2|8,3:0|0:0,0:0:0:0:
479,315,65775,6,0,P|494:270|483:224,1,95.9999970703126,2|0,3:0|0:0,0:0:0:0:
342,130,66088,6,0,P|381:159|427:162,1,95.9999970703126,2|0,3:2|3:0,0:0:0:0:
489,106,66400,2,0,P|503:126|511:149,2,47.9999985351563,0|0|8,3:0|0:0|0:0,0:0:0:0:
409,80,66713,2,0,L|426:36,2,47.9999985351563,0|0|2,3:0|0:0|0:0,0:0:0:0:
342,130,67025,2,0,P|294:126|257:98,1,95.9999970703126,2|0,3:2|0:0,0:0:0:0:
324,48,67338,1,2,3:0:0:0:
406,194,67546,1,8,0:0:0:0:
406,194,67650,2,0,L|312:216,1,95.9999970703126,2|0,3:0|0:0,0:0:0:0:
245,267,67963,5,2,3:2:0:0:
342,130,68171,2,0,P|331:72|259:38,1,143.999995605469,0|8,3:0|0:0,0:0:0:0:
183,75,68588,2,0,P|136:80|91:63,1,96,2|2,3:0|0:3,0:0:0:0:
30,6,68900,1,2,3:2:0:0:
0,256,69213,1,2,3:0:0:0:
134,155,69421,1,8,0:0:0:0:
134,155,69525,2,0,P|181:150|226:167,1,96,2|0,3:0|0:0,0:0:0:0:
294,217,69838,6,0,P|341:222|386:205,1,96,2|0,3:2|3:0,0:0:0:0:
436,138,70150,1,0,1:0:0:0:
497,294,70358,1,8,0:0:0:0:
497,294,70463,2,0,L|402:303,1,95.9999970703126,2|2,3:0|0:3,0:0:0:0:
325,326,70775,5,2,3:2:0:0:
254,189,70983,5,8,3:2:0:0:
269,268,71088,1,2,3:0:0:0:
168,370,71296,5,8,3:2:0:0:
183,291,71400,2,0,P|183:244|164:196,1,95.9999970703126,2|0,3:0|0:0,0:0:0:0:
123,130,71713,5,2,3:2:0:0:
254,189,71921,2,0,P|324:182|366:124,1,143.999995605469,0|8,3:0|0:0,0:0:0:0:
359,42,72338,2,0,P|392:75|439:85,1,95.9999970703126,2|2,3:0|0:0,0:0:0:0:
433,1,72650,1,2,3:2:0:0:
374,246,72963,1,2,3:0:0:0:
270,115,73171,1,8,0:0:0:0:
270,115,73275,2,0,L|367:126,1,95.9999970703126,2|0,3:0|0:0,0:0:0:0:
439,85,73588,5,2,3:2:0:0:
488,245,73796,2,0,B|494:293|494:293|476:337|476:337|483:384,1,143.999995605469,0|8,3:0|0:0,0:0:0:0:
406,281,74213,5,0,3:0:0:0:
365,256,74317,1,0,1:0:0:0:
318,266,74421,1,2,1:3:0:0:
289,304,74525,6,0,P|291:327|297:351,2,47.9999985351563,2|0|8,3:2|1:0|1:2,0:0:0:0:
328,191,74838,2,0,P|346:177|364:160,2,47.9999985351563,0|0|2,3:0|1:0|1:3,0:0:0:0:
211,213,75150,2,0,P|200:207|187:202,4,23.9999992675781,2|0|0|0|0,3:0|0:0|0:0|0:0|0:0,0:0:0:0:
119,182,75463,5,6,3:2:0:0:
14,238,75671,2,0,B|51:256|51:256|100:231|119:182,1,143.999995605469,0|8,3:0|0:0,0:0:0:0:
133,98,76088,2,0,B|178:115|178:115|224:105,1,95.9999970703126,2|2,3:0|0:3,0:0:0:0:
184,32,76400,1,2,3:2:0:0:
165,282,76713,1,2,3:0:0:0:
307,193,76921,1,8,0:0:0:0:
307,193,77025,2,0,P|322:237|317:285,1,95.9999970703126,2|0,3:0|0:0,0:0:0:0:
280,362,77338,5,2,3:2:0:0:
213,208,77546,2,0,P|162:194|88:239,1,143.999995605469,0|8,3:0|0:0,0:0:0:0:
51,315,77963,2,0,P|83:293|84:232,1,95.9999970703126,2|2,3:0|0:3,0:0:0:0:
38,172,78275,1,2,3:2:0:0:
157,157,78483,5,8,0:0:0:0:
153,193,78588,1,2,3:0:0:0:
30,100,78796,1,8,0:0:0:0:
26,64,78900,2,0,B|62:67|62:67|69:63|69:63|120:69,1,95.9999970703126,2|0,3:0|0:0,0:0:0:0:
195,29,79213,6,0,B|231:26|231:26|238:30|238:30|289:24,1,96,2|0,3:2|0:0,0:0:0:0:
373,15,79525,1,0,0:0:0:0:
262,141,79733,1,8,0:0:0:0:
298,137,79838,1,2,3:0:0:0:
427,175,80046,1,2,0:3:0:0:
404,144,80150,6,0,P|379:103|379:57,1,95.9999970703126,2|0,3:2|0:0,0:0:0:0:
350,198,80463,6,0,P|326:241|286:264,1,95.9999970703126,2|8,3:0|0:0,0:0:0:0:
424,219,80775,6,0,P|472:218|512:241,1,95.9999970703126,2|0,3:0|0:0,0:0:0:0:
478,382,81088,6,0,P|430:383|390:360,1,95.9999970703126,2|0,3:2|3:0,0:0:0:0:
331,300,81400,2,0,P|316:320|308:341,2,47.9999985351563,0|0|8,3:0|0:0|0:0,0:0:0:0:
353,218,81713,2,0,P|328:215|305:218,2,47.9999985351563,0|0|2,3:0|0:0|0:0,0:0:0:0:
435,200,82025,2,0,P|412:159|370:135,1,95.9999970703126,2|0,3:2|0:0,0:0:0:0:
286,132,82338,1,2,3:0:0:0:
218,285,82546,1,8,0:0:0:0:
218,285,82650,2,0,L|208:190,1,96,2|0,3:0|0:0,0:0:0:0:
199,105,82963,5,2,3:2:0:0:
349,181,83171,2,0,B|301:187|301:187|292:181|292:181|208:190,1,143.999995605469,0|8,3:0|0:0,0:0:0:0:
133,152,83588,2,0,P|126:198|143:243,1,95.9999970703126,2|2,3:0|0:3,0:0:0:0:
208,190,83900,1,2,3:2:0:0:
13,351,84213,1,2,3:0:0:0:
176,313,84421,1,8,0:0:0:0:
176,313,84525,2,0,P|198:312|269:331,1,95.9999970703126,2|0,3:0|0:0,0:0:0:0:
335,384,84838,6,0,B|354:341|354:341|344:294,1,96,2|0,3:2|3:0,0:0:0:0:
316,214,85150,1,0,1:0:0:0:
446,61,85358,1,8,0:0:0:0:
446,61,85463,2,0,L|351:71,1,96,2|2,3:0|0:3,0:0:0:0:
271,80,85775,5,2,3:2:0:0:
143,24,85983,5,8,3:2:0:0:
191,89,86088,1,2,3:0:0:0:
79,171,86296,5,8,3:2:0:0:
111,98,86400,2,0,P|64:93|22:115,1,95.9999970703126,2|0,3:0|0:0,0:0:0:0:
47,245,86713,5,2,3:2:0:0:
239,153,86921,2,0,P|306:147|364:191,1,143.999995605469,0|8,3:0|0:0,0:0:0:0:
338,272,87338,2,0,P|386:273|426:250,1,95.9999970703126,2|2,3:0|0:0,0:0:0:0:
445,167,87650,1,2,3:2:0:0:
306,376,87963,1,2,3:0:0:0:
204,243,88171,1,8,0:0:0:0:
204,243,88275,2,0,P|156:242|116:265,1,95.9999970703126,2|0,3:0|0:0,0:0:0:0:
97,348,88588,5,2,3:2:0:0:
239,153,88796,2,0,P|306:147|364:191,1,143.999995605469,0|8,3:0|0:0,0:0:0:0:
306,376,89213,5,0,3:0:0:0:
271,343,89317,1,0,1:0:0:0:
260,296,89421,1,2,1:3:0:0:
277,251,89525,6,0,L|324:259,2,48,2|0|8,3:2|1:0|1:2,0:0:0:0:
403,223,89838,2,0,L|450:215,2,48,0|0|2,3:0|1:0|1:3,0:0:0:0:
332,172,90150,2,0,L|309:168,4,23.9999992675781,2|0|0|0|0,3:0|0:0|0:0|0:0|0:0,0:0:0:0:
411,136,90463,5,6,3:2:0:0:
256,192,90515,12,0,94213,0:0:0:0:
