osu file format v14

[General]
AudioFilename: audio.mp3
AudioLeadIn: 0
PreviewTime: 179653
Countdown: 0
SampleSet: Soft
StackLeniency: 0.4
Mode: 0
LetterboxInBreaks: 0
WidescreenStoryboard: 0

[Editor]
DistanceSpacing: 0.8
BeatDivisor: 4
GridSize: 32
TimelineZoom: 1.4

[Metadata]
Title:Koiiro no Hanasaku Koro
TitleUnicode:恋色の花咲く頃
Artist:Nakae Mitsuki
ArtistUnicode:中恵光城
Creator:Shurelia
Version:Colorful
Source:花色ヘプタグラム
Tags:hanairo heptagram color of the flower heptagram opening lump of sugar visual novel eroge video game japanese pop j-pop jpop op shizuku- kazato asa shikibe mayu ayesha altugle
BeatmapID:3794861
BeatmapSetID:1847364

[Difficulty]
HPDrainRate:6.5
CircleSize:4.3
OverallDifficulty:8
ApproachRate:8.5
SliderMultiplier:1.8
SliderTickRate:1

[Events]
//Background and Video events
0,0,"koiirobg.jpg",0,0
//Break Periods
//Storyboard Layer 0 (Background)
//Storyboard Layer 1 (Fail)
//Storyboard Layer 2 (Pass)
//Storyboard Layer 3 (Foreground)
//Storyboard Layer 4 (Overlay)
//Storyboard Sound Samples

[TimingPoints]
368,357.142857142857,4,2,1,35,1,0
368,-125,4,2,1,35,0,0
11439,-125,4,2,1,55,0,0
11796,-100,4,2,1,55,0,0
23225,-125,4,2,1,50,0,0
34653,-111.111111111111,4,2,1,55,0,0
45725,-333.333333333332,4,2,1,55,0,0
46082,-200,4,2,1,40,0,0
51796,-111.111111111111,4,2,1,55,0,0
60367,-100,4,2,1,60,0,1
71707,-83.3333333333333,4,2,1,60,0,0
71796,-100,4,2,1,60,0,1
86082,-100,4,2,1,55,0,0
97510,-125,4,2,1,50,0,0
108939,-111.111111111111,4,2,1,55,0,0
120010,-333.333333333333,4,2,1,55,0,0
120367,-200,4,2,1,40,0,0
126082,-111.111111111111,4,2,1,55,0,0
133939,-166.666666666666,4,2,1,30,0,0
134653,-100,4,2,1,60,0,1
145992,-100,4,2,1,60,0,0
146082,-100,4,2,1,60,0,1
157153,-333.333333333333,4,2,1,60,0,1
157510,-111.111111111111,4,2,1,45,0,0
166082,-111.111111111111,4,2,1,50,0,0
174653,-100,4,2,1,55,0,0
180367,-100,4,2,1,40,0,0
186082,-100,4,2,1,55,0,0
191796,-100,4,2,1,60,0,1
206082,-100,4,2,1,55,0,0
217510,-125,4,2,1,35,0,0

[Colours]
Combo1 : 190,169,216
Combo2 : 225,228,158
Combo3 : 241,199,177
Combo4 : 237,173,173

[HitObjects]
83,81,368,6,0,P|74:47|54:17,2,72,6|0|2,0:0|0:0|0:3,0:0:0:0:
63,161,903,2,0,P|38:186|21:218,2,72,0|2|0,0:0|0:3|0:0,0:0:0:0:
63,161,1439,1,2,0:3:0:0:
142,141,1617,6,0,P|176:149|212:148,1,72,2|2,0:0|0:3,0:0:0:0:
319,39,1975,2,0,P|294:64|277:96,1,72,2|2,0:0|0:3,0:0:0:0:
318,248,2332,2,0,P|308:213|288:183,1,72,2|2,0:0|0:3,0:0:0:0:
212,147,2689,1,0,0:0:0:0:
359,131,2867,1,2,0:3:0:0:
359,131,3225,6,0,P|393:123|424:104,2,72,2|0|2,0:0|0:0|0:3,0:0:0:0:
276,96,3760,2,0,P|250:70|219:53,2,72,0|2|0,0:0|0:3|0:0,0:0:0:0:
276,96,4296,1,2,0:3:0:0:
288,183,4475,6,0,P|278:218|279:253,1,72,2|2,0:0|0:3,0:0:0:0:
371,366,4832,2,0,P|367:331|354:297,1,72,2|2,0:0|0:3,0:0:0:0:
198,292,5189,2,0,P|185:325|180:361,1,72,2|2,0:0|0:3,0:0:0:0:
271,382,5546,1,0,0:0:0:0:
279,253,5725,1,2,0:3:0:0:
21,350,6082,6,0,P|16:315|8:280,2,72,2|0|2,0:0|0:0|0:3,0:0:0:0:
99,278,6617,2,0,P|103:242|111:207,2,72,0|2|0,0:0|0:3|0:0,0:0:0:0:
99,278,7153,1,2,0:3:0:0:
23,184,7332,6,0,P|27:148|35:113,1,72,2|2,0:0|0:3,0:0:0:0:
115,19,7689,2,0,P|119:55|127:90,1,72,2|2,0:0|0:3,0:0:0:0:
204,185,8046,2,0,P|208:149|216:114,1,72,2|2,0:0|0:3,0:0:0:0:
253,27,8403,1,0,0:0:0:0:
310,162,8582,1,2,0:3:0:0:
501,12,8939,6,0,P|489:45|485:81,2,72,2|0|2,0:0|0:0|0:3,0:0:0:0:
394,103,9475,2,0,P|406:136|410:172,2,72,0|2|0,0:0|0:3|0:0,0:0:0:0:
394,103,10010,1,2,0:3:0:0:
498,201,10189,6,0,P|485:234|481:270,1,72,2|2,0:0|0:3,0:0:0:0:
382,367,10546,2,0,P|370:333|366:298,1,72,2|2,0:0|0:3,0:0:0:0:
284,182,10903,2,0,P|271:215|267:251,1,72,2|2,0:0|0:3,0:0:0:0:
260,363,11260,1,0,0:0:0:0:
158,352,11439,5,8,0:0:0:0:
123,342,11528,1,8,0:0:0:0:
88,332,11617,1,8,0:0:0:0:
53,321,11707,1,8,0:0:0:0:
18,311,11796,5,6,3:2:0:0:
141,248,11975,1,8,0:0:0:0:
141,248,12064,1,8,0:0:0:0:
141,248,12153,1,2,3:2:0:0:
25,177,12332,1,8,0:0:0:0:
25,177,12421,1,8,0:0:0:0:
25,177,12510,1,0,3:2:0:0:
153,118,12689,1,8,0:0:0:0:
153,118,12778,1,8,0:0:0:0:
153,118,12867,1,0,3:2:0:0:
29,39,13046,5,8,0:0:0:0:
29,39,13135,1,8,0:0:0:0:
29,39,13225,1,0,3:2:0:0:
240,13,13403,1,8,0:0:0:0:
240,13,13492,1,8,0:0:0:0:
240,13,13582,1,0,3:2:0:0:
234,210,13760,5,8,0:0:0:0:
234,210,13850,1,8,0:0:0:0:
234,210,13939,2,0,P|237:254|243:299,1,90,2|8,3:2|0:0,0:0:0:0:
340,359,14207,1,8,0:0:0:0:
340,359,14296,2,0,P|382:342|427:340,1,90,2|8,3:2|0:0,0:0:0:0:
502,272,14564,1,8,0:0:0:0:
502,272,14653,6,0,P|505:227|511:182,1,90,4|8,3:2|0:0,0:0:0:0:
512,147,14921,1,8,0:0:0:0:
512,147,15010,1,0,3:2:0:0:
425,40,15189,1,8,0:0:0:0:
425,40,15278,1,8,0:0:0:0:
425,40,15367,1,0,3:2:0:0:
363,146,15546,1,8,0:0:0:0:
363,146,15635,1,8,0:0:0:0:
363,146,15725,1,0,3:2:0:0:
274,37,15903,1,8,0:0:0:0:
274,37,15992,1,8,0:0:0:0:
274,37,16082,6,0,P|230:25|186:18,1,90,2|8,3:2|0:0,0:0:0:0:
149,31,16350,1,8,0:0:0:0:
149,31,16439,1,0,3:2:0:0:
0,4,16617,1,8,0:0:0:0:
0,4,16707,1,8,0:0:0:0:
0,4,16796,2,0,P|17:45|28:88,1,90,2|8,3:2|0:0,0:0:0:0:
31,125,17064,1,8,0:0:0:0:
28,160,17153,1,8,3:2:0:0:
24,195,17242,1,8,0:0:0:0:
21,231,17332,1,8,0:0:0:0:
19,266,17421,1,8,0:0:0:0:
20,299,17510,6,0,P|64:296|108:304,1,90,6|8,3:2|0:0,0:0:0:0:
142,325,17778,1,8,0:0:0:0:
142,325,17867,1,0,3:2:0:0:
276,150,18046,1,8,0:0:0:0:
276,150,18135,1,8,0:0:0:0:
276,150,18225,2,0,P|291:192|297:236,1,90,2|8,3:2|0:0,0:0:0:0:
286,274,18492,1,8,0:0:0:0:
286,274,18582,1,0,3:2:0:0:
89,159,18760,6,0,P|44:155|-1:147,1,90,14|0,0:0|3:2,0:0:0:0:
186,55,19117,1,8,0:0:0:0:
186,55,19207,1,8,0:0:0:0:
186,55,19296,1,0,3:2:0:0:
365,130,19475,1,8,0:0:0:0:
365,130,19564,1,8,0:0:0:0:
365,130,19653,2,0,P|409:132|454:130,1,90,2|8,3:2|0:0,0:0:0:0:
319,0,20010,1,8,3:2:0:0:
285,12,20100,1,8,0:0:0:0:
252,27,20189,1,8,0:0:0:0:
220,44,20278,1,8,0:0:0:0:
186,55,20367,6,0,P|189:99|195:144,1,90,6|8,3:2|0:0,0:0:0:0:
219,170,20635,1,8,0:0:0:0:
219,170,20725,1,0,3:2:0:0:
344,241,20903,1,8,0:0:0:0:
344,241,20992,1,8,0:0:0:0:
344,241,21082,1,0,3:2:0:0:
210,302,21260,1,8,0:0:0:0:
210,302,21350,1,8,0:0:0:0:
210,302,21439,1,0,3:2:0:0:
84,96,21617,2,0,P|92:75|102:56,1,45,12|8,0:0|0:0,0:0:0:0:
112,38,21796,5,0,3:2:0:0:
282,30,21975,1,8,0:0:0:0:
282,30,22064,1,8,0:0:0:0:
282,30,22153,1,0,3:2:0:0:
482,48,22332,1,8,0:0:0:0:
482,48,22421,1,8,0:0:0:0:
482,48,22510,1,0,3:2:0:0:
495,160,22689,1,10,0:0:0:0:
481,263,22867,1,10,3:2:0:0:
475,298,22957,1,8,0:0:0:0:
458,329,23046,1,10,0:0:0:0:
429,350,23135,1,8,0:0:0:0:
399,349,23225,6,0,P|327:353|255:360,1,144,4|0,3:2|3:2,0:0:0:0:
183,336,23760,2,0,P|111:340|39:347,1,144,2|2,0:0|0:0,0:0:0:0:
39,347,24296,1,0,3:2:0:0:
13,215,24475,2,0,P|17:144|25:72,1,144,2|2,0:0|0:0,0:0:0:0:
93,20,25010,1,0,3:2:0:0:
93,20,25367,1,0,3:2:0:0:
93,20,25725,1,0,3:2:0:0:
178,53,25903,1,0,0:0:0:0:
255,9,26082,6,0,P|274:78|292:148,1,144,2|0,3:2|3:2,0:0:0:0:
366,178,26617,2,0,P|437:174|509:167,1,144,2|2,0:0|0:0,0:0:0:0:
509,167,27153,1,0,3:2:0:0:
351,259,27332,2,0,P|279:255|207:248,1,144,2|0,0:0|0:0,0:0:0:0:
120,197,27867,1,2,3:2:0:0:
59,268,28046,1,0,0:0:0:0:
150,313,28225,1,0,3:2:0:0:
150,313,28582,2,0,P|203:326|252:348,1,108,2|0,3:2|0:0,0:0:0:0:
264,360,28939,6,0,P|335:359|407:349,1,144,2|0,3:2|3:2,0:0:0:0:
407,349,29475,1,0,0:0:0:0:
512,375,29653,2,0,P|506:340|498:305,1,72,2|0,3:2|0:0,0:0:0:0:
420,270,30010,1,0,3:2:0:0:
490,219,30189,2,0,P|494:147|496:75,1,144,2|0,0:0|0:0,0:0:0:0:
433,17,30725,1,0,3:2:0:0:
433,17,30903,1,0,0:0:0:0:
352,55,31082,2,0,P|355:91|359:126,1,72,0|0,3:2|0:0,0:0:0:0:
280,190,31439,2,0,P|276:137|265:84,1,108,2|0,3:2|0:0,0:0:0:0:
252,76,31796,6,0,P|180:77|110:61,1,144,2|0,3:2|3:2,0:0:0:0:
0,14,32332,2,0,P|18:44|30:78,1,72,2|0,0:0|3:2,0:0:0:0:
2,171,32689,2,0,P|8:206|16:241,1,72,2|0,0:0|3:2,0:0:0:0:
135,352,33046,2,0,P|129:317|121:282,1,72,2|0,0:0|3:2,0:0:0:0:
183,142,33403,2,0,P|189:177|197:212,1,72,2|0,0:0|3:2,0:0:0:0:
272,328,33760,1,2,0:0:0:0:
353,223,33939,1,8,3:3:0:0:
353,223,34117,1,4,0:3:0:0:
407,344,34296,2,0,P|460:352|512:365,1,108,4|0,3:2|0:0,0:0:0:0:
511,349,34653,6,0,P|499:290|494:230,1,121.499996292114,4|0,3:2|0:0,0:0:0:0:
421,255,35010,2,0,P|420:214|433:176,1,80.9999975280763,8|2,0:0|0:0,0:0:0:0:
511,89,35367,1,0,3:2:0:0:
511,89,35546,1,2,3:2:0:0:
455,6,35725,1,8,0:0:0:0:
400,77,35903,2,0,P|320:68|248:33,1,161.999995056153,2|2,3:2|3:2,0:0:0:0:
180,96,36439,1,8,0:0:0:0:
180,96,36796,1,0,3:2:0:0:
159,18,36975,1,2,3:2:0:0:
13,25,37153,1,8,0:0:0:0:
3,105,37332,1,2,0:0:0:0:
94,171,37510,6,0,P|82:251|76:331,1,161.999995056153,2|8,3:2|0:0,0:0:0:0:
0,384,38046,1,2,0:0:0:0:
0,384,38135,1,0,0:0:0:0:
0,384,38225,1,0,3:2:0:0:
168,347,38403,1,2,3:2:0:0:
233,297,38582,1,8,0:0:0:0:
3,215,38760,1,6,3:2:0:0:
0,198,39117,5,2,3:2:0:0:
219,160,39296,1,8,0:0:0:0:
41,97,39475,1,4,0:0:0:0:
31,80,39832,5,0,3:2:0:0:
166,31,40010,2,0,P|226:34|287:34,1,121.499996292114,10|0,0:0|0:0,0:0:0:0:
287,34,40367,6,0,P|298:94|303:155,1,121.499996292114,4|0,3:2|0:0,0:0:0:0:
374,120,40725,2,0,P|376:160|370:200,1,80.9999975280763,8|0,0:0|0:0,0:0:0:0:
281,268,41082,1,2,3:2:0:0:
212,208,41260,1,0,3:2:0:0:
356,359,41439,1,8,0:0:0:0:
443,333,41617,2,0,P|456:253|460:172,1,161.999995056153,2|2,3:2|3:2,0:0:0:0:
505,100,42153,1,8,0:0:0:0:
505,78,42510,5,0,3:2:0:0:
498,52,42689,1,2,3:2:0:0:
392,29,42867,1,10,0:0:0:0:
286,29,43046,1,2,0:0:0:0:
194,59,43225,6,0,B|136:72|86:37|34:43,1,161.999995056153,2|8,3:2|0:0,0:0:0:0:
60,131,43760,1,2,0:0:0:0:
60,131,43850,1,0,0:0:0:0:
60,131,43939,1,0,3:2:0:0:
204,142,44117,1,2,3:2:0:0:
254,222,44296,1,8,0:0:0:0:
13,287,44475,1,2,3:2:0:0:
5,263,44832,5,2,3:2:0:0:
94,379,45010,1,12,0:0:0:0:
237,356,45189,1,8,0:0:0:0:
237,356,45278,1,8,0:0:0:0:
237,356,45367,1,0,3:2:0:0:
351,323,45546,1,2,3:2:0:0:
462,298,45725,2,0,L|502:289,1,40.4999987640381,4|0,0:3|0:0,0:0:0:0:
435,368,46082,6,0,P|430:301|396:243,1,135,4|0,0:0|0:0,0:0:0:0:
329,207,46796,1,0,0:0:0:0:
329,207,46975,1,0,0:0:0:0:
108,195,47332,2,0,P|112:128|146:70,1,135,2|0,0:0|0:0,0:0:0:0:
327,24,48225,1,0,0:0:0:0:
327,24,48403,1,0,0:0:0:0:
401,51,48582,2,0,P|423:50|444:43,1,45
510,161,48939,6,0,P|471:137|429:121,1,90,2|0,0:0|0:0,0:0:0:0:
400,187,49475,2,0,P|438:210|480:226,1,90
483,296,50010,1,0,0:0:0:0:
486,366,50189,2,0,P|441:370|396:376,1,90,2|0,0:0|0:0,0:0:0:0:
322,373,50725,1,0,0:0:0:0:
247,374,51082,1,0,0:0:0:0:
172,370,51260,1,2,3:2:0:0:
98,358,51439,2,0,P|65:362|32:366,1,67.5,0|0,0:3|0:0,0:0:0:0:
38,355,51796,6,0,P|48:296|52:235,1,121.499996292114,4|0,3:2|0:0,0:0:0:0:
133,242,52153,2,0,P|120:204|97:172,1,80.9999975280763,8|2,0:0|0:0,0:0:0:0:
0,86,52510,1,0,3:2:0:0:
35,20,52689,1,2,3:2:0:0:
178,101,52867,1,8,0:0:0:0:
202,179,53046,2,0,P|281:161|359:139,1,161.999995056153,2|2,3:2|3:2,0:0:0:0:
234,9,53582,2,0,P|273:19|313:23,1,80.9999975280763,10|0,0:0|0:0,0:0:0:0:
512,175,53939,2,0,P|472:185|432:189,1,80.9999975280763,2|2,3:2|3:2,0:0:0:0:
286,295,54296,1,10,0:0:0:0:
203,270,54475,1,2,0:0:0:0:
438,383,54653,6,0,P|415:328|383:276,1,121.499996292114,2|0,3:2|0:0,0:0:0:0:
364,267,55010,1,8,0:0:0:0:
482,223,55189,2,0,P|488:183|498:143,1,80.9999975280763,2|0,0:0|3:2,0:0:0:0:
371,15,55546,2,0,P|380:54|384:94,1,80.9999975280763,2|8,3:2|0:0,0:0:0:0:
265,187,55903,2,0,P|247:109|205:40,1,161.999995056153,6|0,3:2|3:2,0:0:0:0:
20,25,56439,1,8,0:0:0:0:
20,25,56796,2,0,P|8:63|10:103,1,80.9999975280763,2|0,3:2|3:2,0:0:0:0:
125,249,57153,2,0,P|134:207|123:167,1,80.9999975280763,14|0,0:0|0:0,0:0:0:0:
2,377,57510,6,0,P|52:341|129:322,1,121.499996292114,2|0,3:2|0:0,0:0:0:0:
125,249,57867,2,0,P|158:272|184:302,1,80.9999975280763,8|0,0:0|0:0,0:0:0:0:
329,384,58225,1,2,3:2:0:0:
166,384,58403,1,0,3:2:0:0:
364,294,58582,1,8,0:3:0:0:
213,220,58760,2,0,P|202:140|192:60,1,161.999995056153,14|10,3:2|3:2,0:0:0:0:
130,189,59296,1,10,3:2:0:0:
299,56,59475,1,10,3:2:0:0:
67,143,59653,1,2,3:2:0:0:
350,112,60189,1,2,0:0:0:0:
402,49,60367,6,0,P|431:133|447:222,1,180,6|10,3:2|0:0,0:0:0:0:
392,318,60903,1,10,0:0:0:0:
392,318,60992,1,8,0:0:0:0:
392,318,61082,1,0,3:2:0:0:
512,341,61260,1,2,3:2:0:0:
346,210,61439,1,8,0:0:0:0:
282,384,61617,1,6,3:2:0:0:
257,384,61975,5,0,3:2:0:0:
167,316,62153,2,0,P|160:271|152:227,1,90,8|0,0:0|0:0,0:0:0:0:
21,202,62510,1,2,3:2:0:0:
13,280,62689,1,2,3:2:0:0:
152,141,62867,1,10,0:0:0:0:
133,48,63046,1,2,0:0:0:0:
133,48,63135,1,2,0:0:0:0:
133,48,63225,6,0,B|189:61|256:39|256:39|310:49,1,180,6|10,3:2|0:0,0:0:0:0:
425,115,63760,1,10,0:0:0:0:
505,89,63939,1,0,3:2:0:0:
302,175,64117,1,2,3:2:0:0:
212,152,64296,1,8,0:0:0:0:
355,252,64475,6,0,P|338:293|324:336,1,90,6|0,3:2|0:0,0:0:0:0:
404,359,64832,2,0,P|421:317|436:275,1,90,2|8,3:2|0:0,0:0:0:0:
239,349,65189,1,10,0:0:0:0:
239,349,65278,1,8,0:0:0:0:
239,349,65367,1,0,3:2:0:0:
140,375,65546,1,2,3:2:0:0:
45,384,65725,2,0,P|33:342|59:306,1,90,8|0,0:0|0:0,0:0:0:0:
78,297,65992,1,0,0:0:0:0:
99,291,66082,6,0,P|101:247|105:202,1,90,6|0,3:2|0:0,0:0:0:0:
169,39,66439,1,10,0:0:0:0:
211,115,66617,2,0,P|255:109|299:101,1,90,10|0,0:0|3:2,0:0:0:0:
414,0,66975,2,0,P|397:41|382:83,1,90,2|8,3:2|0:0,0:0:0:0:
424,235,67332,6,0,P|357:179|273:202,1,180,2|0,3:2|3:2,0:0:0:0:
141,313,67867,1,8,0:0:0:0:
173,217,68046,1,2,0:0:0:0:
246,337,68225,2,0,P|288:354|332:365,1,90,0|0,3:2|3:2,0:0:0:0:
485,375,68582,2,0,P|443:387|413:356,1,90,8|0,0:0|0:0,0:0:0:0:
409,340,68850,1,0,0:0:0:0:
417,325,68939,6,0,P|422:280|423:235,1,90,2|0,3:2|0:0,0:0:0:0:
499,181,69296,1,10,0:0:0:0:
482,20,69475,1,10,0:0:0:0:
482,20,69564,1,8,0:0:0:0:
482,20,69653,1,0,3:2:0:0:
396,102,69832,1,4,3:3:0:0:
237,2,70010,1,4,0:3:0:0:
194,196,70189,6,0,P|121:135|54:84,1,180,6|0,3:2|3:2,0:0:0:0:
0,0,70725,1,8,0:0:0:0:
217,266,71082,1,2,3:2:0:0:
164,322,71260,1,2,3:2:0:0:
219,375,71439,6,0,L|270:365,1,45,10|0,0:0|0:0,0:0:0:0:
109,380,71617,2,0,L|66:366,1,45,2|0,0:0|0:0,0:0:0:0:
3,322,71796,6,0,B|9:259|9:259|23:211|73:162,1,180,6|10,3:2|0:0,0:0:0:0:
227,122,72332,1,10,0:0:0:0:
227,122,72421,1,8,0:0:0:0:
227,122,72510,1,0,3:2:0:0:
97,261,72689,1,2,3:2:0:0:
282,198,72867,1,8,0:0:0:0:
64,67,73046,1,6,3:2:0:0:
57,40,73403,5,0,3:2:0:0:
185,11,73582,2,0,P|228:20|273:26,1,90,8|0,0:0|0:0,0:0:0:0:
348,52,73939,1,2,3:2:0:0:
426,34,74117,1,2,3:2:0:0:
502,17,74296,1,10,0:0:0:0:
452,147,74475,1,2,0:0:0:0:
452,147,74564,1,0,0:0:0:0:
452,147,74653,6,0,P|388:133|340:176,1,135,6|0,3:2|0:0,0:0:0:0:
338,204,75010,1,10,0:0:0:0:
429,312,75189,2,0,P|425:268|419:223,1,90,10|0,0:0|3:2,0:0:0:0:
254,183,75546,1,2,3:2:0:0:
177,222,75725,1,8,0:0:0:0:
266,338,75903,6,0,P|309:349|353:357,1,90,6|0,3:2|0:0,0:0:0:0:
498,242,76260,2,0,P|494:197|488:152,1,90,2|8,3:2|0:0,0:0:0:0:
480,12,76617,1,2,3:2:0:0:
480,12,76707,1,8,0:0:0:0:
480,12,76796,1,0,3:2:0:0:
382,80,76975,1,2,3:2:0:0:
272,0,77153,2,0,P|227:2|182:6,1,90,8|0,0:0|0:0,0:0:0:0:
175,24,77421,1,0,0:0:0:0:
163,45,77510,6,0,P|119:40|76:27,1,90,6|0,3:2|0:0,0:0:0:0:
0,123,77867,2,0,P|89:125|166:169,1,180,10|0,0:0|3:2,0:0:0:0:
211,314,78403,1,2,3:2:0:0:
70,204,78582,1,8,0:0:0:0:
105,278,78760,6,0,P|189:246|276:224,1,180,2|0,3:2|3:2,0:0:0:0:
385,283,79296,1,8,0:0:0:0:
351,369,79475,1,2,0:0:0:0:
186,380,79653,2,0,P|141:372|96:367,1,90,0|0,3:2|3:2,0:0:0:0:
200,144,80010,2,0,P|155:149|111:157,1,90,8|0,0:0|0:0,0:0:0:0:
97,142,80278,1,0,0:0:0:0:
91,124,80367,6,0,P|94:80|124:48,1,90,6|0,3:2|0:0,0:0:0:0:
235,86,80725,1,10,0:0:0:0:
235,86,80903,1,10,0:0:0:0:
310,15,81082,2,0,P|352:29|396:40,1,90,0|2,3:2|3:2,0:0:0:0:
512,139,81439,1,8,0:0:0:0:
462,214,81617,6,0,P|372:224|283:239,1,180,6|0,3:2|3:2,0:0:0:0:
454,361,82153,2,0,P|475:321|504:287,1,90,8|0,0:0|0:0,0:0:0:0:
415,138,82510,1,2,3:2:0:0:
337,135,82689,1,2,3:2:0:0:
212,278,82867,2,0,P|216:322|222:367,1,90,10|2,0:0|0:0,0:0:0:0:
7,251,83225,6,0,P|73:238|138:221,1,135,4|0,3:2|0:0,0:0:0:0:
89,159,83582,2,0,P|130:148|178:147,1,90,8|0,0:0|0:0,0:0:0:0:
265,203,83939,1,0,3:2:0:0:
272,130,84117,1,0,3:2:0:0:
338,56,84296,1,8,0:0:0:0:
500,7,84475,6,0,P|494:96|493:186,1,180,4|0,3:2|3:3,0:0:0:0:
475,346,85010,1,12,3:2:0:0:
475,346,85367,1,8,0:0:0:0:
354,195,85546,1,4,3:3:0:0:
216,271,85725,1,8,0:0:0:0:
210,297,85814,1,8,0:0:0:0:
210,323,85903,1,8,0:0:0:0:
216,349,85992,1,8,0:0:0:0:
254,358,86082,5,6,3:2:0:0:
414,309,86260,1,8,0:0:0:0:
414,309,86350,1,8,0:0:0:0:
414,309,86439,1,2,3:2:0:0:
239,194,86617,1,8,0:0:0:0:
239,194,86707,1,8,0:0:0:0:
239,194,86796,1,0,3:2:0:0:
400,122,86975,1,8,0:0:0:0:
400,122,87064,1,8,0:0:0:0:
400,122,87153,1,0,3:2:0:0:
239,6,87332,5,8,0:0:0:0:
239,6,87421,1,8,0:0:0:0:
239,6,87510,1,0,3:2:0:0:
59,4,87689,1,8,0:0:0:0:
59,4,87778,1,8,0:0:0:0:
59,4,87867,1,0,3:2:0:0:
64,189,88046,1,8,0:0:0:0:
64,189,88135,1,8,0:0:0:0:
64,189,88225,2,0,P|79:231|89:275,1,90,2|8,3:2|0:0,0:0:0:0:
117,379,88492,1,8,0:0:0:0:
117,379,88582,2,0,P|161:370|205:366,1,90,2|8,3:2|0:0,0:0:0:0:
338,365,88850,1,8,0:0:0:0:
338,365,88939,6,0,P|383:357|428:356,1,90,4|8,3:2|0:0,0:0:0:0:
465,366,89207,1,8,0:0:0:0:
465,366,89296,1,0,3:2:0:0:
509,262,89475,1,8,0:0:0:0:
509,262,89564,1,8,0:0:0:0:
509,262,89653,1,0,3:2:0:0:
455,148,89832,1,8,0:0:0:0:
455,148,89921,1,8,0:0:0:0:
455,148,90010,1,0,3:2:0:0:
343,96,90189,1,8,0:0:0:0:
343,96,90278,1,8,0:0:0:0:
343,96,90367,6,0,P|298:102|253:104,1,90,2|8,3:2|0:0,0:0:0:0:
229,128,90635,1,8,0:0:0:0:
229,128,90725,1,0,3:2:0:0:
161,0,90903,1,8,0:0:0:0:
161,0,90992,1,8,0:0:0:0:
161,0,91082,2,0,P|117:-7|77:13,1,90,2|8,3:2|0:0,0:0:0:0:
60,44,91350,1,8,0:0:0:0:
48,78,91439,1,8,3:2:0:0:
44,113,91528,1,8,0:0:0:0:
49,148,91617,1,8,0:0:0:0:
65,180,91707,1,8,0:0:0:0:
74,214,91796,6,0,P|78:258|76:303,1,90,6|8,3:2|0:0,0:0:0:0:
63,339,92064,1,8,0:0:0:0:
63,339,92153,1,0,3:2:0:0:
232,293,92332,1,8,0:0:0:0:
232,293,92421,1,8,0:0:0:0:
232,293,92510,2,0,P|232:248|238:203,1,90,2|8,3:2|0:0,0:0:0:0:
212,185,92778,1,8,0:0:0:0:
212,185,92867,1,0,3:2:0:0:
412,355,93046,6,0,P|456:361|501:363,1,90,14|0,0:0|3:2,0:0:0:0:
354,223,93403,1,8,0:0:0:0:
354,223,93492,1,8,0:0:0:0:
354,223,93582,1,0,3:2:0:0:
481,110,93760,1,8,0:0:0:0:
481,110,93850,1,8,0:0:0:0:
481,110,93939,2,0,P|490:154|497:198,1,90,2|8,3:2|0:0,0:0:0:0:
354,223,94296,1,8,3:2:0:0:
351,187,94385,1,8,0:0:0:0:
350,150,94475,1,8,0:0:0:0:
345,114,94564,1,8,0:0:0:0:
341,79,94653,6,0,P|297:77|252:83,1,90,6|8,3:2|0:0,0:0:0:0:
226,107,94921,1,8,0:0:0:0:
226,107,95010,1,0,3:2:0:0:
82,79,95189,1,8,0:0:0:0:
82,79,95278,1,8,0:0:0:0:
82,79,95367,1,0,3:2:0:0:
40,209,95546,1,8,0:0:0:0:
40,209,95635,1,8,0:0:0:0:
40,209,95725,1,0,3:2:0:0:
255,279,95903,2,0,L|268:329,1,45,12|8,0:0|0:0,0:0:0:0:
271,349,96082,5,0,3:2:0:0:
411,384,96260,1,8,0:0:0:0:
411,384,96350,1,8,0:0:0:0:
411,384,96439,1,0,3:2:0:0:
512,305,96617,1,8,0:0:0:0:
512,305,96707,1,8,0:0:0:0:
512,305,96796,1,0,3:2:0:0:
364,278,96975,1,10,0:0:0:0:
493,160,97153,1,10,3:2:0:0:
491,124,97242,1,8,0:0:0:0:
489,87,97332,1,10,0:0:0:0:
489,51,97421,1,8,0:0:0:0:
486,22,97510,6,0,P|415:31|343:33,1,144,4|0,3:2|3:2,0:0:0:0:
269,8,98046,2,0,P|197:11|125:19,1,144,2|2,0:0|0:0,0:0:0:0:
47,31,98582,1,0,3:2:0:0:
69,151,98760,2,0,P|69:222|59:294,1,144,2|2,0:0|0:0,0:0:0:0:
15,366,99296,1,0,3:2:0:0:
414,369,99653,1,0,3:2:0:0:
344,319,99832,1,0,0:0:0:0:
344,319,100010,1,0,3:2:0:0:
420,289,100189,1,0,0:0:0:0:
282,376,100367,6,0,P|212:358|141:345,1,144,2|0,3:2|3:2,0:0:0:0:
14,187,100903,2,0,P|40:253|63:322,1,144,2|2,0:0|0:0,0:0:0:0:
17,377,101439,1,0,3:2:0:0:
225,281,101617,1,2,0:0:0:0:
119,186,101796,2,0,P|113:114|106:42,1,144,0|2,3:2|3:2,0:0:0:0:
34,9,102332,1,0,0:0:0:0:
352,55,102867,2,0,P|404:60|444:27,1,108,2|0,3:2|0:0,0:0:0:0:
448,16,103225,6,0,P|451:87|459:159,1,144,2|0,3:2|3:2,0:0:0:0:
354,269,103760,1,0,0:0:0:0:
295,210,103939,2,0,P|260:209|224:212,2,72,2|0|0,3:2|0:0|3:2,0:0:0:0:
166,383,104475,2,0,P|157:311|144:240,1,144,2|0,0:0|0:0,0:0:0:0:
227,293,105010,1,0,3:2:0:0:
275,360,105189,1,0,0:0:0:0:
355,374,105367,2,0,P|385:355|419:343,1,72,0|0,3:2|0:0,0:0:0:0:
499,238,105725,2,0,P|494:184|481:131,1,108,2|0,3:2|0:0,0:0:0:0:
485,121,106082,6,0,P|414:107|347:81,1,144,2|0,3:2|3:2,0:0:0:0:
247,20,106617,2,0,P|211:26|176:36,1,72,2|0,0:0|3:2,0:0:0:0:
12,47,106975,2,0,P|45:63|79:74,1,72,2|0,0:0|3:2,0:0:0:0:
221,184,107332,2,0,P|237:153|251:119,1,72,2|0,0:0|3:2,0:0:0:0:
17,179,107689,2,0,P|11:214|9:250,1,72,2|0,0:0|3:2,0:0:0:0:
177,371,108046,1,2,0:0:0:0:
112,188,108225,1,8,3:3:0:0:
67,336,108403,1,4,0:3:0:0:
234,295,108582,2,0,L|364:276,1,108,4|0,3:2|0:0,0:0:0:0:
356,277,108939,6,0,P|344:217|330:158,1,121.499996292114,4|0,3:2|0:0,0:0:0:0:
254,182,109296,2,0,P|254:142|265:104,1,80.9999975280763,8|2,0:0|0:0,0:0:0:0:
358,0,109653,1,0,3:2:0:0:
358,0,109832,1,2,3:2:0:0:
260,17,110010,1,8,0:0:0:0:
439,44,110189,6,0,P|451:124|460:204,1,161.999995056153,2|2,3:2|3:2,0:0:0:0:
437,316,110725,1,8,0:0:0:0:
455,299,111082,1,0,3:2:0:0:
374,368,111260,1,2,3:2:0:0:
250,300,111439,1,8,0:0:0:0:
171,361,111617,1,2,0:0:0:0:
0,313,111796,6,0,P|76:286|156:277,1,161.999995056153,2|8,3:2|0:0,0:0:0:0:
252,304,112332,1,2,0:0:0:0:
368,204,112510,1,0,3:2:0:0:
368,204,112689,1,2,3:2:0:0:
265,177,112867,1,8,0:0:0:0:
391,373,113046,1,6,3:2:0:0:
407,371,113403,5,2,3:2:0:0:
304,384,113582,1,8,0:0:0:0:
495,241,113760,1,4,0:0:0:0:
496,263,114117,5,0,3:2:0:0:
422,164,114296,2,0,P|422:104|456:54,1,121.499996292114,10|0,0:0|0:0,0:0:0:0:
469,44,114653,6,0,L|348:27,1,121.499996292114,4|0,3:2|0:0,0:0:0:0:
276,23,115010,2,0,P|248:50|246:90,1,80.9999975280763,8|0,0:0|0:0,0:0:0:0:
307,293,115367,1,2,3:2:0:0:
253,361,115546,2,0,P|213:360|173:357,1,80.9999975280763,0|8,3:2|0:0,0:0:0:0:
16,330,115903,2,0,P|23:249|27:168,1,161.999995056153,2|2,3:2|3:2,0:0:0:0:
40,36,116439,1,8,0:0:0:0:
60,43,116796,1,0,3:2:0:0:
164,7,116975,1,2,3:2:0:0:
275,142,117153,1,10,0:0:0:0:
174,180,117332,1,2,0:0:0:0:
283,41,117510,6,0,P|363:50|444:56,1,161.999995056153,2|8,3:2|0:0,0:0:0:0:
512,0,118046,1,2,0:0:0:0:
512,0,118135,1,0,0:0:0:0:
512,0,118225,1,0,3:2:0:0:
381,136,118403,1,2,3:2:0:0:
487,231,118582,1,8,0:0:0:0:
404,266,118760,6,0,P|397:305|394:346,1,80.9999975280763,2|0,3:2|0:0,0:0:0:0:
482,371,119117,1,2,3:2:0:0:
301,329,119296,1,12,0:0:0:0:
221,374,119475,1,8,0:0:0:0:
221,374,119564,1,8,0:0:0:0:
221,374,119653,1,0,3:2:0:0:
40,285,119832,1,2,3:2:0:0:
149,225,120010,2,0,P|130:232|110:235,1,40.4999987640381,4|0,0:3|0:0,0:0:0:0:
37,195,120367,6,0,P|31:127|30:60,1,135,4|8,0:0|0:0,0:0:0:0:
91,12,121082,1,0,0:0:0:0:
143,74,121260,1,0,3:2:0:0:
224,72,121439,1,2,3:2:0:0:
271,8,121617,2,0,P|316:12|361:20,1,90,2|0,0:0|0:0,0:0:0:0:
425,69,122153,1,0,0:0:0:0:
485,14,122332,1,8,0:0:0:0:
500,16,122689,1,8,0:0:0:0:
488,116,122867,2,0,P|486:138|483:160,1,45,8|0,0:0|0:0,0:0:0:0:
378,177,123225,6,0,P|333:170|289:160,1,90,2|0,3:2|0:0,0:0:0:0:
222,118,123760,2,0,P|179:133|141:157,1,90,8|0,0:0|3:2,0:0:0:0:
99,219,124296,1,8,0:3:0:0:
99,219,124385,1,4,0:3:0:0:
99,219,124475,2,0,P|55:222|10:228,1,90,2|0,0:0|0:0,0:0:0:0:
2,301,125010,1,0,0:0:0:0:
88,359,125189,1,8,0:0:0:0:
106,359,125546,1,10,3:2:0:0:
177,351,125725,2,0,P|210:356|243:357,1,67.5,8|0,0:0|0:0,0:0:0:0:
266,357,126082,6,0,P|274:299|328:278,1,121.499996292114,4|0,3:2|0:0,0:0:0:0:
343,348,126439,2,0,P|383:348|423:344,1,80.9999975280763,8|2,0:0|0:0,0:0:0:0:
512,366,126796,1,0,3:2:0:0:
512,276,126975,1,2,3:2:0:0:
353,242,127153,1,8,0:0:0:0:
420,185,127332,2,0,P|402:106|380:28,1,161.999995056153,2|2,3:2|3:2,0:0:0:0:
511,168,127867,2,0,P|507:128|499:89,1,80.9999975280763,10|0,0:0|0:0,0:0:0:0:
320,210,128225,2,0,P|311:170|298:132,1,80.9999975280763,2|2,3:2|3:2,0:0:0:0:
157,6,128582,1,10,0:0:0:0:
153,88,128760,1,2,0:0:0:0:
12,31,128939,6,0,P|38:85|62:141,1,121.499996292114,2|0,3:2|0:0,0:0:0:0:
57,164,129296,1,8,0:0:0:0:
115,237,129475,2,0,P|154:227|192:215,1,80.9999975280763,2|0,0:0|3:2,0:0:0:0:
79,359,129832,2,0,P|40:353|0:351,1,80.9999975280763,2|8,3:2|0:0,0:0:0:0:
228,321,130189,2,0,P|308:326|388:343,1,161.999995056153,6|0,3:2|3:2,0:0:0:0:
283,218,130725,1,8,0:0:0:0:
283,218,131082,2,0,P|276:178|274:137,1,80.9999975280763,2|0,3:2|3:2,0:0:0:0:
377,5,131439,2,0,P|374:46|371:86,1,80.9999975280763,14|0,0:0|0:0,0:0:0:0:
407,235,131796,6,0,P|439:184|496:166,1,121.499996292114,2|0,3:2|0:0,0:0:0:0:
487,247,132153,2,0,P|499:285|487:323,1,80.9999975280763,8|0,0:0|0:0,0:0:0:0:
275,369,132510,1,2,3:2:0:0:
400,384,132689,1,0,3:2:0:0:
330,221,132867,1,8,0:3:0:0:
167,365,133046,2,0,P|86:371|5:378,1,161.999995056153,14|10,3:2|3:2,0:0:0:0:
144,259,133582,1,10,3:2:0:0:
15,183,133760,1,10,3:2:0:0:
120,81,133939,2,0,P|146:82|173:88,2,53.9999983520508,2|2|2,3:2|0:2|0:0,0:0:0:0:
159,161,134475,1,2,0:0:0:0:
236,133,134653,6,0,P|324:117|409:87,1,180,6|10,3:2|0:0,0:0:0:0:
490,12,135189,1,10,0:0:0:0:
490,12,135278,1,8,0:0:0:0:
490,12,135367,1,0,3:2:0:0:
340,7,135546,1,2,3:2:0:0:
512,145,135725,1,8,0:0:0:0:
331,218,135903,1,2,3:2:0:0:
320,202,136260,5,0,3:2:0:0:
424,285,136439,2,0,P|469:292|513:300,1,90,8|0,0:0|0:0,0:0:0:0:
373,369,136796,1,2,3:2:0:0:
270,303,136975,1,2,3:2:0:0:
371,152,137153,1,10,0:0:0:0:
273,85,137332,1,2,0:0:0:0:
273,85,137421,1,0,0:0:0:0:
273,85,137510,6,0,B|219:73|160:118|96:93,1,180,6|10,3:2|0:0,0:0:0:0:
146,23,138046,1,10,0:0:0:0:
35,17,138225,1,0,3:2:0:0:
48,192,138403,1,2,3:2:0:0:
154,178,138582,1,8,0:0:0:0:
56,279,138760,6,0,P|57:323|71:366,1,90,6|0,3:2|0:0,0:0:0:0:
159,267,139117,2,0,P|171:311|174:356,1,90,2|8,3:2|0:0,0:0:0:0:
275,256,139475,1,2,0:0:0:0:
275,256,139564,1,0,0:0:0:0:
275,256,139653,1,0,3:2:0:0:
351,307,139832,1,2,3:2:0:0:
402,381,140010,2,0,P|444:370|471:335,1,90,8|0,0:0|0:0,0:0:0:0:
467,324,140278,1,0,0:0:0:0:
458,313,140367,6,0,P|460:268|464:223,1,90,6|0,3:2|0:0,0:0:0:0:
502,83,140725,1,10,0:0:0:0:
412,138,140903,2,0,P|368:140|324:124,1,90,10|0,0:0|3:2,0:0:0:0:
209,23,141260,2,0,P|232:64|241:106,1,90,2|8,3:2|0:0,0:0:0:0:
198,257,141617,6,0,P|257:194|339:218,1,180,2|0,3:2|3:2,0:0:0:0:
392,363,142153,1,8,0:0:0:0:
286,297,142332,1,2,0:0:0:0:
186,360,142510,2,0,P|142:349|101:333,1,90,0|0,3:2|3:2,0:0:0:0:
35,181,142867,2,0,P|18:221|35:261,1,90,8|0,0:0|0:0,0:0:0:0:
48,264,143135,1,0,0:0:0:0:
66,261,143225,6,0,P|70:216|72:171,1,90,2|0,3:2|0:0,0:0:0:0:
17,23,143582,1,10,0:0:0:0:
119,70,143760,1,10,0:0:0:0:
119,70,143850,1,8,0:0:0:0:
119,70,143939,1,0,3:2:0:0:
194,24,144117,1,4,3:3:0:0:
313,10,144296,1,4,0:3:0:0:
476,30,144475,6,0,P|490:118|482:208,1,180,6|0,3:2|3:2,0:0:0:0:
452,299,145010,1,8,0:0:0:0:
200,107,145367,1,2,3:2:0:0:
301,121,145546,1,2,3:2:0:0:
237,182,145725,6,0,L|245:226,1,45,10|0,0:0|0:0,0:0:0:0:
314,263,145903,2,0,L|311:308,1,45,2|0,0:0|0:0,0:0:0:0:
252,361,146082,6,0,B|200:345|137:371|74:341,1,180,6|10,3:2|0:0,0:0:0:0:
0,384,146617,1,10,0:0:0:0:
0,384,146707,1,8,0:0:0:0:
0,384,146796,1,0,3:2:0:0:
150,276,146975,1,2,3:2:0:0:
12,265,147153,1,8,0:0:0:0:
250,187,147332,1,6,3:2:0:0:
230,190,147689,5,0,3:2:0:0:
85,163,147867,2,0,P|78:118|64:76,1,90,8|0,0:0|0:0,0:0:0:0:
149,9,148225,1,2,3:2:0:0:
218,85,148403,1,2,3:2:0:0:
245,266,148582,1,10,0:0:0:0:
330,326,148760,1,2,0:0:0:0:
330,326,148850,1,0,0:0:0:0:
330,326,148939,6,0,P|396:337|463:338,1,135,6|0,3:2|0:0,0:0:0:0:
483,339,149296,1,10,0:0:0:0:
407,203,149475,2,0,P|403:159|397:114,1,90,10|0,3:2|3:2,0:0:0:0:
438,22,149832,1,2,3:2:0:0:
502,93,150010,1,8,0:0:0:0:
315,196,150189,6,0,P|270:188|227:176,1,90,6|0,3:2|0:0,0:0:0:0:
133,35,150546,2,0,P|138:80|142:125,1,90,2|8,3:2|0:0,0:0:0:0:
82,265,150903,1,2,3:2:0:0:
82,265,150992,1,8,0:0:0:0:
82,265,151082,1,0,3:2:0:0:
127,360,151260,1,2,3:2:0:0:
262,270,151439,2,0,P|306:266|351:264,1,90,8|0,0:0|0:0,0:0:0:0:
361,280,151707,1,0,0:0:0:0:
383,299,151796,6,0,P|386:254|413:219,1,90,6|0,3:2|0:0,0:0:0:0:
278,383,152153,2,0,P|194:367|161:287,1,180,10|0,0:0|3:2,0:0:0:0:
167,198,152689,1,2,3:2:0:0:
16,324,152867,1,8,0:0:0:0:
20,235,153046,6,0,P|19:145|10:55,1,180,2|0,3:2|3:2,0:0:0:0:
90,0,153582,1,8,0:0:0:0:
164,54,153760,1,2,0:0:0:0:
221,128,153939,2,0,P|265:122|310:115,1,90,0|0,3:2|3:2,0:0:0:0:
373,48,154296,2,0,P|417:40|462:36,1,90,8|0,0:0|0:0,0:0:0:0:
472,46,154564,1,0,0:0:0:0:
479,57,154653,6,0,P|477:102|474:147,1,90,6|0,3:2|0:0,0:0:0:0:
380,186,155010,1,10,0:0:0:0:
380,186,155189,1,10,0:0:0:0:
511,266,155367,2,0,P|467:272|422:275,1,90,0|2,3:2|3:2,0:0:0:0:
510,362,155725,1,8,0:0:0:0:
345,329,155903,6,0,P|255:338|166:353,1,180,6|0,3:2|3:2,0:0:0:0:
4,368,156439,2,0,P|48:364|81:336,1,90,8|4,0:0|0:3,0:0:0:0:
143,274,156796,1,2,3:2:0:0:
142,192,156975,1,8,3:3:0:0:
74,141,157153,2,0,P|67:121|70:101,1,40.4999987640381,4|0,0:3|0:0,0:0:0:0:
83,75,157510,5,4,3:2:0:0:
187,10,157689,1,2,0:0:0:0:
177,11,158046,5,2,0:0:0:0:
276,80,158225,1,2,3:2:0:0:
265,81,158582,5,2,3:2:0:0:
370,14,158760,1,2,0:0:0:0:
356,15,159117,5,2,0:0:0:0:
466,85,159296,1,2,3:2:0:0:
391,120,159475,2,0,P|408:200|417:280,1,161.999995056153,2|2,0:0|0:0,0:0:0:0:
461,375,160010,1,2,3:2:0:0:
207,267,160367,5,2,3:2:0:0:
97,366,160546,1,2,0:0:0:0:
109,369,160903,5,2,0:0:0:0:
15,259,161082,1,2,3:2:0:0:
4,261,161439,5,2,3:2:0:0:
115,159,161617,1,2,0:0:0:0:
115,173,161975,5,2,0:0:0:0:
14,48,162153,1,0,3:2:0:0:
103,2,162332,2,0,P|182:18|262:25,1,161.999995056153,2|2,0:0|0:0,0:0:0:0:
429,4,162867,1,2,3:2:0:0:
257,286,163225,5,2,3:2:0:0:
320,351,163403,2,0,P|359:345|396:328,1,80.9999975280763,2|0,0:0|3:2,0:0:0:0:
314,243,163760,5,2,0:0:0:0:
448,270,163939,2,0,P|463:232|466:192,1,80.9999975280763,0|0,3:2|0:0,0:0:0:0:
341,178,164296,5,2,3:2:0:0:
464,120,164475,2,0,P|439:88|406:65,1,80.9999975280763,2|0,0:0|3:2,0:0:0:0:
318,110,164832,5,2,0:0:0:0:
238,6,165010,1,0,3:2:0:0:
167,53,165189,2,0,P|127:54|88:45,1,80.9999975280763,8|0,0:0|3:2,0:0:0:0:
2,167,165546,1,8,0:3:0:0:
69,132,165725,2,0,P|123:142|121:198,1,121.499996292114,4|0,3:3|0:0,0:0:0:0:
99,210,166082,6,0,P|95:271|95:382,1,161.999995056153,4|0,3:2|0:0,0:0:0:0:
13,290,166617,1,2,3:2:0:0:
181,365,166796,2,0,P|220:354|256:336,1,80.9999975280763,8|0,0:0|0:0,0:0:0:0:
322,221,167153,2,0,P|396:211|427:280,1,161.999995056153,2|0,0:0|0:0,0:0:0:0:
250,327,167689,2,0,P|242:246|236:165,1,161.999995056153,2|0,0:0|0:0,0:0:0:0:
277,10,168225,1,8,0:0:0:0:
352,66,168403,2,0,P|432:56|512:45,1,161.999995056153,2|2,3:2|0:0,0:0:0:0:
446,98,168939,5,2,3:2:0:0:
399,163,169117,1,2,0:0:0:0:
396,244,169296,1,2,0:0:0:0:
442,310,169475,1,2,3:2:0:0:
278,384,169653,1,10,0:0:0:0:
205,345,169832,1,2,0:0:0:0:
205,345,169921,1,2,0:0:0:0:
205,345,170010,1,2,0:0:0:0:
110,382,170189,6,0,B|126:334|91:269|51:206|78:146,1,242.999992584229,2|0,3:2|3:2,0:0:0:0:
78,147,171082,1,8,0:0:0:0:
143,49,171260,2,0,P|219:73|300:80,1,161.999995056153,0|0,3:2|0:0,0:0:0:0:
393,226,171796,5,2,3:2:0:0:
319,191,171975,1,2,0:0:0:0:
238,193,172153,1,2,0:0:0:0:
180,250,172332,1,2,3:2:0:0:
297,354,172510,1,10,0:0:0:0:
376,368,172689,1,2,0:0:0:0:
449,335,172867,1,2,0:0:0:0:
493,265,173046,6,0,P|494:225|489:185,1,80.9999975280763,2|0,3:2|0:0,0:0:0:0:
493,49,173403,1,2,0:0:0:0:
412,37,173582,1,0,3:2:0:0:
340,28,173760,1,2,0:0:0:0:
340,28,173850,1,8,0:0:0:0:
340,28,173939,1,8,0:3:0:0:
324,107,174117,1,8,3:3:0:0:
310,187,174296,1,4,0:3:0:0:
296,267,174475,1,4,0:3:0:0:
118,135,174653,5,6,3:2:0:0:
215,332,174832,1,0,3:2:0:0:
123,283,175010,2,0,P|79:289|36:301,1,90,8|2,0:0|3:2,0:0:0:0:
35,313,175278,1,0,3:2:0:0:
35,328,175367,1,0,3:2:0:0:
0,158,175546,1,0,3:2:0:0:
202,234,175725,1,10,0:0:0:0:
88,110,175903,6,0,P|83:69|74:21,1,90,4|0,3:2|0:0,0:0:0:0:
265,129,176260,1,2,3:2:0:0:
185,17,176439,1,8,0:0:0:0:
485,2,176796,1,0,3:2:0:0:
402,54,176975,1,0,3:2:0:0:
465,130,177153,1,4,0:3:0:0:
478,172,177242,1,8,0:3:0:0:
478,217,177332,1,4,0:3:0:0:
466,260,177421,1,8,0:3:0:0:
440,297,177510,5,6,3:2:0:0:
365,180,177689,1,4,3:3:0:0:
339,358,177867,5,14,3:2:0:0:
279,190,178046,1,2,3:2:0:0:
222,377,178225,5,14,3:2:0:0:
187,173,178403,1,8,3:3:0:0:
121,377,178582,5,8,3:3:0:0:
103,153,178760,1,14,3:2:0:0:
256,192,178850,12,0,180189,0:0:0:0:
97,47,180367,5,6,3:2:0:0:
97,47,181617,1,6,3:2:0:0:
97,47,183225,1,6,3:2:0:0:
97,47,184475,1,6,3:2:0:0:
97,47,185189,1,6,3:2:0:0:
97,47,185725,1,8,3:3:0:0:
209,90,186082,5,6,3:2:0:0:
23,136,186260,1,8,0:0:0:0:
23,136,186350,1,8,0:0:0:0:
23,136,186439,1,2,3:2:0:0:
94,218,186617,1,10,0:0:0:0:
94,218,186707,1,8,0:0:0:0:
94,218,186796,1,0,3:2:0:0:
204,233,186975,1,10,0:0:0:0:
204,233,187064,1,8,0:0:0:0:
204,233,187153,1,0,3:2:0:0:
383,62,187332,5,10,0:0:0:0:
383,62,187421,1,8,0:0:0:0:
383,62,187510,1,0,3:2:0:0:
449,156,187689,1,8,0:0:0:0:
449,156,187778,1,8,0:0:0:0:
449,156,187867,1,0,3:2:0:0:
498,262,188046,1,10,0:0:0:0:
498,262,188135,1,8,0:0:0:0:
498,262,188225,1,2,3:2:0:0:
389,370,188403,5,8,0:0:0:0:
363,380,188492,1,8,0:0:0:0:
336,384,188582,1,10,3:2:0:0:
309,381,188671,1,8,0:0:0:0:
284,369,188760,1,8,0:0:0:0:
260,354,188850,1,8,0:0:0:0:
242,333,188939,5,4,3:2:0:0:
110,380,189117,1,8,0:0:0:0:
110,380,189207,1,8,0:0:0:0:
110,380,189296,1,0,3:2:0:0:
30,273,189475,1,8,0:0:0:0:
30,273,189564,1,8,0:0:0:0:
30,273,189653,1,0,3:2:0:0:
89,156,189832,1,8,0:3:0:0:
22,56,190010,1,8,3:3:0:0:
156,16,190189,6,0,P|222:32|289:41,1,135,4|0,0:0|0:0,0:0:0:0:
306,31,190546,1,0,3:2:0:0:
370,160,190725,1,8,0:0:0:0:
480,100,190903,1,8,0:0:0:0:
326,384,191260,5,8,0:3:0:0:
242,338,191439,1,8,0:3:0:0:
215,340,191528,1,8,0:3:0:0:
188,342,191617,1,8,0:3:0:0:
160,344,191707,1,8,0:3:0:0:
133,344,191796,6,0,P|97:261|68:176,1,180,6|10,3:2|0:0,0:0:0:0:
26,82,192332,1,10,0:0:0:0:
26,82,192421,1,8,0:0:0:0:
26,82,192510,1,0,3:2:0:0:
188,93,192689,1,2,3:2:0:0:
102,0,192867,1,8,0:0:0:0:
310,136,193046,1,6,3:2:0:0:
310,124,193403,5,0,3:2:0:0:
382,43,193582,2,0,P|426:42|469:57,1,90,8|0,0:0|0:0,0:0:0:0:
491,125,193939,1,2,3:2:0:0:
491,196,194117,1,2,3:2:0:0:
487,268,194296,1,10,0:0:0:0:
368,383,194475,1,2,0:0:0:0:
368,383,194564,1,0,0:0:0:0:
368,383,194653,6,0,P|304:369|235:353,1,135,6|0,3:2|0:0,0:0:0:0:
212,346,195010,1,10,0:0:0:0:
105,374,195189,2,0,P|101:329|95:284,1,90,10|0,0:0|3:2,0:0:0:0:
70,106,195546,1,2,3:2:0:0:
5,200,195725,1,8,0:0:0:0:
138,190,195903,6,0,P|181:179|225:171,1,90,6|0,3:2|0:0,0:0:0:0:
113,15,196260,2,0,P|157:18|202:24,1,90,2|8,3:2|0:0,0:0:0:0:
279,92,196617,1,10,3:2:0:0:
279,92,196707,1,8,0:0:0:0:
279,92,196796,1,0,3:2:0:0:
338,173,196975,1,2,3:2:0:0:
285,252,197153,2,0,P|241:250|218:286,1,90,8|0,0:0|0:0,0:0:0:0:
231,309,197421,1,0,0:0:0:0:
240,327,197510,6,0,P|282:340|327:345,1,90,6|0,3:2|0:0,0:0:0:0:
462,383,197867,2,0,P|449:295|393:226,1,180,10|0,0:0|3:2,0:0:0:0:
357,120,198403,1,2,3:2:0:0:
512,164,198582,1,8,0:0:0:0:
482,0,198760,6,0,P|395:21|305:30,1,180,2|0,3:2|3:2,0:0:0:0:
216,24,199296,1,8,0:0:0:0:
126,12,199475,1,2,0:0:0:0:
36,16,199653,2,0,P|41:60|48:105,1,90,0|0,3:2|3:2,0:0:0:0:
265,195,200010,2,0,P|260:150|252:106,1,90,8|0,0:0|0:0,0:0:0:0:
233,106,200278,1,0,0:0:0:0:
212,106,200367,6,0,P|167:111|122:113,1,90,6|0,3:2|0:0,0:0:0:0:
41,187,200725,1,10,0:0:0:0:
41,187,200903,1,10,0:0:0:0:
122,278,201082,2,0,P|166:273|211:273,1,90,0|2,3:2|3:2,0:0:0:0:
332,377,201439,1,8,0:0:0:0:
466,252,201617,6,0,P|496:173|435:114,1,180,6|0,3:2|3:2,0:0:0:0:
302,268,202153,2,0,P|257:272|212:274,1,90,8|0,0:0|0:0,0:0:0:0:
33,289,202510,1,2,3:2:0:0:
15,200,202689,1,2,3:2:0:0:
87,99,202867,2,0,P|81:54|76:9,1,90,10|2,0:0|0:0,0:0:0:0:
183,75,203225,6,0,P|248:92|314:105,1,135,4|0,3:2|0:0,0:0:0:0:
299,26,203582,2,0,P|343:31|382:53,1,90,8|0,0:0|0:0,0:0:0:0:
433,115,203939,1,0,3:2:0:0:
446,187,204117,1,0,3:2:0:0:
407,275,204296,1,8,0:0:0:0:
291,367,204475,2,0,B|220:396|161:359|112:381,1,180,4|0,3:2|3:3,0:0:0:0:
0,267,205010,1,12,3:2:0:0:
0,267,205367,1,8,0:0:0:0:
141,185,205546,1,4,3:3:0:0:
14,71,205725,1,8,0:0:0:0:
22,45,205814,1,8,0:0:0:0:
42,27,205903,1,8,0:0:0:0:
68,21,205992,1,8,0:0:0:0:
95,68,206082,5,6,3:2:0:0:
218,20,206260,1,8,0:0:0:0:
218,20,206350,1,8,0:0:0:0:
218,20,206439,1,2,3:2:0:0:
275,130,206617,1,8,0:0:0:0:
275,130,206707,1,8,0:0:0:0:
275,130,206796,1,0,3:2:0:0:
148,192,206975,1,8,0:0:0:0:
148,192,207064,1,8,0:0:0:0:
148,192,207153,1,0,3:2:0:0:
411,167,207332,5,8,0:0:0:0:
411,167,207421,1,8,0:0:0:0:
411,167,207510,1,0,3:2:0:0:
371,23,207689,1,8,0:0:0:0:
371,23,207778,1,8,0:0:0:0:
371,23,207867,1,0,3:2:0:0:
219,44,208046,1,8,0:0:0:0:
219,44,208135,1,8,0:0:0:0:
219,44,208225,2,0,P|177:29|133:19,1,90,2|8,3:2|0:0,0:0:0:0:
22,19,208492,1,8,0:0:0:0:
22,19,208582,2,0,P|13:63|9:107,1,90,2|8,3:2|0:0,0:0:0:0:
67,190,208850,1,8,0:0:0:0:
67,190,208939,6,0,P|75:235|76:280,1,90,4|8,3:2|0:0,0:0:0:0:
59,304,209207,1,8,0:0:0:0:
59,304,209296,1,0,3:2:0:0:
163,384,209475,1,8,0:0:0:0:
163,384,209564,1,8,0:0:0:0:
163,384,209653,1,0,3:2:0:0:
279,361,209832,1,8,0:0:0:0:
279,361,209921,1,8,0:0:0:0:
279,361,210010,1,0,3:2:0:0:
397,373,210189,1,8,0:0:0:0:
397,373,210278,1,8,0:0:0:0:
397,373,210367,6,0,P|442:379|487:381,1,90,2|8,3:2|0:0,0:0:0:0:
512,370,210635,1,8,0:0:0:0:
512,370,210725,1,0,3:2:0:0:
345,278,210903,1,8,0:0:0:0:
345,278,210992,1,8,0:0:0:0:
345,278,211082,2,0,P|340:233|341:188,1,90,2|8,3:2|0:0,0:0:0:0:
349,153,211350,1,8,0:0:0:0:
362,119,211439,1,8,3:2:0:0:
388,94,211528,1,0,0:0:0:0:
419,76,211617,1,8,0:0:0:0:
455,76,211707,1,8,0:0:0:0:
471,107,211796,6,0,P|426:106|381:101,1,90,6|8,3:2|0:0,0:0:0:0:
355,125,212064,1,8,0:0:0:0:
355,125,212153,1,0,3:2:0:0:
210,240,212332,1,8,0:0:0:0:
210,240,212421,1,8,0:0:0:0:
210,240,212510,2,0,P|211:196|206:151,1,90,2|8,3:2|0:0,0:0:0:0:
178,123,212778,1,8,0:0:0:0:
178,123,212867,1,0,3:2:0:0:
0,14,213046,6,0,P|44:20|89:22,1,90,14|0,0:0|3:2,0:0:0:0:
246,27,213403,1,8,0:0:0:0:
246,27,213492,1,8,0:0:0:0:
246,27,213582,1,0,3:2:0:0:
23,154,213760,1,8,0:0:0:0:
23,154,213850,1,8,0:0:0:0:
23,154,213939,2,0,P|11:197|16:241,1,90,2|8,3:2|0:0,0:0:0:0:
122,349,214296,1,8,3:2:0:0:
149,326,214385,1,8,0:0:0:0:
178,304,214475,1,8,0:0:0:0:
205,280,214564,1,8,0:0:0:0:
230,253,214653,6,0,P|274:251|319:257,1,90,6|8,3:2|0:0,0:0:0:0:
336,273,214921,1,8,0:0:0:0:
336,273,215010,1,0,3:2:0:0:
272,382,215189,1,8,0:0:0:0:
272,382,215278,1,8,0:0:0:0:
272,382,215367,1,0,3:2:0:0:
462,314,215546,1,8,0:0:0:0:
462,314,215635,1,8,0:0:0:0:
462,314,215725,1,0,3:2:0:0:
303,109,215903,2,0,P|303:131|306:153,1,45,12|8,0:0|0:0,0:0:0:0:
323,175,216082,5,0,3:2:0:0:
499,152,216260,1,8,0:0:0:0:
499,152,216350,1,8,0:0:0:0:
499,152,216439,1,0,3:2:0:0:
405,0,216617,1,8,0:0:0:0:
405,0,216707,1,8,0:0:0:0:
405,0,216796,1,0,3:2:0:0:
303,109,216975,1,10,0:0:0:0:
219,14,217153,1,10,3:2:0:0:
183,12,217242,1,8,0:0:0:0:
146,12,217332,1,10,0:0:0:0:
114,10,217421,1,8,0:0:0:0:
78,11,217510,6,0,P|57:40|48:75,2,72,6|0|2,3:2|0:0|0:3,0:0:0:0:
118,133,218046,2,0,P|143:158|160:190,2,72,0|2|0,0:0|0:3|0:0,0:0:0:0:
118,133,218582,1,2,0:3:0:0:
70,203,218760,6,0,P|34:205|0:197,1,72,2|2,0:0|0:3,0:0:0:0:
131,264,219117,2,0,P|106:289|89:321,1,72,2|2,0:0|0:3,0:0:0:0:
219,276,219475,2,0,P|216:311|225:346,1,72,2|2,0:0|0:3,0:0:0:0:
298,262,219832,1,0,0:0:0:0:
325,340,220010,1,2,0:3:0:0:
403,176,220367,6,0,P|437:168|468:149,2,72,2|0|2,0:0|0:0|0:3,0:0:0:0:
346,51,220903,2,0,P|371:76|402:93,2,72,0|2|0,0:0|0:3|0:0,0:0:0:0:
346,51,221439,1,2,0:3:0:0:
264,13,221617,6,0,P|255:47|256:83,1,72,2|2,0:0|0:3,0:0:0:0:
211,205,221975,2,0,P|207:170|194:136,1,72,2|2,0:0|0:3,0:0:0:0:
146,16,222332,2,0,P|133:49|128:85,1,72,2|2,0:0|0:3,0:0:0:0:
104,205,222689,1,0,0:0:0:0:
67,132,222867,1,2,0:3:0:0:
24,337,223225,6,0,P|59:331|94:323,2,72,2|0|2,0:0|0:0|0:3,0:0:0:0:
169,372,223760,2,0,P|205:368|240:360,2,72,0|2|0,0:0|0:3|0:0,0:0:0:0:
169,372,224296,1,2,0:3:0:0:
196,291,224475,6,0,P|200:255|208:220,1,72,2|2,0:0|0:3,0:0:0:0:
278,149,224832,2,0,P|313:141|348:137,1,72,2|2,0:0|0:3,0:0:0:0:
432,204,225189,2,0,P|439:239|443:274,1,72,2|2,0:0|0:3,0:0:0:0:
398,358,225546,1,0,0:0:0:0:
308,367,225725,1,2,0:3:0:0:
432,204,226082,6,0,P|467:202|503:196,2,72,2|0|2,0:0|0:0|0:3,0:0:0:0:
348,137,226617,2,0,P|312:135|276:129,2,72,0|2|0,0:0|0:3|0:0,0:0:0:0:
348,137,227153,1,2,0:3:0:0:
430,72,227332,6,0,P|433:36|446:2,1,72,2|2,0:0|0:3,0:0:0:0:
485,214,227689,2,0,P|497:180|501:145,1,72,2|2,0:0|0:3,0:0:0:0:
367,301,228046,2,0,P|370:265|383:231,1,72,2|2,0:0|0:3,0:0:0:0:
470,384,228403,1,0,0:0:0:0:
489,312,228582,1,2,0:0:0:0:
