osu file format v14

[General]
AudioFilename: audio.mp3
AudioLeadIn: 0
PreviewTime: 179653
Countdown: 0
SampleSet: Soft
StackLeniency: 0.7
Mode: 0
LetterboxInBreaks: 0
WidescreenStoryboard: 1

[Editor]
Bookmarks: 217515,228944
DistanceSpacing: 0.8
BeatDivisor: 4
GridSize: 8
TimelineZoom: 1.8

[Metadata]
Title:Koiiro no Hanasaku Koro
TitleUnicode:恋色の花咲く頃
Artist:Nakae Mitsuki
ArtistUnicode:中恵光城
Creator:Shurelia
Version:Ayesha's Hard
Source:花色ヘプタグラム
Tags:hanairo heptagram color of the flower heptagram opening lump of sugar visual novel eroge video game japanese pop j-pop jpop op shizuku- kazato asa shikibe mayu ayesha altugle
BeatmapID:3794860
BeatmapSetID:1847364

[Difficulty]
HPDrainRate:6.2
CircleSize:3.8
OverallDifficulty:6
ApproachRate:8
SliderMultiplier:1.44
SliderTickRate:1

[Events]
//Background and Video events
0,0,"koiirobg.jpg",0,0
//Break Periods
2,159139,164439
//Storyboard Layer 0 (Background)
//Storyboard Layer 1 (Fail)
//Storyboard Layer 2 (Pass)
//Storyboard Layer 3 (Foreground)
//Storyboard Layer 4 (Overlay)
//Storyboard Sound Samples

[TimingPoints]
368,357.142857142857,4,2,1,35,1,0
368,-125,4,2,1,35,0,0
11439,-125,4,2,1,55,0,0
11796,-100,4,2,1,55,0,0
23225,-125,4,2,1,50,0,0
34653,-100,4,2,1,55,0,0
46082,-125,4,2,1,40,0,0
51439,-100,4,2,1,40,0,0
51796,-100,4,2,1,55,0,0
60367,-90.9090909090909,4,2,1,60,0,1
86082,-100,4,2,1,55,0,0
97510,-125,4,2,1,50,0,0
108938,-100,4,2,1,55,0,0
120367,-125,4,2,1,40,0,0
125724,-100,4,2,1,40,0,0
126082,-100,4,2,1,55,0,0
133939,-100,4,2,1,30,0,0
134653,-90.9090909090909,4,2,1,60,0,1
157510,-100,4,2,1,45,0,0
166082,-100,4,2,1,50,0,0
174653,-100,4,2,1,55,0,0
180367,-125,4,2,1,40,0,0
186082,-100,4,2,1,55,0,0
191796,-90.9090909090909,4,2,1,60,0,1
206082,-100,4,2,1,55,0,0
217510,-125,4,2,1,35,0,0

[Colours]
Combo1 : 190,169,216
Combo2 : 225,228,158
Combo3 : 241,199,177
Combo4 : 237,173,173

[HitObjects]
72,79,368,6,0,L|83:22,2,57.6,6|0|2,0:0|0:0|0:3,0:0:0:0:
194,138,1082,2,0,L|205:81,2,57.6,2|0|2,0:3|0:0|0:3,0:0:0:0:
127,199,1617,6,0,L|11:217,2,115.2,2|2|2,0:0|0:0|0:0,0:0:0:0:
259,331,2689,1,0,0:0:0:0:
259,331,2867,2,0,L|203:321,1,57.6,2|0,0:3|0:0,0:0:0:0:
119,360,3225,6,0,L|111:303,2,57.6,2|0|2,0:0|0:0|0:3,0:0:0:0:
241,230,3939,2,0,L|233:173,2,57.6,2|0|2,0:3|0:0|0:3,0:0:0:0:
323,186,4475,2,0,L|436:206,2,115.2,2|2|2,0:0|0:0|0:0,0:0:0:0:
173,108,5546,1,0,0:0:0:0:
173,108,5725,2,0,L|163:48,1,57.6,2|0,0:3|0:0,0:0:0:0:
242,1,6082,6,0,L|251:57,2,57.6,2|0|2,0:0|0:0|0:3,0:0:0:0:
322,134,6796,2,0,L|331:190,2,57.6,2|0|2,0:3|0:0|0:3,0:0:0:0:
389,78,7332,2,0,L|503:97,2,115.2,2|2|2,0:0|0:0|0:0,0:0:0:0:
393,262,8403,1,0,0:0:0:0:
393,262,8582,2,0,L|382:318,1,57.6,2|0,0:3|0:0,0:0:0:0:
443,379,8939,6,0,L|500:370,2,57.6,2|0|2,0:0|0:0|0:3,0:0:0:0:
310,273,9653,2,0,L|253:282,2,57.6,2|0|2,0:3|0:0|0:3,0:0:0:0:
393,262,10189,1,2,0:0:0:0:
441,142,11439,5,8,0:0:0:0:
452,123,11528,1,8,0:0:0:0:
455,102,11617,1,8,0:0:0:0:
451,81,11706,1,8,0:0:0:0:
440,64,11796,6,0,L|298:39,1,144,6|2,3:2|3:2,0:0:0:0:
201,1,12332,1,8,0:0:0:0:
201,1,12421,1,8,0:0:0:0:
201,1,12510,2,0,L|213:81,1,72,0|8,3:2|0:0,0:0:0:0:
114,48,12867,2,0,L|124:119,1,72,0|8,3:2|0:0,0:0:0:0:
36,162,13225,6,0,P|108:162|170:200,1,144,0|0,3:2|3:2,0:0:0:0:
247,146,13760,1,8,0:0:0:0:
247,146,13850,1,8,0:0:0:0:
247,146,13939,2,0,L|318:135,1,72,2|8,3:2|0:0,0:0:0:0:
411,160,14296,2,0,L|425:90,1,72,2|8,3:2|0:0,0:0:0:0:
491,34,14653,6,0,L|325:56,1,144,4|0,3:2|3:2,0:0:0:0:
257,42,15189,1,8,0:0:0:0:
257,42,15278,1,8,0:0:0:0:
257,42,15367,2,0,L|241:112,1,72,0|8,3:2|0:0,0:0:0:0:
315,182,15725,2,0,L|396:195,1,72,0|8,3:2|0:0,0:0:0:0:
438,130,16082,6,0,P|466:193|439:258,1,144,2|0,3:2|3:2,0:0:0:0:
366,292,16617,1,8,0:0:0:0:
366,292,16707,1,8,0:0:0:0:
366,292,16796,2,0,L|295:277,1,72,2|8,3:2|0:0,0:0:0:0:
269,186,17153,1,0,3:2:0:0:
324,102,17332,5,8,0:0:0:0:
324,102,17421,1,8,0:0:0:0:
324,102,17510,2,0,P|268:134|192:124,1,144,6|0,3:2|3:2,0:0:0:0:
109,68,18046,1,8,0:0:0:0:
109,68,18135,1,8,0:0:0:0:
109,68,18225,2,0,L|90:142,1,72,2|8,3:2|0:0,0:0:0:0:
2,179,18582,1,0,3:2:0:0:
42,259,18760,6,0,L|184:238,1,144,14|8,0:0|0:0,0:0:0:0:
276,198,19296,2,0,L|265:269,1,72,0|8,3:2|0:0,0:0:0:0:
202,349,19653,2,0,P|264:317|340:333,1,144,2|0,3:2|3:2,0:0:0:0:
429,368,20189,1,8,0:0:0:0:
429,368,20278,1,8,0:0:0:0:
429,368,20367,2,0,L|441:297,1,72,6|8,3:2|0:0,0:0:0:0:
408,216,20725,6,0,B|434:151|434:151|408:69,1,144,0|0,3:2|3:2,0:0:0:0:
365,16,21260,2,0,L|294:29,1,72,8|0,0:0|3:2,0:0:0:0:
236,90,21617,6,0,L|91:69,1,144,12|8,0:0|0:0,0:0:0:0:
7,55,22153,2,0,L|21:133,1,72,0|8,3:2|0:0,0:0:0:0:
0,211,22510,6,0,L|70:226,1,72,0|10,3:2|0:0,0:0:0:0:
70,226,22778,1,8,0:0:0:0:
70,226,22867,1,2,3:2:0:0:
140,161,23046,1,10,0:0:0:0:
213,212,23225,6,0,P|193:264|206:324,1,115.2,4|0,3:2|3:2,0:0:0:0:
271,369,23760,2,0,L|384:350,1,115.2,2|2,0:0|0:0,0:0:0:0:
467,378,24296,1,0,3:2:0:0:
467,378,24475,6,0,L|486:265,1,115.2,2|2,0:0|0:0,0:0:0:0:
436,194,25010,1,0,3:2:0:0:
436,194,25367,6,0,L|380:204,1,57.6,0|0,3:2|0:0,0:0:0:0:
324,266,25725,2,0,L|268:276,1,57.6,0|0,3:2|0:0,0:0:0:0:
200,233,26082,6,0,P|144:238|92:212,1,115.2,2|0,3:2|3:2,0:0:0:0:
15,263,26617,2,0,L|0:148,1,115.2,2|2,0:0|0:0,0:0:0:0:
32,78,27153,1,0,3:2:0:0:
0,8,27332,6,0,P|50:34|107:31,1,115.2,2|0,0:0|0:0,0:0:0:0:
189,7,27867,1,2,3:2:0:0:
233,80,28046,2,0,L|220:139,1,57.6,0|0,0:0|3:2,0:0:0:0:
178,208,28403,1,0,0:0:0:0:
178,208,28582,2,0,P|168:249|183:297,1,86.4,2|0,3:2|0:0,0:0:0:0:
191,304,28939,6,0,L|74:325,2,115.2,2|0|2,3:2|3:2|3:2,0:0:0:0:
289,266,29832,2,0,L|279:325,1,57.6,0|0,0:0|3:2,0:0:0:0:
339,381,30189,6,0,L|453:365,1,115.2,2|0,0:0|0:0,0:0:0:0:
502,299,30725,2,0,L|513:237,1,57.6,0|0,3:2|0:0,0:0:0:0:
422,256,31082,2,0,L|432:199,1,57.6,0|0,3:2|0:0,0:0:0:0:
342,213,31439,2,0,L|352:156,1,57.6,2|0,3:2|0:0,0:0:0:0:
404,88,31796,6,0,B|375:107|375:107|287:94,1,115.2,2|0,3:2|3:2,0:0:0:0:
199,36,32332,2,0,L|219:154,1,115.2,2|2,0:0|0:0,0:0:0:0:
279,209,32867,1,0,3:2:0:0:
279,209,33046,6,0,L|268:267,1,57.6,2|0,0:0|3:2,0:0:0:0:
358,244,33403,2,0,L|347:302,1,57.6,2|0,0:0|3:2,0:0:0:0:
395,362,33760,2,0,B|366:347|366:347|272:363,1,115.2,2|4,0:0|0:3,0:0:0:0:
207,377,34296,1,4,3:2:0:0:
30,291,34653,6,0,L|53:149,1,144,4|8,3:2|0:0,0:0:0:0:
12,72,35189,2,0,L|86:62,1,72,2|0,0:0|3:2,0:0:0:0:
150,14,35546,2,0,L|224:4,1,72,2|8,3:2|0:0,0:0:0:0:
296,64,35903,6,0,B|275:89|275:89|298:207,1,144,2|2,3:2|3:2,0:0:0:0:
234,257,36439,1,8,0:0:0:0:
153,229,36617,1,0,0:0:0:0:
153,229,36707,1,0,0:0:0:0:
153,229,36796,2,0,L|135:302,1,72,0|2,3:2|3:2,0:0:0:0:
204,360,37153,2,0,L|280:348,1,72,8|2,0:0|0:0,0:0:0:0:
350,304,37510,6,0,B|412:337|412:337|485:317,1,144,2|8,3:2|0:0,0:0:0:0:
422,239,38046,1,2,0:0:0:0:
422,239,38135,1,0,0:0:0:0:
422,239,38225,2,0,L|435:167,1,72,0|2,3:2|3:2,0:0:0:0:
512,114,38582,1,8,0:0:0:0:
460,41,38760,6,0,B|430:65|430:65|292:45,1,144,6|2,3:2|3:2,0:0:0:0:
247,1,39296,1,8,0:0:0:0:
169,41,39475,2,0,L|192:187,1,144,4|0,0:0|3:2,0:0:0:0:
270,234,40010,2,0,B|305:229|305:229|335:248,1,72,10|0,0:0|0:0,0:0:0:0:
369,347,40367,6,0,L|511:328,2,144,4|8|2,3:2|0:0|3:2,0:0:0:0:
287,314,41260,2,0,L|271:390,1,72,0|8,3:2|0:0,0:0:0:0:
187,344,41617,6,0,L|31:371,1,144,2|2,3:2|3:2,0:0:0:0:
11,289,42153,1,8,0:0:0:0:
119,195,42332,1,0,0:0:0:0:
119,195,42421,1,0,0:0:0:0:
119,195,42510,2,0,L|104:265,1,72,0|2,3:2|3:2,0:0:0:0:
187,344,42867,2,0,L|202:274,1,72,10|2,0:0|0:0,0:0:0:0:
284,229,43225,6,0,B|357:243|357:243|428:202,1,144,2|8,3:2|0:0,0:0:0:0:
497,237,43760,2,0,L|512:167,1,72,2|0,0:0|3:2,0:0:0:0:
437,125,44117,2,0,L|452:55,1,72,2|8,3:2|0:0,0:0:0:0:
512,0,44475,6,0,L|366:21,1,144,2|2,3:2|3:2,0:0:0:0:
262,79,45010,2,0,L|275:7,1,72,12|8,0:0|0:0,0:0:0:0:
274,8,45278,1,8,0:0:0:0:
274,8,45367,1,0,3:2:0:0:
173,35,45546,1,2,3:2:0:0:
194,140,45725,2,0,L|181:210,1,72,4|0,0:3|0:0,0:0:0:0:
256,288,46082,6,0,P|308:266|368:266,2,115.2,4|0|0,0:0|0:0|0:0,0:0:0:0:
195,344,46975,2,0,L|133:330,1,57.6
55,367,47332,2,0,L|30:194,1,172.8,2|0,0:0|0:0,0:0:0:0:
194,122,48225,6,0,L|183:181,1,57.6
270,165,48582,2,0,L|259:224,1,57.6
305,298,48939,6,0,L|421:281,1,115.2,2|0,0:0|0:0,0:0:0:0:
485,234,49475,2,0,P|466:287|466:348,2,115.2,0|0|2,0:0|0:0|0:0,0:0:0:0:
455,138,50546,5,0,0:0:0:0:
455,138,50725,2,0,P|464:110|465:82,1,57.6
417,13,51082,5,0,0:0:0:0:
340,42,51260,1,2,3:2:0:0:
267,3,51439,2,0,P|253:39|253:73,1,72,0|0,0:3|0:0,0:0:0:0:
170,112,51796,6,0,P|241:112|301:159,1,144,4|8,3:2|0:0,0:0:0:0:
389,131,52332,2,0,L|374:203,1,72,2|0,0:0|3:2,0:0:0:0:
467,177,52689,2,0,L|452:249,1,72,2|8,3:2|0:0,0:0:0:0:
492,324,53046,6,0,B|397:345|397:345|334:320,1,144,2|2,3:2|3:2,0:0:0:0:
285,374,53582,1,10,0:0:0:0:
233,311,53760,1,0,0:0:0:0:
233,311,53850,1,0,0:0:0:0:
233,311,53939,2,0,P|233:273|240:240,1,72,2|2,3:2|3:2,0:0:0:0:
326,189,54296,2,0,P|333:153|333:117,1,72,10|2,0:0|0:0,0:0:0:0:
269,27,54653,6,0,L|122:51,1,144,2|8,3:2|0:0,0:0:0:0:
38,22,55189,2,0,L|24:92,1,72,2|0,0:0|3:2,0:0:0:0:
121,135,55546,2,0,L|135:65,1,72,2|8,3:2|0:0,0:0:0:0:
33,180,55903,6,0,P|113:183|170:226,1,144,6|0,3:2|3:2,0:0:0:0:
263,148,56439,1,8,0:0:0:0:
263,148,56796,6,0,L|252:76,1,72,2|0,3:2|3:2,0:0:0:0:
341,9,57153,2,0,L|352:81,1,72,14|0,0:0|0:0,0:0:0:0:
447,97,57510,6,0,P|476:162|462:233,1,144,2|8,3:2|0:0,0:0:0:0:
489,319,58046,1,0,0:0:0:0:
489,319,58135,1,0,0:0:0:0:
489,319,58225,2,0,L|403:305,1,72,2|0,3:2|3:2,0:0:0:0:
352,367,58582,1,8,0:3:0:0:
279,324,58760,6,0,L|258:178,1,144,14|10,3:2|3:2,0:0:0:0:
327,128,59296,1,10,3:2:0:0:
231,94,59475,1,10,3:2:0:0:
305,35,59653,1,2,3:2:0:0:
279,324,60367,6,0,B|231:344|231:344|121:326,1,158.400004833985,6|10,3:2|0:0,0:0:0:0:
54,372,60903,1,10,0:0:0:0:
54,372,60992,1,8,0:0:0:0:
54,372,61082,2,0,L|38:295,1,79.2000024169923,0|2,3:2|3:2,0:0:0:0:
68,219,61439,1,8,0:0:0:0:
13,144,61617,6,0,P|73:176|161:176,1,158.400004833985,6|0,3:2|3:2,0:0:0:0:
257,131,62153,2,0,L|238:218,1,79.2000024169923,8|0,0:0|0:0,0:0:0:0:
266,339,62510,5,2,3:2:0:0:
352,301,62689,1,2,3:2:0:0:
400,374,62867,1,10,0:0:0:0:
500,252,63046,5,2,0:0:0:0:
500,252,63135,1,0,0:0:0:0:
500,252,63225,2,0,P|516:171|478:95,1,158.400004833985,6|10,3:2|0:0,0:0:0:0:
512,16,63760,2,0,L|341:41,1,158.400004833985,10|2,0:0|3:2,0:0:0:0:
282,0,64296,1,8,0:0:0:0:
203,57,64475,6,0,P|194:100|187:137,1,79.2000024169923,6|0,3:2|0:0,0:0:0:0:
267,185,64832,2,0,P|275:141|283:105,1,79.2000024169923,2|8,3:2|0:0,0:0:0:0:
356,222,65189,6,0,P|280:222|214:269,1,158.400004833985,2|2,0:0|3:2,0:0:0:0:
170,357,65725,2,0,L|92:371,1,79.2000024169923,8|0,0:0|0:0,0:0:0:0:
6,286,66082,6,0,L|32:129,1,158.400004833985,6|10,3:2|0:0,0:0:0:0:
6,52,66617,1,10,0:0:0:0:
6,52,66707,1,8,0:0:0:0:
6,52,66796,2,0,L|84:41,1,79.2000024169923,0|2,3:2|3:2,0:0:0:0:
168,1,67153,1,8,0:0:0:0:
230,71,67332,6,0,P|258:139|235:218,1,158.400004833985,2|0,3:2|3:2,0:0:0:0:
167,269,67867,2,0,L|181:350,1,79.2000024169923,8|2,0:0|0:0,0:0:0:0:
256,376,68225,2,0,B|313:363|313:363|355:374|355:374|418:360,1,158.400004833985,0|8,3:2|0:0,0:0:0:0:
491,343,68760,1,0,0:0:0:0:
435,276,68939,6,0,P|410:204|435:122,1,158.400004833985,2|10,3:2|0:0,0:0:0:0:
390,50,69475,1,10,0:0:0:0:
390,50,69564,1,8,0:0:0:0:
390,50,69653,2,0,L|475:36,2,79.2000024169923,0|4|4,3:2|3:3|0:3,0:0:0:0:
270,0,70189,6,0,B|239:28|239:28|260:149,1,158.400004833985,6|0,3:2|3:2,0:0:0:0:
229,229,70725,2,0,L|308:245,1,79.2000024169923,8|0,0:0|0:0,0:0:0:0:
306,244,70992,1,0,0:0:0:0:
306,244,71082,1,2,3:2:0:0:
393,176,71260,1,2,3:2:0:0:
483,220,71439,2,0,P|492:260|486:300,1,79.2000024169923,10|2,0:0|0:0,0:0:0:0:
406,360,71796,6,0,P|336:344|258:386,1,158.400004833985,6|10,3:2|0:0,0:0:0:0:
166,346,72332,1,10,0:0:0:0:
166,346,72421,1,8,0:0:0:0:
166,346,72510,2,0,L|88:363,2,79.2000024169923,0|2|8,3:2|3:2|0:0,0:0:0:0:
240,289,73046,6,0,P|250:217|263:130,1,158.400004833985,6|0,3:2|3:2,0:0:0:0:
262,132,73582,1,8,0:0:0:0:
38,16,73939,1,2,3:2:0:0:
0,96,74117,1,2,3:2:0:0:
67,157,74296,2,0,P|105:144|145:144,1,79.2000024169923,10|2,0:0|0:0,0:0:0:0:
259,72,74653,6,0,L|418:49,1,158.400004833985,6|10,3:2|0:0,0:0:0:0:
501,0,75189,2,0,P|461:66|473:143,1,158.400004833985,10|2,0:0|3:2,0:0:0:0:
406,206,75725,1,8,0:0:0:0:
477,262,75903,6,0,P|488:301|483:341,1,79.2000024169923,6|0,3:2|0:0,0:0:0:0:
407,384,76260,2,0,P|396:345|401:305,1,79.2000024169923,2|8,3:2|0:0,0:0:0:0:
309,272,76617,2,0,L|150:301,1,158.400004833985,2|2,3:2|3:2,0:0:0:0:
58,342,77153,2,0,L|74:264,1,79.2000024169923,8|0,0:0|0:0,0:0:0:0:
12,177,77510,6,0,P|2:96|55:32,2,158.400004833985,6|10|0,3:2|0:0|3:2,0:0:0:0:
153,300,78582,1,8,0:0:0:0:
226,264,78760,2,0,L|385:287,1,158.400004833985,2|0,3:2|3:2,0:0:0:0:
461,329,79296,2,0,B|472:290|472:290|458:245,1,79.2000024169923,8|2,0:0|0:0,0:0:0:0:
512,181,79653,6,0,L|418:165,1,79.2000024169923,0|0,3:2|3:2,0:0:0:0:
487,93,80010,2,0,L|393:77,1,79.2000024169923,8|0,0:0|0:0,0:0:0:0:
350,0,80367,6,0,B|288:42|288:42|191:23,1,158.400004833985,6|10,3:2|0:0,0:0:0:0:
145,79,80903,1,10,0:0:0:0:
145,79,80992,1,8,0:0:0:0:
145,79,81082,2,0,P|131:118|131:157,1,79.2000024169923,0|2,3:2|3:2,0:0:0:0:
194,219,81439,1,8,0:0:0:0:
283,184,81617,6,0,P|361:184|428:239,2,158.400004833985,6|0|0,3:2|3:2|0:0,0:0:0:0:
221,377,82689,1,2,3:2:0:0:
138,361,82867,1,10,0:0:0:0:
55,346,83046,1,2,0:0:0:0:
115,280,83225,6,0,P|115:197|73:137,1,158.400004833985,4|8,3:2|0:0,0:0:0:0:
57,42,83760,1,0,0:0:0:0:
57,42,83850,1,0,0:0:0:0:
57,42,83939,2,0,P|91:56|133:56,1,79.2000024169923,0|0,3:2|3:2,0:0:0:0:
225,16,84296,1,8,0:0:0:0:
282,96,84475,6,0,L|256:254,1,158.400004833985,4|0,3:2|3:3,0:0:0:0:
209,352,85010,2,0,P|248:352|285:371,1,79.2000024169923,12|0,3:2|0:0,0:0:0:0:
337,295,85367,2,0,P|376:295|413:276,1,79.2000024169923,8|4,0:0|3:3,0:0:0:0:
485,308,85725,5,8,0:0:0:0:
489,292,85814,1,8,0:0:0:0:
491,276,85903,1,8,0:0:0:0:
493,260,85992,1,8,0:0:0:0:
495,245,86082,2,0,B|482:197|482:197|494:163|494:163|480:104,2,144,6|2|0,3:2|3:2|3:2,0:0:0:0:
375,374,87153,2,0,L|302:361,1,72,0|8,3:2|0:0,0:0:0:0:
304,361,87421,1,8,0:0:0:0:
304,361,87510,6,0,P|270:299|283:230,1,144,0|0,3:2|3:2,0:0:0:0:
356,180,88046,1,8,0:0:0:0:
303,118,88225,2,0,L|316:45,1,72,2|8,3:2|0:0,0:0:0:0:
219,66,88582,2,0,L|206:136,1,72,2|8,3:2|0:0,0:0:0:0:
128,84,88939,6,0,B|67:120|67:120|-15:100,2,144,4|0|0,3:2|3:2|3:2,0:0:0:0:
270,227,90010,2,0,L|344:212,1,72,0|8,3:2|0:0,0:0:0:0:
405,152,90367,2,0,L|379:299,1,144,2|0,3:2|3:2,0:0:0:0:
452,370,90903,1,8,0:0:0:0:
452,370,90992,1,8,0:0:0:0:
452,370,91082,2,0,P|415:371|380:386,1,72,2|8,3:2|0:0,0:0:0:0:
309,345,91439,2,0,P|272:344|237:329,1,72,0|8,3:2|0:0,0:0:0:0:
199,258,91796,6,0,P|157:319|169:387,2,144,6|0|2,3:2|3:2|3:2,0:0:0:0:
45,225,92867,1,0,3:2:0:0:
45,225,93046,2,0,L|15:82,1,144,14|8,0:0|0:0,0:0:0:0:
88,16,93582,2,0,P|119:25|158:24,1,72,0|8,3:2|0:0,0:0:0:0:
158,23,93850,1,8,0:0:0:0:
158,23,93939,2,0,L|144:94,1,72,2|8,3:2|0:0,0:0:0:0:
198,173,94296,1,0,3:2:0:0:
284,116,94475,5,8,0:0:0:0:
284,116,94564,1,8,0:0:0:0:
284,116,94653,2,0,L|431:95,2,144,6|0|0,3:2|3:2|3:2,0:0:0:0:
83,115,95725,5,0,3:2:0:0:
23,168,95903,2,0,B|-8:196|-8:196|23:316,1,144,12|8,0:0|0:0,0:0:0:0:
0,373,96439,2,0,L|72:384,1,72,0|8,3:2|0:0,0:0:0:0:
84,378,96707,1,8,0:0:0:0:
97,372,96796,2,0,L|115:302,1,72,0|10,3:2|0:0,0:0:0:0:
157,234,97153,1,2,3:2:0:0:
157,234,97332,1,10,0:0:0:0:
113,167,97510,6,0,P|163:189|222:189,1,115.2,4|0,3:2|3:2,0:0:0:0:
317,160,98045,2,0,L|300:231,1,57.6,2|0,0:0|3:2,0:0:0:0:
244,274,98403,2,0,L|261:345,1,57.6,2|0,0:0|3:2,0:0:0:0:
333,378,98760,6,0,B|386:358|386:358|451:371,1,115.2,2|2,0:0|0:0,0:0:0:0:
501,311,99296,2,0,L|484:194,1,115.2,0|0,3:2|3:2,0:0:0:0:
494,106,99832,1,0,0:0:0:0:
494,106,100010,2,0,P|468:117|434:117,1,57.6,0|0,3:2|0:0,0:0:0:0:
378,63,100367,6,0,L|265:82,1,115.2,2|0,3:2|3:2,0:0:0:0:
191,36,100903,2,0,L|178:93,1,57.6,2|0,0:0|3:2,0:0:0:0:
226,156,101260,2,0,L|213:213,1,57.6,2|0,0:0|3:2,0:0:0:0:
289,247,101617,6,0,P|305:309|287:359,1,115.2,2|0,0:0|0:0,0:0:0:0:
217,384,102153,2,0,L|99:363,1,115.2,2|0,3:2|3:2,0:0:0:0:
27,384,102689,1,0,0:0:0:0:
27,384,102867,1,2,3:2:0:0:
0,236,103225,6,0,P|57:236|108:212,1,115.2,2|0,3:2|3:2,0:0:0:0:
247,149,103939,2,0,L|236:207,1,57.6,2|0,3:2|0:0,0:0:0:0:
193,275,104296,1,0,3:2:0:0:
193,275,104475,2,0,P|247:254|303:254,1,115.2,2|0,0:0|0:0,0:0:0:0:
362,302,105010,1,0,3:2:0:0:
502,250,105367,6,0,L|518:174,1,57.6,0|0,3:2|0:0,0:0:0:0:
426,200,105725,2,0,L|414:256,1,57.6,2|0,3:2|0:0,0:0:0:0:
425,348,106082,6,0,P|373:347|314:373,1,115.2,2|0,3:2|3:2,0:0:0:0:
250,316,106617,2,0,L|273:181,1,115.2,2|2,0:0|0:0,0:0:0:0:
338,152,107153,1,0,3:2:0:0:
338,152,107332,2,0,L|328:94,1,57.6,2|0,0:0|3:2,0:0:0:0:
235,38,107689,2,0,L|244:94,1,57.6,2|0,0:0|3:2,0:0:0:0:
162,135,108046,6,0,L|47:116,1,115.2,2|4,0:0|0:3,0:0:0:0:
48,116,108582,1,4,3:2:0:0:
0,335,108939,6,0,P|64:335|136:366,1,144,4|8,3:2|0:0,0:0:0:0:
206,313,109475,2,0,L|220:240,1,72,2|0,0:0|3:2,0:0:0:0:
150,190,109832,2,0,L|164:117,1,72,2|8,3:2|0:0,0:0:0:0:
85,82,110189,6,0,L|229:61,1,144,2|2,3:2|3:2,0:0:0:0:
292,5,110725,2,0,P|345:41|406:30,1,108,8|0,0:0|0:0,0:0:0:0:
396,28,111082,2,0,L|472:13,1,72,0|2,3:2|3:2,0:0:0:0:
512,84,111439,2,0,L|498:154,1,72,8|2,0:0|0:0,0:0:0:0:
512,244,111796,6,0,B|451:254|451:254|438:269|438:269|366:282,1,144,2|8,3:2|0:0,0:0:0:0:
318,341,112332,2,0,P|286:299|290:190,1,144,2|2,0:0|3:2,0:0:0:0:
353,162,112867,1,8,0:0:0:0:
338,82,113046,6,0,L|196:106,1,144,6|2,3:2|3:2,0:0:0:0:
118,120,113582,1,8,0:0:0:0:
148,41,113760,2,0,P|67:29|10:93,1,144,4|0,0:0|3:2,0:0:0:0:
21,150,114296,2,0,L|5:225,1,72,10|0,0:0|0:0,0:0:0:0:
91,274,114653,6,0,L|121:133,2,144,4|8|2,3:2|0:0|3:2,0:0:0:0:
73,359,115546,2,0,L|144:348,1,72,0|8,3:2|0:0,0:0:0:0:
230,377,115903,6,0,B|294:344|294:344|371:369,1,144,2|2,3:2|3:2,0:0:0:0:
444,360,116439,2,0,L|460:287,1,72,8|0,0:0|0:0,0:0:0:0:
437,216,116796,1,0,3:2:0:0:
493,162,116975,1,2,3:2:0:0:
461,90,117153,2,0,L|380:105,1,72,10|2,0:0|0:0,0:0:0:0:
314,29,117510,6,0,B|345:50|345:50|322:159,1,144,2|8,3:2|0:0,0:0:0:0:
365,232,118046,2,0,L|292:246,1,72,2|0,0:0|3:2,0:0:0:0:
219,213,118403,2,0,L|200:298,1,72,2|8,3:2|0:0,0:0:0:0:
246,362,118760,6,0,L|93:383,1,144,2|2,3:2|3:2,0:0:0:0:
27,341,119296,1,12,0:0:0:0:
83,273,119475,1,8,0:0:0:0:
83,273,119564,1,8,0:0:0:0:
83,273,119653,2,0,L|96:198,1,72,0|2,3:2|3:2,0:0:0:0:
6,225,120010,2,0,L|19:150,1,72,4|0,0:3|0:0,0:0:0:0:
0,70,120367,6,0,P|58:70|117:44,1,115.2,4|0,0:0|0:0,0:0:0:0:
198,7,120903,2,0,L|177:122,1,115.2,8|0,0:0|3:2,0:0:0:0:
177,120,121439,1,2,3:2:0:0:
229,278,121796,2,0,L|342:257,1,115.2,0|0,3:2|0:0,0:0:0:0:
401,326,122332,1,8,0:0:0:0:
401,326,122510,2,0,L|387:386,2,57.6,0|8|8,0:0|0:0|0:0,0:0:0:0:
486,217,123225,6,0,P|501:155|479:97,1,115.2,2|0,3:2|0:0,0:0:0:0:
512,23,123760,2,0,L|388:45,1,115.2,8|0,0:0|3:2,0:0:0:0:
323,0,124296,1,8,0:3:0:0:
323,0,124385,1,4,0:3:0:0:
323,0,124475,2,0,B|292:32|292:32|317:168,1,172.8,2|0,0:0|0:0,0:0:0:0:
263,221,125189,2,0,L|147:199,1,115.2,8|10,0:0|3:2,0:0:0:0:
121,279,125725,2,0,P|86:294|47:294,1,72,8|0,0:0|0:0,0:0:0:0:
0,224,126082,6,0,L|22:80,1,144,4|8,3:2|0:0,0:0:0:0:
73,12,126617,2,0,P|108:12|147:-3,1,72,2|0,0:0|3:2,0:0:0:0:
255,68,126975,2,0,P|220:68|181:83,1,72,2|8,3:2|0:0,0:0:0:0:
101,130,127332,6,0,P|175:131|237:180,1,144,2|2,3:2|3:2,0:0:0:0:
324,129,127867,2,0,P|337:99|341:60,1,72,10|0,0:0|0:0,0:0:0:0:
436,33,128225,1,2,3:2:0:0:
512,85,128403,1,2,3:2:0:0:
512,176,128582,2,0,P|475:176|441:188,1,72,10|2,0:0|0:0,0:0:0:0:
350,221,128939,6,0,P|414:226|464:285,1,144,2|8,3:2|0:0,0:0:0:0:
415,362,129475,2,0,P|351:357|301:298,1,144,2|2,0:0|3:2,0:0:0:0:
227,236,130010,1,8,0:0:0:0:
273,168,130189,6,0,L|289:25,1,144,6|0,3:2|3:2,0:0:0:0:
289,24,130725,1,8,0:0:0:0:
145,49,131082,5,2,3:2:0:0:
69,13,131260,1,0,3:2:0:0:
2,65,131439,2,0,P|14:99|14:137,1,72,14|0,0:0|0:0,0:0:0:0:
0,219,131796,6,0,L|142:197,1,144,2|8,3:2|0:0,0:0:0:0:
212,248,132332,1,0,0:0:0:0:
212,248,132421,1,0,0:0:0:0:
212,248,132510,2,0,P|221:212|221:175,1,72,2|0,3:2|3:2,0:0:0:0:
173,105,132867,1,8,0:3:0:0:
217,28,133046,6,0,P|273:57|353:57,1,144,14|10,3:2|3:2,0:0:0:0:
441,12,133582,1,10,3:2:0:0:
512,70,133760,1,10,3:2:0:0:
484,159,133939,1,2,3:2:0:0:
484,159,134653,6,0,P|410:158|339:203,1,158.400004833985,6|10,3:2|0:0,0:0:0:0:
274,153,135189,1,10,0:0:0:0:
274,153,135278,1,8,0:0:0:0:
274,153,135367,2,0,L|287:74,2,79.2000024169923,0|2|8,3:2|3:2|0:0,0:0:0:0:
412,245,135903,6,0,P|336:245|256:282,1,158.400004833985,2|0,3:2|3:2,0:0:0:0:
185,238,136439,2,0,L|167:325,1,79.2000024169923,8|0,0:0|0:0,0:0:0:0:
93,356,136796,1,2,3:2:0:0:
93,356,136975,1,2,3:2:0:0:
26,295,137153,2,0,L|42:217,1,79.2000024169923,10|2,0:0|0:0,0:0:0:0:
4,75,137510,6,0,P|76:76|153:36,1,158.400004833985,6|10,3:2|0:0,0:0:0:0:
247,70,138046,1,10,0:0:0:0:
247,70,138135,1,8,0:0:0:0:
247,70,138225,2,0,L|232:148,1,79.2000024169923,0|2,3:2|3:2,0:0:0:0:
154,210,138582,1,8,0:0:0:0:
190,297,138760,6,0,L|273:284,1,79.2000024169923,6|0,3:2|0:0,0:0:0:0:
332,349,139117,2,0,L|415:336,1,79.2000024169923,2|8,3:2|0:0,0:0:0:0:
487,384,139475,2,0,P|525:311|511:236,1,158.400004833985,2|2,0:0|3:2,0:0:0:0:
512,146,140010,2,0,L|429:162,1,79.2000024169923,8|0,0:0|0:0,0:0:0:0:
344,248,140367,6,0,B|290:236|290:236|244:249|244:249|172:233,1,158.400004833985,6|10,3:2|0:0,0:0:0:0:
109,280,140903,1,10,0:0:0:0:
109,280,140992,1,8,0:0:0:0:
109,280,141082,2,0,L|96:202,1,79.2000024169923,0|2,3:2|3:2,0:0:0:0:
26,151,141439,1,8,0:0:0:0:
50,66,141617,6,0,P|112:96|200:96,1,158.400004833985,2|0,3:2|3:2,0:0:0:0:
299,51,142153,2,0,L|280:137,1,79.2000024169923,8|2,0:0|0:0,0:0:0:0:
208,192,142510,2,0,B|221:248|221:248|207:285|207:285|225:359,1,158.400004833985,0|8,3:2|0:0,0:0:0:0:
456,372,143225,6,0,P|501:312|491:233,1,158.400004833985,2|10,3:2|0:0,0:0:0:0:
441,160,143760,1,10,0:0:0:0:
441,160,143850,1,8,0:0:0:0:
441,160,143939,1,0,3:2:0:0:
374,214,144117,2,0,L|296:228,1,79.2000024169923,4|4,3:3|0:3,0:0:0:0:
228,292,144475,6,0,L|260:135,1,158.400004833985,6|0,3:2|3:2,0:0:0:0:
248,39,145010,1,8,0:0:0:0:
156,48,145189,5,8,0:0:0:0:
156,48,145278,1,8,0:0:0:0:
156,48,145367,2,0,P|109:48|61:27,1,79.2000024169923,2|2,3:2|3:2,0:0:0:0:
19,104,145725,2,0,L|31:182,1,79.2000024169923,10|2,0:0|0:0,0:0:0:0:
7,268,146082,6,0,B|67:282|101:237|101:237|162:253,1,158.400004833985,6|10,3:2|0:0,0:0:0:0:
231,183,146617,1,10,0:0:0:0:
231,183,146707,1,8,0:0:0:0:
231,183,146796,1,0,3:2:0:0:
135,147,146975,2,0,P|137:107|158:74,1,79.2000024169923,2|8,3:2|0:0,0:0:0:0:
96,0,147332,6,0,P|158:39|242:28,1,158.400004833985,6|0,3:2|3:2,0:0:0:0:
312,77,147867,2,0,L|389:62,1,79.2000024169923,8|0,0:0|0:0,0:0:0:0:
461,11,148225,1,2,3:2:0:0:
461,11,148403,1,2,3:2:0:0:
510,74,148582,2,0,P|493:113|493:154,1,79.2000024169923,10|2,0:0|0:0,0:0:0:0:
511,247,148939,6,0,P|433:238|369:281,1,158.400004833985,6|10,3:2|0:0,0:0:0:0:
305,339,149475,2,0,P|288:305|288:261,1,79.2000024169923,10|0,3:2|3:2,0:0:0:0:
225,193,149832,2,0,P|233:156|262:122,1,79.2000024169923,2|8,3:2|0:0,0:0:0:0:
329,60,150189,6,0,L|149:91,1,158.400004833985,6|2,3:2|3:2,0:0:0:0:
120,12,150725,1,8,0:0:0:0:
40,56,150903,2,0,B|11:83|11:83|41:206,1,158.400004833985,2|2,3:2|3:2,0:0:0:0:
0,279,151439,2,0,P|40:279|78:295,1,79.2000024169923,8|0,0:0|0:0,0:0:0:0:
184,360,151796,6,0,L|340:331,2,158.400004833985,6|10|0,3:2|0:0|3:2,0:0:0:0:
39,198,152867,1,8,0:0:0:0:
39,198,153046,2,0,P|55:117|126:92,1,158.400004833985,2|0,3:2|3:2,0:0:0:0:
176,36,153582,2,0,L|253:50,1,79.2000024169923,8|2,0:0|0:0,0:0:0:0:
329,8,153939,1,0,3:2:0:0:
329,8,154117,1,0,3:2:0:0:
400,55,154296,2,0,B|385:74|385:74|400:131,1,79.2000024169923,8|0,0:0|0:0,0:0:0:0:
323,168,154653,6,0,P|400:168|463:220,1,158.400004833985,6|10,3:2|0:0,0:0:0:0:
512,310,155189,1,10,0:0:0:0:
512,310,155278,1,8,0:0:0:0:
512,310,155367,2,0,P|473:310|432:325,1,79.2000024169923,0|2,3:2|3:2,0:0:0:0:
373,383,155725,1,8,0:0:0:0:
302,333,155903,6,0,P|302:249|333:173,1,158.400004833985,6|0,3:2|3:2,0:0:0:0:
392,124,156439,1,8,0:0:0:0:
319,95,156617,2,0,P|304:58|304:20,1,79.2000024169923,4|2,0:3|3:2,0:0:0:0:
225,59,156975,1,8,3:3:0:0:
154,3,157153,2,0,P|113:3|72:23,1,79.2000024169923,4|0,0:3|0:0,0:0:0:0:
32,96,157510,5,4,3:2:0:0:
256,192,157600,12,0,158939,3:2:0:0:
507,202,165189,5,8,0:0:0:0:
507,202,165367,2,0,L|492:272,1,72,0|8,3:2|0:3,0:0:0:0:
436,342,165725,2,0,P|381:345|338:375,1,108,4|0,3:3|0:0,0:0:0:0:
339,375,166082,6,0,L|322:230,1,144,4|0,3:2|0:0,0:0:0:0:
377,152,166617,1,2,3:2:0:0:
377,152,166796,2,0,P|340:152|305:135,1,72,8|0,0:0|0:0,0:0:0:0:
227,96,167153,1,2,0:0:0:0:
227,96,167332,2,0,L|153:106,1,72,0|0,3:2|0:0,0:0:0:0:
93,209,167689,6,0,L|235:188,1,144,2|0,0:0|0:0,0:0:0:0:
308,137,168225,2,0,P|320:172|320:212,1,72,8|2,0:0|3:2,0:0:0:0:
365,289,168582,2,0,P|320:289|279:306,1,72,2|2,0:0|0:0,0:0:0:0:
227,357,168939,6,0,L|152:344,1,72,2|2,3:2|0:0,0:0:0:0:
76,378,169296,2,0,P|76:341|66:303,1,72,2|2,0:0|3:2,0:0:0:0:
13,245,169653,1,10,0:0:0:0:
13,245,169832,2,0,L|27:175,1,72,2|2,0:0|0:0,0:0:0:0:
0,90,170189,6,0,P|68:90|134:54,1,144,2|0,3:2|0:0,0:0:0:0:
133,54,170725,1,0,3:2:0:0:
281,9,171082,6,0,L|263:83,1,72,8|0,0:0|3:2,0:0:0:0:
205,133,171439,2,0,L|187:207,1,72
128,269,171796,5,2,3:2:0:0:
128,269,171975,1,2,0:0:0:0:
177,334,172153,2,0,P|216:334|250:351,1,72,2|2,0:0|3:2,0:0:0:0:
323,318,172510,1,10,0:0:0:0:
375,381,172689,2,0,L|446:368,1,72,2|2,0:0|0:0,0:0:0:0:
496,303,173046,6,0,P|472:235|485:166,1,144,2|2,3:2|0:0,0:0:0:0:
512,86,173582,1,0,3:2:0:0:
450,33,173760,1,2,0:0:0:0:
450,33,173850,1,8,0:0:0:0:
450,33,173939,2,0,L|368:50,1,72,8|8,0:3|3:3,0:0:0:0:
303,1,174296,2,0,L|278:118,1,108,4|0,0:3|0:0,0:0:0:0:
278,126,174653,6,0,P|219:92|145:92,1,144,6|8,3:2|0:0,0:0:0:0:
71,39,175189,1,2,3:2:0:0:
71,39,175278,1,0,3:2:0:0:
71,39,175367,2,0,L|53:117,1,72,0|0,3:2|3:2,0:0:0:0:
0,171,175725,1,10,0:0:0:0:
47,239,175903,6,0,L|193:217,1,144,4|2,3:2|3:2,0:0:0:0:
261,275,176439,2,0,P|275:244|275:203,1,72,8|0,0:0|0:0,0:0:0:0:
275,206,176707,1,0,0:0:0:0:
275,206,176796,2,0,P|311:217|346:223,1,72,0|0,3:2|3:2,0:0:0:0:
407,283,177153,5,4,0:3:0:0:
421,272,177242,1,8,0:3:0:0:
438,266,177331,1,4,0:3:0:0:
456,264,177420,1,8,0:3:0:0:
473,266,177510,6,0,P|490:235|494:200,1,72,6|4,3:2|3:3,0:0:0:0:
512,119,177867,2,0,P|442:114|383:67,1,144,14|14,3:2|3:2,0:0:0:0:
303,40,178403,1,8,3:3:0:0:
276,122,178582,1,8,3:3:0:0:
356,151,178760,1,14,3:2:0:0:
480,16,180367,6,0,B|449:54|449:54|481:242,1,230.4,6|0,3:2|0:0,0:0:0:0:
352,336,181439,1,8,0:3:0:0:
271,365,181617,2,0,B|207:343|207:343|159:370|100:344,1,172.8,6|0,3:2|0:0,0:0:0:0:
106,347,182510,6,0,L|97:288,1,57.6,8|8,0:3|0:3,0:0:0:0:
8,229,182867,1,8,0:0:0:0:
8,229,182957,1,8,0:0:0:0:
8,229,183046,1,8,0:3:0:0:
23,124,183225,6,0,P|134:133|211:47,1,230.4,6|8,3:2|0:3,0:0:0:0:
302,5,184117,2,0,L|289:70,1,57.6,4|4,0:3|0:3,0:0:0:0:
358,125,184475,6,0,P|409:100|469:105,2,115.2,6|0|6,3:2|0:0|3:2,0:0:0:0:
241,187,185546,1,8,0:3:0:0:
241,187,185725,2,0,L|231:244,1,57.6,8|0,3:3|0:0,0:0:0:0:
290,325,186082,6,0,P|244:292|158:292,1,144,6|2,3:2|3:2,0:0:0:0:
87,329,186617,1,10,0:0:0:0:
87,329,186707,1,8,0:0:0:0:
87,329,186796,2,0,L|76:256,1,72,0|10,3:2|0:0,0:0:0:0:
0,215,187153,2,0,L|11:142,1,72,0|10,3:2|0:0,0:0:0:0:
0,66,187510,6,0,P|40:94|138:78,1,144,0|0,3:2|3:2,0:0:0:0:
234,35,188046,1,10,0:0:0:0:
234,35,188135,1,8,0:0:0:0:
234,35,188225,2,0,L|217:106,1,72,2|8,3:2|0:0,0:0:0:0:
271,171,188582,2,0,L|254:242,1,72,2|8,3:2|0:0,0:0:0:0:
196,307,188939,6,0,B|250:289|250:289|344:310,1,144,4|0,3:2|3:2,0:0:0:0:
423,280,189475,1,8,0:0:0:0:
423,280,189564,1,8,0:0:0:0:
423,280,189653,2,0,L|435:351,2,72,0|8|8,3:2|0:3|3:3,0:0:0:0:
476,209,190189,6,0,P|521:150|511:81,1,144,4|0,0:0|3:2,0:0:0:0:
462,4,190725,1,8,0:0:0:0:
389,45,190903,2,0,L|316:58,1,72,8|8,0:0|3:3,0:0:0:0:
226,78,191260,1,8,0:3:0:0:
226,78,191350,1,8,0:3:0:0:
226,78,191439,2,0,L|218:114,3,36,8|8|8|8,0:3|0:3|0:3|0:3,0:0:0:0:
202,130,191796,6,0,P|278:131|344:188,1,158.400004833985,6|10,3:2|0:0,0:0:0:0:
442,155,192332,1,10,0:0:0:0:
442,155,192421,1,8,0:0:0:0:
442,155,192510,2,0,L|422:234,1,79.2000024169923,0|2,3:2|3:2,0:0:0:0:
460,315,192867,1,8,0:0:0:0:
338,368,193046,6,0,B|297:344|297:344|182:369,1,158.400004833985,6|0,3:2|3:2,0:0:0:0:
111,338,193582,2,0,L|33:353,1,79.2000024169923,8|0,0:0|0:0,0:0:0:0:
0,277,193939,1,2,3:2:0:0:
0,277,194117,1,2,3:2:0:0:
67,225,194296,2,0,L|81:147,1,79.2000024169923,10|2,0:0|0:0,0:0:0:0:
16,77,194653,6,0,B|54:102|54:102|167:83,1,158.400004833985,6|10,3:2|0:0,0:0:0:0:
253,21,195189,2,0,P|216:81|216:168,1,158.400004833985,10|2,0:0|3:2,0:0:0:0:
152,237,195725,1,8,0:0:0:0:
185,317,195903,6,0,L|262:333,1,79.2000024169923,6|0,3:2|0:0,0:0:0:0:
338,384,196260,2,0,L|354:307,1,79.2000024169923,2|8,3:2|0:0,0:0:0:0:
289,251,196617,2,0,P|367:252|434:213,1,158.400004833985,10|2,3:2|3:2,0:0:0:0:
501,155,197153,1,8,0:0:0:0:
501,155,197332,1,0,0:0:0:0:
436,77,197510,6,0,L|453:-2,1,79.2000024169923,6|0,3:2|0:0,0:0:0:0:
353,38,197867,2,0,L|336:117,1,79.2000024169923,10|10,0:0|0:0,0:0:0:0:
336,115,198135,1,8,0:0:0:0:
336,115,198225,1,0,3:2:0:0:
256,76,198403,2,0,L|177:90,1,79.2000024169923,2|8,3:2|0:0,0:0:0:0:
75,204,198760,6,0,L|230:176,1,158.400004833985,2|0,3:2|3:2,0:0:0:0:
299,122,199296,2,0,P|337:139|377:139,1,79.2000024169923,8|2,0:0|0:0,0:0:0:0:
458,105,199653,1,0,3:2:0:0:
458,105,199832,1,0,3:2:0:0:
512,179,200010,2,0,L|496:264,1,79.2000024169923,8|0,0:0|0:0,0:0:0:0:
504,339,200367,6,0,P|430:339|361:386,1,158.400004833985,6|10,3:2|0:0,0:0:0:0:
289,343,200903,1,10,0:0:0:0:
289,343,200992,1,8,0:0:0:0:
289,343,201082,2,0,L|276:262,1,79.2000024169923,0|2,3:2|3:2,0:0:0:0:
323,199,201439,1,8,0:0:0:0:
289,123,201617,6,0,P|353:160|434:149,1,158.400004833985,6|0,3:2|3:2,0:0:0:0:
433,149,202153,1,8,0:0:0:0:
450,50,202332,1,0,0:0:0:0:
450,50,202421,1,0,0:0:0:0:
450,50,202510,2,0,L|357:67,1,79.2000024169923,2|2,3:2|3:2,0:0:0:0:
280,16,202867,2,0,P|249:60|259:135,1,118.800003625488,10|0,0:0|0:0,0:0:0:0:
256,131,203225,6,0,L|99:110,1,158.400004833985,4|8,3:2|0:0,0:0:0:0:
7,90,203760,1,0,0:0:0:0:
7,90,203850,1,0,0:0:0:0:
7,90,203939,2,0,L|24:172,1,79.2000024169923,0|0,3:2|3:2,0:0:0:0:
0,268,204296,1,8,0:0:0:0:
56,350,204475,6,0,P|143:350|213:395,1,158.400004833985,4|0,3:2|3:3,0:0:0:0:
276,313,205010,2,0,P|287:278|287:236,1,79.2000024169923,12|0,3:2|0:0,0:0:0:0:
185,186,205367,2,0,P|174:151|174:109,1,79.2000024169923,8|4,0:0|3:3,0:0:0:0:
236,23,205725,1,8,0:0:0:0:
259,27,205814,1,8,0:0:0:0:
282,31,205903,1,8,0:0:0:0:
306,35,205992,1,8,0:0:0:0:
327,38,206082,6,0,B|356:59|356:59|479:38,1,144,6|2,3:2|3:2,0:0:0:0:
512,122,206617,1,8,0:0:0:0:
512,122,206707,1,8,0:0:0:0:
512,122,206796,2,0,L|498:192,1,72,0|8,3:2|0:0,0:0:0:0:
415,219,207153,2,0,L|401:289,1,72,0|8,3:2|0:0,0:0:0:0:
325,334,207510,6,0,P|395:335|455:374,2,144,0|0|2,3:2|3:2|3:2,0:0:0:0:
253,380,208403,1,8,0:0:0:0:
190,325,208582,2,0,L|203:254,1,72,2|8,3:2|0:0,0:0:0:0:
287,194,208939,6,0,P|317:126|288:63,1,144,4|0,3:2|3:2,0:0:0:0:
224,13,209475,1,8,0:0:0:0:
224,13,209564,1,8,0:0:0:0:
224,13,209653,2,0,L|151:28,1,72,0|8,3:2|0:0,0:0:0:0:
76,1,210010,1,0,3:2:0:0:
52,82,210189,1,8,0:0:0:0:
0,145,210367,6,0,B|62:111|62:111|137:130,1,144,2|0,3:2|3:2,0:0:0:0:
215,175,210903,1,8,0:0:0:0:
215,175,210992,1,8,0:0:0:0:
215,175,211082,2,0,L|287:161,1,72,2|8,3:2|0:0,0:0:0:0:
364,189,211439,2,0,L|436:175,1,72,0|8,3:2|0:0,0:0:0:0:
494,110,211796,6,0,L|466:251,1,144,6|0,3:2|3:2,0:0:0:0:
512,336,212332,1,8,0:0:0:0:
512,336,212421,1,8,0:0:0:0:
512,336,212510,2,0,P|475:336|436:354,1,72,2|8,3:2|0:0,0:0:0:0:
372,384,212867,1,0,3:2:0:0:
304,334,213046,6,0,L|332:193,1,144,14|8,0:0|0:0,0:0:0:0:
386,111,213582,2,0,P|351:111|312:93,1,72,0|8,3:2|0:0,0:0:0:0:
252,43,213940,2,0,L|102:72,1,144,2|0,3:2|3:2,0:0:0:0:
39,128,214475,5,8,0:0:0:0:
39,128,214564,1,8,0:0:0:0:
39,128,214653,2,0,B|13:108|13:108|42:-13,1,144,6|0,3:2|3:2,0:0:0:0:
129,0,215189,1,8,0:0:0:0:
129,0,215278,1,8,0:0:0:0:
129,0,215367,2,0,L|108:77,1,72,0|8,3:2|0:0,0:0:0:0:
39,128,215725,1,0,3:2:0:0:
19,223,215903,1,12,0:0:0:0:
106,278,216082,6,0,P|176:278|231:234,1,144,0|0,3:2|3:2,0:0:0:0:
232,149,216617,1,8,0:0:0:0:
232,149,216707,1,8,0:0:0:0:
232,149,216796,2,0,L|247:78,1,72,0|10,3:2|0:0,0:0:0:0:
334,56,217153,1,2,3:2:0:0:
356,70,217242,1,8,0:0:0:0:
382,77,217331,1,10,0:0:0:0:
409,78,217420,1,8,0:0:0:0:
438,70,217510,6,0,L|450:0,2,57.6,6|0|2,3:2|0:0|0:3,0:0:0:0:
497,191,218225,2,0,L|509:121,2,57.6,2|0|2,0:3|0:0|0:3,0:0:0:0:
406,168,218760,2,0,L|430:313,2,115.2,2|2|2,0:0|0:0|0:0,0:0:0:0:
311,84,219832,1,0,0:0:0:0:
311,84,220010,2,0,L|298:141,1,57.6,2|0,0:3|0:0,0:0:0:0:
206,162,220367,6,0,L|219:105,2,57.6,2|0|2,0:0|0:0|0:3,0:0:0:0:
292,308,221082,2,0,L|305:251,2,57.6,2|0|2,0:3|0:0|0:3,0:0:0:0:
242,371,221617,2,0,L|376:348,2,115.2,2|2|2,0:0|0:0|0:0,0:0:0:0:
125,324,222689,1,0,0:0:0:0:
125,324,222867,2,0,L|68:333,1,57.6,2|0,0:3|0:0,0:0:0:0:
15,256,223225,6,0,L|71:246,2,57.6,2|0|2,0:0|0:0|0:3,0:0:0:0:
70,99,223939,2,0,L|126:89,2,57.6,2|0|2,0:3|0:0|0:3,0:0:0:0:
7,149,224475,6,0,L|26:34,2,115.2,2|2|2,0:0|0:0|0:0,0:0:0:0:
129,227,225546,1,0,0:0:0:0:
129,227,225725,2,0,L|187:217,1,57.6,2|0,0:3|0:0,0:0:0:0:
234,137,226082,6,0,L|244:79,2,57.6,2|0|2,0:0|0:0|0:3,0:0:0:0:
323,275,226796,2,0,L|333:217,2,57.6,2|0|2,0:3|0:0|0:3,0:0:0:0:
277,337,227332,5,2,0:0:0:0:
408,296,227689,1,2,0:0:0:0:
498,384,228046,1,2,0:0:0:0:
408,296,228403,5,0,0:0:0:0:
408,296,228582,2,0,L|432:184,1,115.2,2|0,0:0|0:0,0:0:0:0:
