osu file format v14

[General]
AudioFilename: audio.mp3
AudioLeadIn: 0
PreviewTime: 72177
Countdown: 0
SampleSet: Soft
StackLeniency: 0.7
Mode: 3
LetterboxInBreaks: 0
SpecialStyle: 0
WidescreenStoryboard: 0

[Editor]
DistanceSpacing: 0.8
BeatDivisor: 4
GridSize: 16
TimelineZoom: 1.5

[Metadata]
Title:Hitsujigumo no Sora ni
TitleUnicode:ひつじ雲の空に
Artist:Nakae Mitsuki
ArtistUnicode:中恵光城
Creator:Kim_GodSSI
Version:Sora
Source:大図書館の羊飼い -Dreaming Sheep-
Tags:大図書館の羊飼い -DreamingSheep- & 放課後しっぽデイズ Original Sound Track Daitoshokan no Hitsujikai -Dreaming Sheep- & Houkago Shippo Days Hitsuji gumo ost pop jpop j-pop video game vn visual novel eroge galgame japanese STELLA SCMN-026
BeatmapID:3277328
BeatmapSetID:1604936

[Difficulty]
HPDrainRate:7.5
CircleSize:7
OverallDifficulty:7
ApproachRate:5
SliderMultiplier:1.4
SliderTickRate:1

[Events]
//Background and Video events
0,0,"BG.jpg",0,0
//Break Periods
//Storyboard Layer 0 (Background)
//Storyboard Layer 1 (Fail)
//Storyboard Layer 2 (Pass)
//Storyboard Layer 3 (Foreground)
//Storyboard Layer 4 (Overlay)
//Storyboard Sound Samples

[TimingPoints]
927,625,3,2,1,20,1,0
72177,-100,3,2,1,20,0,1
105927,-100,3,2,1,20,0,0
194052,-100,3,2,1,20,0,1
227802,-100,3,2,1,20,0,0

[HitObjects]
182,192,302,128,0,614:0:0:0:0:
329,192,614,128,0,927:0:0:0:0:
182,192,927,128,0,1552:0:0:0:0:
36,192,927,128,0,1552:0:0:0:0:
402,192,927,128,0,1552:0:0:0:0:
109,192,1552,128,0,1864:0:0:0:0:
256,192,1708,128,0,1864:0:0:0:0:
329,192,1864,128,0,2802:0:0:0:0:
475,192,1864,128,0,2802:0:0:0:0:
182,192,1864,128,0,2802:0:0:0:0:
36,192,2489,128,0,2802:0:0:0:0:
256,192,2802,128,0,3427:0:0:0:0:
402,192,2802,128,0,3427:0:0:0:0:
109,192,2802,128,0,3427:0:0:0:0:
36,192,3427,128,0,3739:0:0:0:0:
182,192,3583,128,0,3739:0:0:0:0:
329,192,3739,128,0,4364:0:0:0:0:
475,192,3739,128,0,4364:0:0:0:0:
109,192,3739,128,0,4364:0:0:0:0:
182,192,4364,128,0,4677:0:0:0:0:
36,192,4677,128,0,5302:0:0:0:0:
256,192,4677,128,0,5302:0:0:0:0:
402,192,4677,128,0,5302:0:0:0:0:
475,192,5302,128,0,5614:0:0:0:0:
182,192,5302,128,0,5458:0:0:0:0:
329,192,5458,128,0,5614:0:0:0:0:
36,192,5614,128,0,6395:0:0:0:0:
182,192,5614,128,0,6395:0:0:0:0:
256,192,5614,128,0,6083:0:0:0:0:
475,192,5927,128,0,6552:0:0:0:0:
329,192,6239,128,0,6552:0:0:0:0:
36,192,6552,128,0,7177:0:0:0:0:
182,192,6552,128,0,7177:0:0:0:0:
402,192,6552,128,0,7177:0:0:0:0:
109,192,7177,128,0,7489:0:0:0:0:
475,192,7177,128,0,7489:0:0:0:0:
256,192,7333,128,0,7489:0:0:0:0:
182,192,7489,128,0,8114:0:0:0:0:
36,192,7489,128,0,8114:0:0:0:0:
402,192,7489,128,0,7645:0:0:0:0:
329,192,7645,128,0,7802:0:0:0:0:
256,192,7802,128,0,7958:0:0:0:0:
475,192,7802,128,0,8114:0:0:0:0:
402,192,7958,128,0,8114:0:0:0:0:
329,192,8114,128,0,8270:0:0:0:0:
182,192,8270,128,0,8427:0:0:0:0:
109,192,8427,128,0,9052:0:0:0:0:
256,192,8427,128,0,9052:0:0:0:0:
402,192,8427,128,0,9052:0:0:0:0:
182,192,9052,128,0,9364:0:0:0:0:
329,192,9208,128,0,9364:0:0:0:0:
36,192,9364,128,0,9989:0:0:0:0:
475,192,9364,128,0,9677:0:0:0:0:
109,192,9364,128,0,9989:0:0:0:0:
182,192,9677,128,0,9989:0:0:0:0:
329,192,9677,128,0,9989:0:0:0:0:
475,192,9833,128,0,9989:0:0:0:0:
256,192,9989,128,0,10145:0:0:0:0:
402,192,10145,128,0,10302:0:0:0:0:
109,192,10302,128,0,10927:0:0:0:0:
329,192,10302,128,0,10614:0:0:0:0:
36,192,10302,128,0,10927:0:0:0:0:
256,192,10614,128,0,10927:0:0:0:0:
402,192,10614,128,0,10927:0:0:0:0:
182,192,10770,128,0,10927:0:0:0:0:
329,192,10927,128,0,11239:0:0:0:0:
475,192,10927,128,0,11239:0:0:0:0:
109,192,11083,128,0,11239:0:0:0:0:
36,192,11239,128,0,11864:0:0:0:0:
182,192,11239,128,0,11864:0:0:0:0:
402,192,11239,128,0,11552:0:0:0:0:
475,192,11552,128,0,11864:0:0:0:0:
329,192,11552,128,0,11864:0:0:0:0:
109,192,11708,128,0,11864:0:0:0:0:
256,192,11864,128,0,12020:0:0:0:0:
329,192,12020,128,0,12177:0:0:0:0:
109,192,12177,128,0,12802:0:0:0:0:
36,192,12177,128,0,12802:0:0:0:0:
402,192,12177,128,0,12802:0:0:0:0:
182,192,12177,128,0,12489:0:0:0:0:
256,192,12489,128,0,12802:0:0:0:0:
329,192,12802,128,0,13114:0:0:0:0:
475,192,12802,128,0,13114:0:0:0:0:
182,192,13114,128,0,13895:0:0:0:0:
402,192,13114,128,0,13427:0:0:0:0:
36,192,13114,128,0,13895:0:0:0:0:
329,192,13427,128,0,13583:0:0:0:0:
475,192,13583,128,0,13739:0:0:0:0:
256,192,13739,128,0,13895:0:0:0:0:
402,192,13895,128,0,14052:0:0:0:0:
182,192,14052,128,0,14677:0:0:0:0:
36,192,14052,128,0,14677:0:0:0:0:
329,192,14052,128,0,14364:0:0:0:0:
475,192,14208,128,0,14364:0:0:0:0:
402,192,14364,128,0,14677:0:0:0:0:
256,192,14364,128,0,14677:0:0:0:0:
109,192,14677,128,0,14989:0:0:0:0:
402,192,14833,128,0,14989:0:0:0:0:
256,192,14989,128,0,15302:0:0:0:0:
109,192,15145,128,0,15302:0:0:0:0:
329,192,15302,128,0,15614:0:0:0:0:
182,192,15302,128,0,15614:0:0:0:0:
256,192,15614,128,0,15927:0:0:0:0:
402,192,15614,128,0,15927:0:0:0:0:
182,192,15927,128,0,16864:0:0:0:0:
36,192,15927,128,0,16864:0:0:0:0:
109,192,15927,128,0,16864:0:0:0:0:
329,192,15927,1,0,0:0:0:0:
475,192,15927,1,0,0:0:0:0:
329,192,16552,128,0,16864:0:0:0:0:
475,192,16552,128,0,16864:0:0:0:0:
256,192,16864,128,0,17489:0:0:0:0:
402,192,16864,128,0,17489:0:0:0:0:
182,192,17489,128,0,17802:0:0:0:0:
329,192,17802,128,0,18114:0:0:0:0:
475,192,17802,128,0,18114:0:0:0:0:
182,192,18114,128,0,18427:0:0:0:0:
36,192,18114,128,0,18427:0:0:0:0:
256,192,18427,128,0,18739:0:0:0:0:
402,192,18427,128,0,18739:0:0:0:0:
109,192,18739,128,0,19677:0:0:0:0:
182,192,18739,1,0,0:0:0:0:
475,192,19052,128,0,19208:0:0:0:0:
402,192,19208,128,0,19364:0:0:0:0:
329,192,19364,128,0,19520:0:0:0:0:
256,192,19520,128,0,19677:0:0:0:0:
36,192,19677,128,0,20302:0:0:0:0:
475,192,19677,128,0,19989:0:0:0:0:
402,192,19677,128,0,19989:0:0:0:0:
182,192,19677,128,0,19989:0:0:0:0:
329,192,19989,128,0,20302:0:0:0:0:
256,192,19989,1,0,0:0:0:0:
475,192,20302,128,0,20927:0:0:0:0:
109,192,20302,1,0,0:0:0:0:
182,192,20302,128,0,20458:0:0:0:0:
256,192,20614,128,0,20927:0:0:0:0:
36,192,20614,128,0,20927:0:0:0:0:
109,192,20614,128,0,20927:0:0:0:0:
329,192,20927,128,0,21552:0:0:0:0:
182,192,20927,1,0,0:0:0:0:
182,192,21239,128,0,21552:0:0:0:0:
36,192,21239,1,0,0:0:0:0:
36,192,21552,128,0,22177:0:0:0:0:
256,192,21552,128,0,21864:0:0:0:0:
402,192,21552,128,0,21864:0:0:0:0:
329,192,21864,128,0,22177:0:0:0:0:
475,192,21864,128,0,22177:0:0:0:0:
256,192,22177,128,0,22802:0:0:0:0:
402,192,22177,128,0,22802:0:0:0:0:
109,192,22177,128,0,22333:0:0:0:0:
182,192,22489,128,0,23114:0:0:0:0:
36,192,22489,1,0,0:0:0:0:
475,192,22489,1,0,0:0:0:0:
36,192,22802,128,0,23270:0:0:0:0:
329,192,22802,1,0,0:0:0:0:
475,192,22802,1,0,0:0:0:0:
109,192,23114,128,0,23270:0:0:0:0:
329,192,23114,128,0,23270:0:0:0:0:
475,192,23114,128,0,23270:0:0:0:0:
256,192,23114,128,0,23270:0:0:0:0:
182,192,23427,128,0,24052:0:0:0:0:
36,192,23427,128,0,23739:0:0:0:0:
329,192,23427,1,0,0:0:0:0:
475,192,23427,1,0,0:0:0:0:
402,192,23427,1,0,0:0:0:0:
329,192,23739,128,0,24364:0:0:0:0:
256,192,23739,1,0,0:0:0:0:
36,192,24052,128,0,24364:0:0:0:0:
475,192,24052,1,0,0:0:0:0:
475,192,24364,1,0,0:0:0:0:
402,192,24364,128,0,24677:0:0:0:0:
256,192,24364,128,0,24677:0:0:0:0:
109,192,24364,1,0,0:0:0:0:
109,192,24677,128,0,24989:0:0:0:0:
329,192,24677,1,0,0:0:0:0:
182,192,24989,128,0,25302:0:0:0:0:
329,192,24989,128,0,25302:0:0:0:0:
475,192,24989,1,0,0:0:0:0:
36,192,25302,128,0,25927:0:0:0:0:
402,192,25302,1,0,0:0:0:0:
109,192,25302,1,0,0:0:0:0:
475,192,25302,128,0,25614:0:0:0:0:
329,192,25614,128,0,25927:0:0:0:0:
182,192,25614,1,0,0:0:0:0:
475,192,25927,128,0,26552:0:0:0:0:
256,192,25927,1,0,0:0:0:0:
109,192,25927,1,0,0:0:0:0:
182,192,26239,128,0,26552:0:0:0:0:
329,192,26239,128,0,26552:0:0:0:0:
109,192,26552,128,0,26864:0:0:0:0:
36,192,26552,1,0,0:0:0:0:
402,192,26552,1,0,0:0:0:0:
402,192,26864,128,0,27177:0:0:0:0:
256,192,26864,1,0,0:0:0:0:
182,192,27177,128,0,27802:0:0:0:0:
329,192,27177,1,0,0:0:0:0:
475,192,27177,1,0,0:0:0:0:
36,192,27177,1,0,0:0:0:0:
402,192,27489,128,0,28114:0:0:0:0:
256,192,27489,1,0,0:0:0:0:
256,192,27802,128,0,28114:0:0:0:0:
109,192,27802,1,0,0:0:0:0:
36,192,27802,1,0,0:0:0:0:
109,192,28114,128,0,28739:0:0:0:0:
475,192,28114,128,0,28427:0:0:0:0:
36,192,28114,1,0,0:0:0:0:
329,192,28114,1,0,0:0:0:0:
329,192,28427,128,0,29052:0:0:0:0:
182,192,28427,1,0,0:0:0:0:
475,192,28739,128,0,29052:0:0:0:0:
182,192,28739,1,0,0:0:0:0:
36,192,28739,1,0,0:0:0:0:
256,192,28739,1,0,0:0:0:0:
109,192,29052,128,0,29677:0:0:0:0:
256,192,29052,1,0,0:0:0:0:
36,192,29052,1,0,0:0:0:0:
402,192,29052,1,0,0:0:0:0:
256,192,29364,128,0,29677:0:0:0:0:
402,192,29364,1,0,0:0:0:0:
182,192,29677,128,0,29989:0:0:0:0:
36,192,29677,128,0,29989:0:0:0:0:
329,192,29677,1,0,0:0:0:0:
475,192,29677,1,0,0:0:0:0:
402,192,29989,128,0,30458:0:0:0:0:
329,192,29989,1,0,0:0:0:0:
182,192,30302,128,0,30770:0:0:0:0:
36,192,30302,1,0,0:0:0:0:
402,192,30614,128,0,30770:0:0:0:0:
109,192,30927,128,0,31552:0:0:0:0:
36,192,30927,1,0,0:0:0:0:
256,192,30927,1,0,0:0:0:0:
402,192,30927,1,0,0:0:0:0:
475,192,30927,1,0,0:0:0:0:
256,192,31239,128,0,31552:0:0:0:0:
402,192,31239,1,0,0:0:0:0:
402,192,31552,128,0,31864:0:0:0:0:
182,192,31552,1,0,0:0:0:0:
36,192,31552,1,0,0:0:0:0:
182,192,31864,128,0,32489:0:0:0:0:
36,192,31864,128,0,32489:0:0:0:0:
256,192,31864,1,0,0:0:0:0:
475,192,31864,1,0,0:0:0:0:
329,192,31864,1,0,0:0:0:0:
402,192,32177,128,0,32489:0:0:0:0:
329,192,32489,128,0,32802:0:0:0:0:
475,192,32489,128,0,32802:0:0:0:0:
109,192,32489,1,0,0:0:0:0:
256,192,32489,1,0,0:0:0:0:
182,192,32802,128,0,33427:0:0:0:0:
36,192,32802,128,0,33114:0:0:0:0:
256,192,32802,1,0,0:0:0:0:
402,192,32802,1,0,0:0:0:0:
329,192,33114,128,0,33427:0:0:0:0:
475,192,33114,1,0,0:0:0:0:
36,192,33427,1,0,0:0:0:0:
256,192,33427,1,0,0:0:0:0:
475,192,33427,1,0,0:0:0:0:
182,192,33739,128,0,34364:0:0:0:0:
329,192,33739,1,0,0:0:0:0:
475,192,33739,1,0,0:0:0:0:
329,192,34052,128,0,34364:0:0:0:0:
475,192,34052,128,0,34364:0:0:0:0:
256,192,34364,128,0,34677:0:0:0:0:
402,192,34364,128,0,34677:0:0:0:0:
109,192,34364,128,0,34677:0:0:0:0:
36,192,34677,128,0,34989:0:0:0:0:
182,192,34677,128,0,34989:0:0:0:0:
329,192,34677,1,0,0:0:0:0:
475,192,34677,1,0,0:0:0:0:
329,192,34989,128,0,35302:0:0:0:0:
475,192,34989,128,0,35302:0:0:0:0:
256,192,35302,128,0,35614:0:0:0:0:
402,192,35302,128,0,35614:0:0:0:0:
182,192,35614,128,0,35927:0:0:0:0:
36,192,35614,128,0,35927:0:0:0:0:
329,192,35614,1,0,0:0:0:0:
475,192,35614,1,0,0:0:0:0:
109,192,35614,1,0,0:0:0:0:
256,192,35927,128,0,36395:0:0:0:0:
402,192,35927,128,0,36395:0:0:0:0:
475,192,35927,1,0,0:0:0:0:
109,192,36239,128,0,36395:0:0:0:0:
36,192,36239,128,0,36395:0:0:0:0:
182,192,36552,128,0,37177:0:0:0:0:
36,192,36552,128,0,36864:0:0:0:0:
256,192,36552,1,0,0:0:0:0:
402,192,36552,1,0,0:0:0:0:
475,192,36552,1,0,0:0:0:0:
402,192,36864,128,0,37177:0:0:0:0:
329,192,36864,1,0,0:0:0:0:
36,192,37177,128,0,37802:0:0:0:0:
256,192,37177,1,0,0:0:0:0:
109,192,37177,1,0,0:0:0:0:
475,192,37177,1,0,0:0:0:0:
256,192,37489,128,0,37802:0:0:0:0:
402,192,37489,128,0,37802:0:0:0:0:
182,192,37802,128,0,38114:0:0:0:0:
329,192,37802,1,0,0:0:0:0:
475,192,37802,1,0,0:0:0:0:
329,192,38114,128,0,38427:0:0:0:0:
36,192,38114,1,0,0:0:0:0:
36,192,38427,128,0,39052:0:0:0:0:
475,192,38427,128,0,39052:0:0:0:0:
256,192,38427,128,0,39052:0:0:0:0:
402,192,38427,1,0,0:0:0:0:
109,192,38427,1,0,0:0:0:0:
182,192,38739,128,0,39989:0:0:0:0:
402,192,39364,128,0,39677:0:0:0:0:
475,192,39364,128,0,39989:0:0:0:0:
36,192,39364,128,0,39989:0:0:0:0:
329,192,39677,128,0,39989:0:0:0:0:
256,192,39989,128,0,40302:0:0:0:0:
402,192,39989,128,0,40302:0:0:0:0:
109,192,40302,128,0,40927:0:0:0:0:
36,192,40302,128,0,40927:0:0:0:0:
182,192,40302,1,0,0:0:0:0:
329,192,40302,1,0,0:0:0:0:
475,192,40302,1,0,0:0:0:0:
402,192,40614,128,0,40927:0:0:0:0:
256,192,40770,128,0,40927:0:0:0:0:
329,192,40927,128,0,41239:0:0:0:0:
475,192,40927,128,0,41239:0:0:0:0:
182,192,40927,1,0,0:0:0:0:
36,192,41239,128,0,41864:0:0:0:0:
109,192,41239,1,0,0:0:0:0:
402,192,41239,1,0,0:0:0:0:
256,192,41239,1,0,0:0:0:0:
182,192,41552,128,0,41864:0:0:0:0:
329,192,41552,128,0,41864:0:0:0:0:
475,192,41552,1,0,0:0:0:0:
402,192,41708,1,0,0:0:0:0:
475,192,41864,1,0,0:0:0:0:
256,192,41864,1,0,0:0:0:0:
329,192,42020,1,0,0:0:0:0:
402,192,42177,1,0,0:0:0:0:
182,192,42177,1,0,0:0:0:0:
256,192,42177,128,0,42802:0:0:0:0:
475,192,42177,128,0,42802:0:0:0:0:
36,192,42177,1,0,0:0:0:0:
36,192,42489,1,0,0:0:0:0:
329,192,42489,1,0,0:0:0:0:
402,192,42645,1,0,0:0:0:0:
109,192,42645,1,0,0:0:0:0:
329,192,42802,1,0,0:0:0:0:
36,192,42802,128,0,43114:0:0:0:0:
182,192,42802,1,0,0:0:0:0:
256,192,42958,1,0,0:0:0:0:
475,192,43114,128,0,43427:0:0:0:0:
109,192,43114,1,0,0:0:0:0:
182,192,43114,1,0,0:0:0:0:
402,192,43114,1,0,0:0:0:0:
256,192,43270,1,0,0:0:0:0:
36,192,43427,1,0,0:0:0:0:
402,192,43427,128,0,43739:0:0:0:0:
109,192,43427,1,0,0:0:0:0:
329,192,43427,1,0,0:0:0:0:
182,192,43583,1,0,0:0:0:0:
329,192,43739,128,0,44052:0:0:0:0:
36,192,43739,1,0,0:0:0:0:
475,192,43739,1,0,0:0:0:0:
256,192,43739,1,0,0:0:0:0:
109,192,43895,1,0,0:0:0:0:
36,192,44052,1,0,0:0:0:0:
256,192,44052,1,0,0:0:0:0:
475,192,44052,1,0,0:0:0:0:
182,192,44052,128,0,44989:0:0:0:0:
402,192,44052,1,0,0:0:0:0:
329,192,44364,1,0,0:0:0:0:
475,192,44364,1,0,0:0:0:0:
36,192,44364,1,0,0:0:0:0:
402,192,44520,1,0,0:0:0:0:
475,192,44677,128,0,44989:0:0:0:0:
256,192,44677,1,0,0:0:0:0:
36,192,44677,1,0,0:0:0:0:
402,192,44833,1,0,0:0:0:0:
329,192,44989,128,0,45614:0:0:0:0:
256,192,44989,1,0,0:0:0:0:
36,192,44989,1,0,0:0:0:0:
109,192,44989,1,0,0:0:0:0:
402,192,45145,1,0,0:0:0:0:
36,192,45302,1,0,0:0:0:0:
475,192,45302,1,0,0:0:0:0:
182,192,45302,1,0,0:0:0:0:
109,192,45458,1,0,0:0:0:0:
182,192,45614,128,0,45927:0:0:0:0:
36,192,45614,128,0,45927:0:0:0:0:
475,192,45614,1,0,0:0:0:0:
402,192,45614,1,0,0:0:0:0:
256,192,45770,1,0,0:0:0:0:
475,192,45927,1,0,0:0:0:0:
329,192,45927,1,0,0:0:0:0:
402,192,45927,128,0,46552:0:0:0:0:
109,192,45927,128,0,46239:0:0:0:0:
256,192,46239,128,0,46552:0:0:0:0:
109,192,46395,128,0,46552:0:0:0:0:
329,192,46552,1,0,0:0:0:0:
36,192,46552,1,0,0:0:0:0:
475,192,46552,128,0,46864:0:0:0:0:
256,192,46864,128,0,47177:0:0:0:0:
109,192,46864,128,0,47177:0:0:0:0:
36,192,46864,1,0,0:0:0:0:
402,192,46864,1,0,0:0:0:0:
329,192,46864,1,0,0:0:0:0:
182,192,47177,128,0,47489:0:0:0:0:
329,192,47177,128,0,47489:0:0:0:0:
36,192,47177,1,0,0:0:0:0:
475,192,47177,1,0,0:0:0:0:
256,192,47489,128,0,47802:0:0:0:0:
402,192,47489,128,0,47802:0:0:0:0:
36,192,47489,1,0,0:0:0:0:
475,192,47489,1,0,0:0:0:0:
36,192,47802,128,0,48427:0:0:0:0:
182,192,47802,128,0,48114:0:0:0:0:
329,192,47802,1,0,0:0:0:0:
475,192,47802,1,0,0:0:0:0:
329,192,48114,128,0,48270:0:0:0:0:
109,192,48114,1,0,0:0:0:0:
475,192,48114,1,0,0:0:0:0:
256,192,48270,128,0,48427:0:0:0:0:
182,192,48270,1,0,0:0:0:0:
402,192,48427,128,0,48739:0:0:0:0:
475,192,48427,128,0,48739:0:0:0:0:
109,192,48427,1,0,0:0:0:0:
182,192,48739,128,0,49052:0:0:0:0:
36,192,48739,1,0,0:0:0:0:
329,192,48739,1,0,0:0:0:0:
256,192,48739,1,0,0:0:0:0:
109,192,49052,128,0,49364:0:0:0:0:
475,192,49052,1,0,0:0:0:0:
256,192,49052,1,0,0:0:0:0:
402,192,49208,1,0,0:0:0:0:
36,192,49364,128,0,49677:0:0:0:0:
329,192,49364,1,0,0:0:0:0:
182,192,49364,1,0,0:0:0:0:
329,192,49677,128,0,50145:0:0:0:0:
109,192,49677,1,0,0:0:0:0:
256,192,49677,1,0,0:0:0:0:
475,192,49677,1,0,0:0:0:0:
402,192,49677,1,0,0:0:0:0:
182,192,49989,128,0,50302:0:0:0:0:
36,192,49989,1,0,0:0:0:0:
256,192,50145,128,0,50614:0:0:0:0:
329,192,50302,128,0,50614:0:0:0:0:
475,192,50302,1,0,0:0:0:0:
182,192,50458,128,0,50614:0:0:0:0:
109,192,50614,1,0,0:0:0:0:
402,192,50614,1,0,0:0:0:0:
36,192,50614,128,0,50927:0:0:0:0:
475,192,50614,128,0,50927:0:0:0:0:
329,192,50770,128,0,50927:0:0:0:0:
402,192,50927,1,0,0:0:0:0:
109,192,50927,128,0,51239:0:0:0:0:
182,192,50927,1,0,0:0:0:0:
256,192,51083,128,0,51239:0:0:0:0:
475,192,51239,1,0,0:0:0:0:
329,192,51239,128,0,51552:0:0:0:0:
36,192,51239,1,0,0:0:0:0:
182,192,51552,128,0,52020:0:0:0:0:
36,192,51552,1,0,0:0:0:0:
256,192,51552,1,0,0:0:0:0:
475,192,51552,1,0,0:0:0:0:
109,192,51552,1,0,0:0:0:0:
329,192,51864,128,0,52489:0:0:0:0:
36,192,51864,1,0,0:0:0:0:
475,192,51864,1,0,0:0:0:0:
109,192,52020,1,0,0:0:0:0:
182,192,52177,128,0,52489:0:0:0:0:
36,192,52177,1,0,0:0:0:0:
475,192,52177,1,0,0:0:0:0:
402,192,52333,1,0,0:0:0:0:
475,192,52489,1,0,0:0:0:0:
109,192,52489,1,0,0:0:0:0:
256,192,52489,1,0,0:0:0:0:
36,192,52489,128,0,52958:0:0:0:0:
182,192,52645,1,0,0:0:0:0:
256,192,52802,1,0,0:0:0:0:
475,192,52802,1,0,0:0:0:0:
329,192,52958,1,0,0:0:0:0:
402,192,53114,1,0,0:0:0:0:
109,192,53114,128,0,53270:0:0:0:0:
256,192,53114,128,0,53270:0:0:0:0:
109,192,53427,128,0,54208:0:0:0:0:
256,192,53427,128,0,54208:0:0:0:0:
36,192,53427,1,0,0:0:0:0:
475,192,53427,1,0,0:0:0:0:
329,192,53427,1,0,0:0:0:0:
329,192,53739,1,0,0:0:0:0:
475,192,53739,1,0,0:0:0:0:
402,192,53895,1,0,0:0:0:0:
329,192,54052,1,0,0:0:0:0:
475,192,54052,1,0,0:0:0:0:
36,192,54052,1,0,0:0:0:0:
182,192,54208,1,0,0:0:0:0:
256,192,54364,128,0,54989:0:0:0:0:
402,192,54364,128,0,54989:0:0:0:0:
109,192,54364,1,0,0:0:0:0:
36,192,54364,1,0,0:0:0:0:
475,192,54364,1,0,0:0:0:0:
36,192,54677,1,0,0:0:0:0:
182,192,54677,1,0,0:0:0:0:
182,192,54833,1,0,0:0:0:0:
36,192,54989,1,0,0:0:0:0:
329,192,54989,1,0,0:0:0:0:
475,192,54989,1,0,0:0:0:0:
109,192,55145,1,0,0:0:0:0:
402,192,55302,128,0,55770:0:0:0:0:
36,192,55302,1,0,0:0:0:0:
329,192,55302,1,0,0:0:0:0:
182,192,55302,1,0,0:0:0:0:
475,192,55302,1,0,0:0:0:0:
182,192,55614,1,0,0:0:0:0:
109,192,55770,1,0,0:0:0:0:
402,192,55927,128,0,56083:0:0:0:0:
256,192,55927,1,0,0:0:0:0:
36,192,55927,1,0,0:0:0:0:
182,192,56083,1,0,0:0:0:0:
329,192,56239,128,0,57020:0:0:0:0:
36,192,56239,1,0,0:0:0:0:
109,192,56239,1,0,0:0:0:0:
475,192,56239,1,0,0:0:0:0:
182,192,56552,128,0,57020:0:0:0:0:
36,192,56552,1,0,0:0:0:0:
475,192,56552,1,0,0:0:0:0:
402,192,56708,1,0,0:0:0:0:
36,192,56864,128,0,57020:0:0:0:0:
256,192,56864,1,0,0:0:0:0:
475,192,56864,1,0,0:0:0:0:
256,192,57177,128,0,57489:0:0:0:0:
402,192,57177,128,0,57489:0:0:0:0:
182,192,57177,1,0,0:0:0:0:
36,192,57177,1,0,0:0:0:0:
475,192,57177,1,0,0:0:0:0:
109,192,57489,128,0,57802:0:0:0:0:
182,192,57489,1,0,0:0:0:0:
402,192,57645,128,0,58114:0:0:0:0:
329,192,57645,1,0,0:0:0:0:
256,192,57802,128,0,58114:0:0:0:0:
109,192,57958,128,0,58114:0:0:0:0:
182,192,58114,128,0,58583:0:0:0:0:
36,192,58114,1,0,0:0:0:0:
329,192,58114,1,0,0:0:0:0:
475,192,58114,1,0,0:0:0:0:
36,192,58427,1,0,0:0:0:0:
402,192,58427,1,0,0:0:0:0:
475,192,58427,1,0,0:0:0:0:
329,192,58583,1,0,0:0:0:0:
182,192,58739,128,0,59052:0:0:0:0:
36,192,58739,1,0,0:0:0:0:
475,192,58739,1,0,0:0:0:0:
256,192,58739,1,0,0:0:0:0:
329,192,59052,128,0,59677:0:0:0:0:
36,192,59052,1,0,0:0:0:0:
109,192,59052,1,0,0:0:0:0:
475,192,59052,1,0,0:0:0:0:
182,192,59364,128,0,59520:0:0:0:0:
36,192,59364,1,0,0:0:0:0:
256,192,59520,128,0,59677:0:0:0:0:
36,192,59677,128,0,59989:0:0:0:0:
109,192,59677,1,0,0:0:0:0:
402,192,59677,1,0,0:0:0:0:
475,192,59677,1,0,0:0:0:0:
182,192,59989,128,0,60302:0:0:0:0:
256,192,59989,1,0,0:0:0:0:
402,192,59989,1,0,0:0:0:0:
475,192,59989,1,0,0:0:0:0:
329,192,60302,128,0,60614:0:0:0:0:
109,192,60302,1,0,0:0:0:0:
182,192,60458,1,0,0:0:0:0:
475,192,60614,128,0,60927:0:0:0:0:
256,192,60614,1,0,0:0:0:0:
402,192,60614,1,0,0:0:0:0:
36,192,60614,1,0,0:0:0:0:
109,192,60770,1,0,0:0:0:0:
256,192,60927,128,0,61395:0:0:0:0:
182,192,60927,1,0,0:0:0:0:
36,192,60927,1,0,0:0:0:0:
402,192,60927,1,0,0:0:0:0:
109,192,61239,128,0,61395:0:0:0:0:
182,192,61239,1,0,0:0:0:0:
402,192,61395,128,0,61552:0:0:0:0:
36,192,61552,1,0,0:0:0:0:
109,192,61552,1,0,0:0:0:0:
475,192,61552,1,0,0:0:0:0:
256,192,61552,128,0,61864:0:0:0:0:
402,192,61864,128,0,62177:0:0:0:0:
109,192,61864,128,0,62177:0:0:0:0:
182,192,61864,1,0,0:0:0:0:
329,192,61864,1,0,0:0:0:0:
475,192,61864,1,0,0:0:0:0:
256,192,62177,128,0,62489:0:0:0:0:
36,192,62177,128,0,62489:0:0:0:0:
475,192,62177,1,0,0:0:0:0:
182,192,62489,128,0,62802:0:0:0:0:
402,192,62489,128,0,62802:0:0:0:0:
475,192,62489,1,0,0:0:0:0:
36,192,62802,128,0,63739:0:0:0:0:
329,192,62802,128,0,63270:0:0:0:0:
256,192,62802,1,0,0:0:0:0:
109,192,62802,1,0,0:0:0:0:
475,192,62802,1,0,0:0:0:0:
475,192,62958,128,0,63114:0:0:0:0:
182,192,63114,128,0,63270:0:0:0:0:
402,192,63270,128,0,63427:0:0:0:0:
256,192,63427,128,0,63583:0:0:0:0:
182,192,63427,1,0,0:0:0:0:
109,192,63427,1,0,0:0:0:0:
402,192,63583,128,0,63739:0:0:0:0:
182,192,63739,128,0,64052:0:0:0:0:
475,192,63739,1,0,0:0:0:0:
329,192,63739,1,0,0:0:0:0:
109,192,63739,1,0,0:0:0:0:
475,192,63895,128,0,64052:0:0:0:0:
109,192,64052,128,0,64364:0:0:0:0:
402,192,64052,1,0,0:0:0:0:
256,192,64052,1,0,0:0:0:0:
402,192,64208,128,0,64364:0:0:0:0:
36,192,64364,128,0,64677:0:0:0:0:
329,192,64364,1,0,0:0:0:0:
182,192,64364,1,0,0:0:0:0:
329,192,64520,128,0,64677:0:0:0:0:
256,192,64677,128,0,65927:0:0:0:0:
109,192,64677,128,0,64833:0:0:0:0:
182,192,64677,1,0,0:0:0:0:
475,192,64677,1,0,0:0:0:0:
402,192,64833,128,0,64989:0:0:0:0:
182,192,64989,128,0,65145:0:0:0:0:
329,192,64989,1,0,0:0:0:0:
475,192,64989,1,0,0:0:0:0:
329,192,65145,128,0,65302:0:0:0:0:
109,192,65302,128,0,65458:0:0:0:0:
182,192,65302,1,0,0:0:0:0:
36,192,65302,1,0,0:0:0:0:
402,192,65458,128,0,65614:0:0:0:0:
36,192,65614,128,0,65770:0:0:0:0:
329,192,65614,1,0,0:0:0:0:
475,192,65614,1,0,0:0:0:0:
182,192,65770,128,0,65927:0:0:0:0:
475,192,65927,128,0,66083:0:0:0:0:
36,192,65927,1,0,0:0:0:0:
402,192,65927,1,0,0:0:0:0:
329,192,66083,128,0,66239:0:0:0:0:
182,192,66239,128,0,66395:0:0:0:0:
109,192,66239,1,0,0:0:0:0:
402,192,66239,1,0,0:0:0:0:
329,192,66395,128,0,66552:0:0:0:0:
182,192,66552,128,0,67020:0:0:0:0:
475,192,66552,128,0,67489:0:0:0:0:
256,192,66552,1,0,0:0:0:0:
36,192,66552,1,0,0:0:0:0:
402,192,66552,1,0,0:0:0:0:
36,192,66708,128,0,66864:0:0:0:0:
329,192,66864,128,0,67020:0:0:0:0:
109,192,67020,128,0,67177:0:0:0:0:
329,192,67177,1,0,0:0:0:0:
256,192,67177,128,0,67333:0:0:0:0:
402,192,67177,1,0,0:0:0:0:
109,192,67333,128,0,67489:0:0:0:0:
182,192,67489,1,0,0:0:0:0:
402,192,67489,1,0,0:0:0:0:
329,192,67489,128,0,67802:0:0:0:0:
36,192,67489,1,0,0:0:0:0:
36,192,67645,128,0,67802:0:0:0:0:
256,192,67802,1,0,0:0:0:0:
109,192,67802,1,0,0:0:0:0:
402,192,67802,128,0,68114:0:0:0:0:
109,192,67958,128,0,68114:0:0:0:0:
329,192,68114,1,0,0:0:0:0:
182,192,68114,1,0,0:0:0:0:
475,192,68114,128,0,68427:0:0:0:0:
182,192,68270,128,0,68427:0:0:0:0:
329,192,68427,1,0,0:0:0:0:
36,192,68427,1,0,0:0:0:0:
256,192,68427,128,0,71083:0:0:0:0:
402,192,68427,128,0,68583:0:0:0:0:
109,192,68583,128,0,68739:0:0:0:0:
36,192,68739,1,0,0:0:0:0:
182,192,68739,1,0,0:0:0:0:
329,192,68739,128,0,68895:0:0:0:0:
182,192,68895,128,0,69052:0:0:0:0:
475,192,69052,1,0,0:0:0:0:
329,192,69052,1,0,0:0:0:0:
402,192,69052,128,0,69208:0:0:0:0:
109,192,69208,128,0,69364:0:0:0:0:
36,192,69364,1,0,0:0:0:0:
182,192,69364,1,0,0:0:0:0:
475,192,69364,128,0,69520:0:0:0:0:
329,192,69520,128,0,69677:0:0:0:0:
475,192,69677,1,0,0:0:0:0:
109,192,69677,1,0,0:0:0:0:
36,192,69677,128,0,69833:0:0:0:0:
182,192,69833,128,0,69989:0:0:0:0:
109,192,69989,1,0,0:0:0:0:
402,192,69989,1,0,0:0:0:0:
329,192,69989,128,0,70145:0:0:0:0:
182,192,70145,128,0,70302:0:0:0:0:
36,192,70302,128,0,71083:0:0:0:0:
475,192,70302,128,0,71083:0:0:0:0:
329,192,70614,1,0,0:0:0:0:
182,192,70614,1,0,0:0:0:0:
182,192,70770,1,0,0:0:0:0:
329,192,70770,1,0,0:0:0:0:
109,192,70927,1,0,0:0:0:0:
402,192,70927,1,0,0:0:0:0:
329,192,71083,1,0,0:0:0:0:
182,192,71083,1,0,0:0:0:0:
109,192,71239,1,0,0:0:0:0:
475,192,71239,1,0,0:0:0:0:
36,192,71239,1,0,0:0:0:0:
402,192,71239,128,0,72177:0:0:0:0:
256,192,71239,1,0,0:0:0:0:
256,192,71395,1,0,0:0:0:0:
109,192,71552,1,0,0:0:0:0:
36,192,71552,1,0,0:0:0:0:
329,192,71552,1,0,0:0:0:0:
475,192,71552,1,0,0:0:0:0:
182,192,71708,1,0,0:0:0:0:
182,192,71864,1,0,0:0:0:0:
36,192,71864,1,0,0:0:0:0:
329,192,71864,1,0,0:0:0:0:
475,192,72177,1,0,0:0:0:0:
36,192,72177,128,0,72958:0:0:0:0:
256,192,72177,128,0,72645:0:0:0:0:
182,192,72177,1,0,0:0:0:0:
109,192,72177,1,0,0:0:0:0:
329,192,72177,1,0,0:0:0:0:
109,192,72489,1,0,0:0:0:0:
182,192,72489,1,0,0:0:0:0:
402,192,72645,128,0,72958:0:0:0:0:
256,192,72802,128,0,72958:0:0:0:0:
109,192,72802,1,0,0:0:0:0:
329,192,72802,1,0,0:0:0:0:
475,192,72802,1,0,0:0:0:0:
329,192,73114,128,0,73427:0:0:0:0:
182,192,73114,128,0,73427:0:0:0:0:
36,192,73114,1,0,0:0:0:0:
475,192,73114,1,0,0:0:0:0:
256,192,73427,128,0,73739:0:0:0:0:
402,192,73427,128,0,73739:0:0:0:0:
36,192,73427,1,0,0:0:0:0:
109,192,73427,1,0,0:0:0:0:
329,192,73739,128,0,74052:0:0:0:0:
475,192,73739,128,0,74052:0:0:0:0:
36,192,73739,1,0,0:0:0:0:
182,192,73739,1,0,0:0:0:0:
109,192,74052,128,0,74833:0:0:0:0:
256,192,74052,1,0,0:0:0:0:
402,192,74052,128,0,74364:0:0:0:0:
36,192,74052,1,0,0:0:0:0:
182,192,74052,1,0,0:0:0:0:
329,192,74364,1,0,0:0:0:0:
36,192,74364,1,0,0:0:0:0:
475,192,74364,1,0,0:0:0:0:
256,192,74520,1,0,0:0:0:0:
402,192,74677,128,0,74833:0:0:0:0:
182,192,74677,128,0,74833:0:0:0:0:
36,192,74677,128,0,74833:0:0:0:0:
475,192,74677,1,0,0:0:0:0:
329,192,74833,128,0,74989:0:0:0:0:
182,192,74989,128,0,75145:0:0:0:0:
402,192,74989,128,0,75145:0:0:0:0:
256,192,75145,128,0,75302:0:0:0:0:
475,192,75145,128,0,75302:0:0:0:0:
109,192,75302,128,0,75458:0:0:0:0:
329,192,75302,128,0,75458:0:0:0:0:
36,192,75302,1,0,0:0:0:0:
402,192,75458,128,0,75614:0:0:0:0:
182,192,75458,128,0,75614:0:0:0:0:
36,192,75614,128,0,75770:0:0:0:0:
256,192,75614,128,0,75770:0:0:0:0:
475,192,75614,1,0,0:0:0:0:
329,192,75770,128,0,75927:0:0:0:0:
109,192,75770,128,0,75927:0:0:0:0:
182,192,75927,128,0,76552:0:0:0:0:
36,192,75927,1,0,0:0:0:0:
256,192,75927,1,0,0:0:0:0:
402,192,75927,1,0,0:0:0:0:
475,192,75927,1,0,0:0:0:0:
329,192,76239,128,0,76395:0:0:0:0:
475,192,76239,128,0,76395:0:0:0:0:
109,192,76395,128,0,76552:0:0:0:0:
36,192,76395,128,0,76552:0:0:0:0:
256,192,76552,128,0,76864:0:0:0:0:
402,192,76552,128,0,76864:0:0:0:0:
109,192,76864,128,0,77177:0:0:0:0:
329,192,76864,128,0,77177:0:0:0:0:
182,192,76864,1,0,0:0:0:0:
36,192,76864,1,0,0:0:0:0:
475,192,76864,1,0,0:0:0:0:
402,192,77020,1,0,0:0:0:0:
36,192,77177,128,0,77489:0:0:0:0:
256,192,77177,128,0,77489:0:0:0:0:
475,192,77177,1,0,0:0:0:0:
182,192,77489,128,0,77802:0:0:0:0:
329,192,77489,1,0,0:0:0:0:
475,192,77489,1,0,0:0:0:0:
329,192,77802,128,0,78427:0:0:0:0:
256,192,77802,1,0,0:0:0:0:
475,192,77802,1,0,0:0:0:0:
36,192,77802,1,0,0:0:0:0:
109,192,77802,1,0,0:0:0:0:
182,192,78114,1,0,0:0:0:0:
36,192,78114,1,0,0:0:0:0:
256,192,78270,1,0,0:0:0:0:
109,192,78270,1,0,0:0:0:0:
182,192,78427,1,0,0:0:0:0:
402,192,78427,1,0,0:0:0:0:
475,192,78427,1,0,0:0:0:0:
36,192,78427,1,0,0:0:0:0:
329,192,78583,1,0,0:0:0:0:
36,192,78739,1,0,0:0:0:0:
475,192,78739,1,0,0:0:0:0:
402,192,78739,128,0,78895:0:0:0:0:
182,192,78739,1,0,0:0:0:0:
329,192,78895,128,0,79052:0:0:0:0:
256,192,79052,128,0,79208:0:0:0:0:
475,192,79052,1,0,0:0:0:0:
109,192,79052,1,0,0:0:0:0:
182,192,79208,128,0,79364:0:0:0:0:
109,192,79364,128,0,79520:0:0:0:0:
329,192,79364,1,0,0:0:0:0:
475,192,79364,1,0,0:0:0:0:
36,192,79520,128,0,79677:0:0:0:0:
256,192,79677,128,0,80302:0:0:0:0:
182,192,79677,1,0,0:0:0:0:
329,192,79677,1,0,0:0:0:0:
475,192,79677,1,0,0:0:0:0:
402,192,79677,1,0,0:0:0:0:
329,192,79989,1,0,0:0:0:0:
475,192,79989,1,0,0:0:0:0:
36,192,79989,1,0,0:0:0:0:
402,192,80145,1,0,0:0:0:0:
109,192,80145,128,0,80302:0:0:0:0:
36,192,80302,1,0,0:0:0:0:
475,192,80302,1,0,0:0:0:0:
182,192,80302,128,0,80614:0:0:0:0:
329,192,80302,1,0,0:0:0:0:
256,192,80614,128,0,80927:0:0:0:0:
36,192,80614,128,0,81395:0:0:0:0:
402,192,80614,1,0,0:0:0:0:
475,192,80614,128,0,81395:0:0:0:0:
109,192,80614,1,0,0:0:0:0:
329,192,80927,128,0,81395:0:0:0:0:
109,192,80927,1,0,0:0:0:0:
402,192,80927,1,0,0:0:0:0:
182,192,81239,128,0,81395:0:0:0:0:
402,192,81239,128,0,81395:0:0:0:0:
109,192,81239,1,0,0:0:0:0:
256,192,81395,1,0,0:0:0:0:
182,192,81552,128,0,81708:0:0:0:0:
402,192,81552,128,0,81708:0:0:0:0:
36,192,81552,1,0,0:0:0:0:
475,192,81552,1,0,0:0:0:0:
329,192,81552,1,0,0:0:0:0:
329,192,81864,128,0,82333:0:0:0:0:
109,192,81864,1,0,0:0:0:0:
256,192,81864,1,0,0:0:0:0:
182,192,82020,1,0,0:0:0:0:
109,192,82177,1,0,0:0:0:0:
36,192,82177,1,0,0:0:0:0:
402,192,82177,1,0,0:0:0:0:
475,192,82177,1,0,0:0:0:0:
182,192,82333,128,0,82489:0:0:0:0:
36,192,82489,128,0,82802:0:0:0:0:
475,192,82489,128,0,82802:0:0:0:0:
329,192,82489,128,0,82645:0:0:0:0:
256,192,82645,128,0,82802:0:0:0:0:
182,192,82802,128,0,82958:0:0:0:0:
256,192,82958,128,0,83114:0:0:0:0:
109,192,83114,128,0,83270:0:0:0:0:
402,192,83114,128,0,83270:0:0:0:0:
329,192,83114,1,0,0:0:0:0:
182,192,83114,1,0,0:0:0:0:
182,192,83427,128,0,83583:0:0:0:0:
36,192,83427,1,0,0:0:0:0:
329,192,83427,1,0,0:0:0:0:
475,192,83427,1,0,0:0:0:0:
109,192,83427,1,0,0:0:0:0:
402,192,83427,1,0,0:0:0:0:
329,192,83583,128,0,84052:0:0:0:0:
182,192,83739,1,0,0:0:0:0:
36,192,83739,1,0,0:0:0:0:
182,192,83895,128,0,84052:0:0:0:0:
36,192,84052,128,0,84208:0:0:0:0:
256,192,84052,1,0,0:0:0:0:
475,192,84052,1,0,0:0:0:0:
402,192,84052,1,0,0:0:0:0:
182,192,84208,128,0,84364:0:0:0:0:
256,192,84364,128,0,84677:0:0:0:0:
475,192,84364,128,0,84677:0:0:0:0:
36,192,84364,1,0,0:0:0:0:
329,192,84364,1,0,0:0:0:0:
109,192,84520,1,0,0:0:0:0:
182,192,84677,128,0,84989:0:0:0:0:
402,192,84677,128,0,84989:0:0:0:0:
36,192,84677,1,0,0:0:0:0:
329,192,84677,1,0,0:0:0:0:
256,192,84833,1,0,0:0:0:0:
109,192,84989,128,0,85302:0:0:0:0:
329,192,84989,1,0,0:0:0:0:
475,192,84989,1,0,0:0:0:0:
36,192,84989,1,0,0:0:0:0:
256,192,85302,128,0,85458:0:0:0:0:
182,192,85302,1,0,0:0:0:0:
36,192,85302,1,0,0:0:0:0:
329,192,85302,1,0,0:0:0:0:
475,192,85302,1,0,0:0:0:0:
402,192,85458,128,0,85614:0:0:0:0:
109,192,85458,1,0,0:0:0:0:
182,192,85614,128,0,85770:0:0:0:0:
36,192,85614,1,0,0:0:0:0:
475,192,85614,1,0,0:0:0:0:
329,192,85770,128,0,85927:0:0:0:0:
402,192,85770,1,0,0:0:0:0:
256,192,85927,128,0,86083:0:0:0:0:
109,192,85927,1,0,0:0:0:0:
36,192,85927,1,0,0:0:0:0:
475,192,85927,1,0,0:0:0:0:
182,192,86083,128,0,86239:0:0:0:0:
329,192,86239,128,0,86552:0:0:0:0:
475,192,86239,128,0,86552:0:0:0:0:
36,192,86239,1,0,0:0:0:0:
109,192,86239,1,0,0:0:0:0:
402,192,86239,1,0,0:0:0:0:
182,192,86552,128,0,86864:0:0:0:0:
36,192,86552,128,0,86864:0:0:0:0:
402,192,86552,1,0,0:0:0:0:
109,192,86552,1,0,0:0:0:0:
256,192,86708,1,0,0:0:0:0:
329,192,86864,128,0,87177:0:0:0:0:
475,192,86864,128,0,87177:0:0:0:0:
109,192,86864,1,0,0:0:0:0:
402,192,86864,1,0,0:0:0:0:
182,192,87177,128,0,87958:0:0:0:0:
36,192,87177,1,0,0:0:0:0:
109,192,87177,1,0,0:0:0:0:
402,192,87177,1,0,0:0:0:0:
256,192,87177,1,0,0:0:0:0:
475,192,87489,1,0,0:0:0:0:
329,192,87489,1,0,0:0:0:0:
36,192,87489,1,0,0:0:0:0:
256,192,87645,128,0,87802:0:0:0:0:
475,192,87802,128,0,87958:0:0:0:0:
36,192,87802,128,0,87958:0:0:0:0:
329,192,87802,128,0,87958:0:0:0:0:
402,192,87802,1,0,0:0:0:0:
329,192,88114,128,0,88270:0:0:0:0:
475,192,88114,128,0,88270:0:0:0:0:
182,192,88114,128,0,88270:0:0:0:0:
36,192,88114,1,0,0:0:0:0:
109,192,88427,128,0,88583:0:0:0:0:
256,192,88427,128,0,88583:0:0:0:0:
402,192,88427,128,0,88583:0:0:0:0:
182,192,88739,128,0,89052:0:0:0:0:
36,192,88739,128,0,89052:0:0:0:0:
329,192,88739,1,0,0:0:0:0:
402,192,88739,1,0,0:0:0:0:
475,192,88739,1,0,0:0:0:0:
329,192,89052,128,0,89677:0:0:0:0:
475,192,89052,1,0,0:0:0:0:
109,192,89052,1,0,0:0:0:0:
256,192,89052,1,0,0:0:0:0:
182,192,89364,1,0,0:0:0:0:
36,192,89364,1,0,0:0:0:0:
475,192,89364,1,0,0:0:0:0:
256,192,89520,1,0,0:0:0:0:
109,192,89520,1,0,0:0:0:0:
36,192,89677,1,0,0:0:0:0:
402,192,89677,1,0,0:0:0:0:
475,192,89677,1,0,0:0:0:0:
182,192,89677,128,0,89989:0:0:0:0:
329,192,89833,1,0,0:0:0:0:
256,192,89989,1,0,0:0:0:0:
402,192,89989,1,0,0:0:0:0:
36,192,89989,128,0,90145:0:0:0:0:
182,192,90145,128,0,90302:0:0:0:0:
329,192,90302,128,0,90458:0:0:0:0:
475,192,90302,1,0,0:0:0:0:
109,192,90458,128,0,90614:0:0:0:0:
402,192,90614,128,0,90770:0:0:0:0:
329,192,90614,1,0,0:0:0:0:
182,192,90614,1,0,0:0:0:0:
256,192,90770,128,0,90927:0:0:0:0:
109,192,90927,1,0,0:0:0:0:
36,192,90927,1,0,0:0:0:0:
402,192,90927,128,0,91708:0:0:0:0:
475,192,90927,1,0,0:0:0:0:
182,192,90927,1,0,0:0:0:0:
182,192,91395,128,0,91552:0:0:0:0:
256,192,91552,128,0,91708:0:0:0:0:
36,192,91552,128,0,91708:0:0:0:0:
475,192,91552,128,0,91708:0:0:0:0:
109,192,91864,128,0,92020:0:0:0:0:
329,192,91864,128,0,92020:0:0:0:0:
475,192,91864,128,0,92020:0:0:0:0:
256,192,91864,1,0,0:0:0:0:
182,192,92177,128,0,92333:0:0:0:0:
402,192,92177,128,0,92333:0:0:0:0:
36,192,92177,128,0,92333:0:0:0:0:
475,192,92177,1,0,0:0:0:0:
256,192,92333,1,0,0:0:0:0:
109,192,92489,128,0,92802:0:0:0:0:
329,192,92489,128,0,92802:0:0:0:0:
475,192,92489,128,0,92802:0:0:0:0:
182,192,92489,1,0,0:0:0:0:
256,192,92802,1,0,0:0:0:0:
36,192,92802,128,0,93427:0:0:0:0:
402,192,92802,1,0,0:0:0:0:
182,192,92802,1,0,0:0:0:0:
182,192,93114,1,0,0:0:0:0:
329,192,93270,1,0,0:0:0:0:
402,192,93270,1,0,0:0:0:0:
109,192,93427,1,0,0:0:0:0:
182,192,93427,1,0,0:0:0:0:
329,192,93583,1,0,0:0:0:0:
402,192,93739,128,0,93895:0:0:0:0:
182,192,93739,1,0,0:0:0:0:
36,192,93739,1,0,0:0:0:0:
475,192,93739,1,0,0:0:0:0:
329,192,93895,128,0,94052:0:0:0:0:
256,192,94052,128,0,94208:0:0:0:0:
109,192,94052,1,0,0:0:0:0:
475,192,94052,1,0,0:0:0:0:
182,192,94208,128,0,94364:0:0:0:0:
402,192,94208,1,0,0:0:0:0:
109,192,94364,128,0,94520:0:0:0:0:
329,192,94364,1,0,0:0:0:0:
475,192,94364,1,0,0:0:0:0:
36,192,94520,128,0,94677:0:0:0:0:
256,192,94520,1,0,0:0:0:0:
329,192,94677,1,0,0:0:0:0:
402,192,94677,1,0,0:0:0:0:
475,192,94677,1,0,0:0:0:0:
182,192,94677,128,0,95458:0:0:0:0:
109,192,94677,1,0,0:0:0:0:
36,192,94989,1,0,0:0:0:0:
475,192,94989,1,0,0:0:0:0:
329,192,94989,1,0,0:0:0:0:
402,192,95145,128,0,95302:0:0:0:0:
329,192,95302,128,0,95458:0:0:0:0:
475,192,95302,128,0,95458:0:0:0:0:
36,192,95302,128,0,95458:0:0:0:0:
256,192,95302,1,0,0:0:0:0:
182,192,95614,128,0,96395:0:0:0:0:
36,192,95614,128,0,95770:0:0:0:0:
109,192,95614,128,0,95770:0:0:0:0:
475,192,95614,128,0,95770:0:0:0:0:
329,192,95614,128,0,96395:0:0:0:0:
402,192,95927,128,0,96083:0:0:0:0:
36,192,95927,128,0,96083:0:0:0:0:
256,192,95927,128,0,96083:0:0:0:0:
475,192,95927,128,0,96083:0:0:0:0:
109,192,96239,128,0,96395:0:0:0:0:
36,192,96239,128,0,96395:0:0:0:0:
475,192,96239,128,0,96395:0:0:0:0:
256,192,96239,128,0,96395:0:0:0:0:
475,192,96552,128,0,96864:0:0:0:0:
182,192,96552,128,0,96864:0:0:0:0:
329,192,96552,128,0,96864:0:0:0:0:
36,192,96552,1,0,0:0:0:0:
256,192,96552,1,0,0:0:0:0:
109,192,96864,128,0,97177:0:0:0:0:
36,192,96864,1,0,0:0:0:0:
402,192,96864,1,0,0:0:0:0:
329,192,97020,1,0,0:0:0:0:
402,192,97177,1,0,0:0:0:0:
475,192,97177,1,0,0:0:0:0:
182,192,97177,1,0,0:0:0:0:
36,192,97177,1,0,0:0:0:0:
256,192,97333,1,0,0:0:0:0:
109,192,97333,128,0,97489:0:0:0:0:
329,192,97489,128,0,97802:0:0:0:0:
182,192,97489,128,0,97802:0:0:0:0:
36,192,97489,1,0,0:0:0:0:
402,192,97489,1,0,0:0:0:0:
475,192,97489,1,0,0:0:0:0:
256,192,97802,128,0,98114:0:0:0:0:
402,192,97802,128,0,98114:0:0:0:0:
36,192,97802,1,0,0:0:0:0:
475,192,97802,1,0,0:0:0:0:
182,192,98114,128,0,98427:0:0:0:0:
36,192,98114,128,0,98427:0:0:0:0:
329,192,98114,1,0,0:0:0:0:
475,192,98114,1,0,0:0:0:0:
109,192,98427,1,0,0:0:0:0:
475,192,98427,1,0,0:0:0:0:
329,192,98427,128,0,98583:0:0:0:0:
256,192,98427,1,0,0:0:0:0:
402,192,98583,128,0,98739:0:0:0:0:
182,192,98583,1,0,0:0:0:0:
475,192,98739,128,0,98895:0:0:0:0:
256,192,98739,1,0,0:0:0:0:
36,192,98739,1,0,0:0:0:0:
402,192,98895,128,0,99052:0:0:0:0:
109,192,98895,1,0,0:0:0:0:
475,192,99052,128,0,99364:0:0:0:0:
182,192,99052,1,0,0:0:0:0:
36,192,99052,1,0,0:0:0:0:
329,192,99052,1,0,0:0:0:0:
182,192,99364,128,0,99520:0:0:0:0:
36,192,99364,1,0,0:0:0:0:
329,192,99364,1,0,0:0:0:0:
109,192,99364,1,0,0:0:0:0:
256,192,99520,128,0,99677:0:0:0:0:
402,192,99520,1,0,0:0:0:0:
329,192,99677,128,0,99833:0:0:0:0:
475,192,99677,1,0,0:0:0:0:
36,192,99677,1,0,0:0:0:0:
256,192,99833,128,0,99989:0:0:0:0:
109,192,99833,1,0,0:0:0:0:
329,192,99989,128,0,100302:0:0:0:0:
182,192,99989,1,0,0:0:0:0:
36,192,99989,1,0,0:0:0:0:
475,192,99989,1,0,0:0:0:0:
36,192,100302,128,0,100458:0:0:0:0:
256,192,100302,1,0,0:0:0:0:
475,192,100302,1,0,0:0:0:0:
182,192,100302,1,0,0:0:0:0:
109,192,100458,128,0,100614:0:0:0:0:
329,192,100458,1,0,0:0:0:0:
182,192,100614,128,0,100770:0:0:0:0:
402,192,100614,1,0,0:0:0:0:
475,192,100614,1,0,0:0:0:0:
109,192,100770,128,0,100927:0:0:0:0:
329,192,100770,1,0,0:0:0:0:
182,192,100927,128,0,101239:0:0:0:0:
475,192,100927,1,0,0:0:0:0:
36,192,100927,1,0,0:0:0:0:
256,192,100927,1,0,0:0:0:0:
402,192,101083,1,0,0:0:0:0:
329,192,101083,1,0,0:0:0:0:
256,192,101239,128,0,101395:0:0:0:0:
475,192,101239,128,0,101395:0:0:0:0:
36,192,101239,128,0,101395:0:0:0:0:
109,192,101239,128,0,101395:0:0:0:0:
36,192,101552,128,0,101708:0:0:0:0:
182,192,101552,128,0,101708:0:0:0:0:
475,192,101552,128,0,101708:0:0:0:0:
329,192,101552,128,0,101708:0:0:0:0:
109,192,101864,128,0,102020:0:0:0:0:
256,192,101864,128,0,102020:0:0:0:0:
36,192,101864,128,0,102020:0:0:0:0:
402,192,101864,128,0,102020:0:0:0:0:
329,192,102177,128,0,102333:0:0:0:0:
36,192,102177,1,0,0:0:0:0:
109,192,102177,1,0,0:0:0:0:
475,192,102177,1,0,0:0:0:0:
256,192,102177,1,0,0:0:0:0:
402,192,102333,128,0,102489:0:0:0:0:
182,192,102333,1,0,0:0:0:0:
475,192,102489,128,0,102645:0:0:0:0:
256,192,102489,1,0,0:0:0:0:
36,192,102489,1,0,0:0:0:0:
109,192,102645,1,0,0:0:0:0:
329,192,102645,128,0,102802:0:0:0:0:
475,192,102802,128,0,103114:0:0:0:0:
182,192,102802,1,0,0:0:0:0:
36,192,102802,1,0,0:0:0:0:
402,192,102802,1,0,0:0:0:0:
182,192,103114,128,0,103270:0:0:0:0:
36,192,103114,1,0,0:0:0:0:
329,192,103114,1,0,0:0:0:0:
109,192,103114,1,0,0:0:0:0:
256,192,103270,128,0,103427:0:0:0:0:
402,192,103270,1,0,0:0:0:0:
329,192,103427,128,0,103583:0:0:0:0:
36,192,103427,1,0,0:0:0:0:
475,192,103427,1,0,0:0:0:0:
182,192,103583,128,0,103739:0:0:0:0:
109,192,103583,1,0,0:0:0:0:
329,192,103739,128,0,104052:0:0:0:0:
256,192,103739,1,0,0:0:0:0:
36,192,103739,1,0,0:0:0:0:
475,192,103739,1,0,0:0:0:0:
36,192,104052,128,0,104208:0:0:0:0:
182,192,104052,1,0,0:0:0:0:
475,192,104052,1,0,0:0:0:0:
402,192,104052,1,0,0:0:0:0:
109,192,104208,128,0,104364:0:0:0:0:
329,192,104208,1,0,0:0:0:0:
182,192,104364,128,0,104520:0:0:0:0:
256,192,104364,1,0,0:0:0:0:
475,192,104364,1,0,0:0:0:0:
36,192,104520,128,0,104677:0:0:0:0:
402,192,104520,1,0,0:0:0:0:
182,192,104677,128,0,104989:0:0:0:0:
329,192,104677,1,0,0:0:0:0:
475,192,104677,1,0,0:0:0:0:
109,192,104677,1,0,0:0:0:0:
256,192,104833,1,0,0:0:0:0:
402,192,104989,128,0,105145:0:0:0:0:
329,192,104989,1,0,0:0:0:0:
36,192,104989,1,0,0:0:0:0:
475,192,104989,1,0,0:0:0:0:
256,192,105145,128,0,105302:0:0:0:0:
182,192,105145,1,0,0:0:0:0:
109,192,105302,128,0,105458:0:0:0:0:
36,192,105302,1,0,0:0:0:0:
475,192,105302,1,0,0:0:0:0:
182,192,105458,128,0,105614:0:0:0:0:
402,192,105458,1,0,0:0:0:0:
329,192,105614,128,0,105770:0:0:0:0:
36,192,105614,1,0,0:0:0:0:
256,192,105770,128,0,105927:0:0:0:0:
109,192,105770,1,0,0:0:0:0:
475,192,105927,1,0,0:0:0:0:
402,192,105927,1,0,0:0:0:0:
36,192,105927,128,0,106864:0:0:0:0:
182,192,105927,128,0,106864:0:0:0:0:
329,192,106864,128,0,107177:0:0:0:0:
475,192,106864,128,0,107802:0:0:0:0:
109,192,107177,128,0,107489:0:0:0:0:
256,192,107489,128,0,107802:0:0:0:0:
109,192,107802,128,0,108427:0:0:0:0:
36,192,107802,1,0,0:0:0:0:
329,192,107802,1,0,0:0:0:0:
402,192,107802,1,0,0:0:0:0:
182,192,107802,1,0,0:0:0:0:
329,192,108114,128,0,108270:0:0:0:0:
182,192,108114,1,0,0:0:0:0:
256,192,108270,128,0,108427:0:0:0:0:
182,192,108427,1,0,0:0:0:0:
36,192,108427,1,0,0:0:0:0:
475,192,108427,1,0,0:0:0:0:
402,192,108427,1,0,0:0:0:0:
256,192,108739,128,0,109052:0:0:0:0:
402,192,108739,128,0,109052:0:0:0:0:
36,192,108739,1,0,0:0:0:0:
475,192,108739,1,0,0:0:0:0:
182,192,108739,1,0,0:0:0:0:
109,192,108895,1,0,0:0:0:0:
329,192,109052,128,0,109364:0:0:0:0:
182,192,109052,128,0,109364:0:0:0:0:
36,192,109052,1,0,0:0:0:0:
475,192,109052,1,0,0:0:0:0:
109,192,109208,1,0,0:0:0:0:
256,192,109364,128,0,109677:0:0:0:0:
402,192,109364,128,0,109677:0:0:0:0:
36,192,109364,1,0,0:0:0:0:
109,192,109677,128,0,110302:0:0:0:0:
182,192,109677,1,0,0:0:0:0:
36,192,109677,1,0,0:0:0:0:
329,192,109677,1,0,0:0:0:0:
475,192,109677,1,0,0:0:0:0:
256,192,109989,128,0,110145:0:0:0:0:
402,192,109989,1,0,0:0:0:0:
329,192,110145,128,0,110302:0:0:0:0:
182,192,110302,1,0,0:0:0:0:
36,192,110302,1,0,0:0:0:0:
402,192,110302,1,0,0:0:0:0:
475,192,110302,1,0,0:0:0:0:
256,192,110614,128,0,110927:0:0:0:0:
402,192,110614,128,0,110770:0:0:0:0:
475,192,110614,1,0,0:0:0:0:
36,192,110614,1,0,0:0:0:0:
182,192,110614,1,0,0:0:0:0:
109,192,110770,128,0,110927:0:0:0:0:
329,192,110927,128,0,111239:0:0:0:0:
475,192,110927,128,0,111083:0:0:0:0:
36,192,110927,1,0,0:0:0:0:
182,192,111083,128,0,111239:0:0:0:0:
402,192,111239,128,0,111552:0:0:0:0:
36,192,111239,128,0,111395:0:0:0:0:
475,192,111239,1,0,0:0:0:0:
256,192,111395,128,0,111552:0:0:0:0:
36,192,111552,128,0,112333:0:0:0:0:
109,192,111552,1,0,0:0:0:0:
182,192,111552,1,0,0:0:0:0:
329,192,111552,1,0,0:0:0:0:
475,192,111552,1,0,0:0:0:0:
256,192,111864,1,0,0:0:0:0:
109,192,111864,1,0,0:0:0:0:
329,192,112020,1,0,0:0:0:0:
475,192,112020,1,0,0:0:0:0:
329,192,112177,128,0,112333:0:0:0:0:
475,192,112177,128,0,112333:0:0:0:0:
182,192,112177,128,0,112333:0:0:0:0:
329,192,112489,128,0,112802:0:0:0:0:
475,192,112489,128,0,112802:0:0:0:0:
182,192,112645,1,0,0:0:0:0:
109,192,112645,1,0,0:0:0:0:
256,192,112802,128,0,113114:0:0:0:0:
402,192,112802,128,0,113114:0:0:0:0:
36,192,112958,1,0,0:0:0:0:
109,192,112958,1,0,0:0:0:0:
182,192,113114,128,0,113427:0:0:0:0:
329,192,113114,128,0,113427:0:0:0:0:
475,192,113114,1,0,0:0:0:0:
256,192,113427,128,0,114208:0:0:0:0:
109,192,113427,128,0,114208:0:0:0:0:
402,192,113427,128,0,113583:0:0:0:0:
36,192,113427,1,0,0:0:0:0:
475,192,113583,128,0,113739:0:0:0:0:
182,192,113739,128,0,113895:0:0:0:0:
329,192,113895,128,0,114052:0:0:0:0:
36,192,114052,128,0,114208:0:0:0:0:
402,192,114052,128,0,114208:0:0:0:0:
475,192,114052,128,0,114208:0:0:0:0:
36,192,114364,128,0,114520:0:0:0:0:
182,192,114364,128,0,114677:0:0:0:0:
329,192,114364,1,0,0:0:0:0:
402,192,114364,1,0,0:0:0:0:
475,192,114364,1,0,0:0:0:0:
256,192,114520,128,0,114833:0:0:0:0:
329,192,114677,128,0,114989:0:0:0:0:
475,192,114677,128,0,114833:0:0:0:0:
109,192,114833,128,0,114989:0:0:0:0:
36,192,114833,128,0,114989:0:0:0:0:
402,192,114989,128,0,115145:0:0:0:0:
475,192,114989,128,0,115145:0:0:0:0:
182,192,115145,128,0,115302:0:0:0:0:
36,192,115145,128,0,115302:0:0:0:0:
256,192,115302,128,0,116083:0:0:0:0:
402,192,115302,128,0,115458:0:0:0:0:
475,192,115302,128,0,115458:0:0:0:0:
109,192,115302,1,0,0:0:0:0:
329,192,115302,1,0,0:0:0:0:
109,192,115614,1,0,0:0:0:0:
36,192,115614,1,0,0:0:0:0:
402,192,115770,1,0,0:0:0:0:
475,192,115770,1,0,0:0:0:0:
329,192,115927,128,0,116083:0:0:0:0:
182,192,115927,128,0,116083:0:0:0:0:
36,192,115927,128,0,116083:0:0:0:0:
329,192,116239,128,0,116395:0:0:0:0:
475,192,116239,128,0,116395:0:0:0:0:
256,192,116239,128,0,116864:0:0:0:0:
182,192,116239,1,0,0:0:0:0:
36,192,116239,1,0,0:0:0:0:
109,192,116395,128,0,116552:0:0:0:0:
402,192,116552,128,0,116708:0:0:0:0:
182,192,116708,128,0,116864:0:0:0:0:
36,192,116708,128,0,116864:0:0:0:0:
329,192,116864,128,0,117020:0:0:0:0:
475,192,116864,128,0,117020:0:0:0:0:
256,192,117177,128,0,117958:0:0:0:0:
109,192,117177,128,0,117333:0:0:0:0:
36,192,117177,128,0,117333:0:0:0:0:
329,192,117177,1,0,0:0:0:0:
475,192,117177,1,0,0:0:0:0:
402,192,117489,1,0,0:0:0:0:
475,192,117489,1,0,0:0:0:0:
109,192,117645,1,0,0:0:0:0:
36,192,117645,1,0,0:0:0:0:
182,192,117802,128,0,117958:0:0:0:0:
329,192,117802,128,0,117958:0:0:0:0:
475,192,117802,128,0,117958:0:0:0:0:
182,192,118114,128,0,118270:0:0:0:0:
36,192,118114,128,0,118270:0:0:0:0:
256,192,118114,128,0,118270:0:0:0:0:
329,192,118114,1,0,0:0:0:0:
475,192,118114,1,0,0:0:0:0:
402,192,118270,128,0,118427:0:0:0:0:
109,192,118427,128,0,118583:0:0:0:0:
256,192,118427,128,0,118583:0:0:0:0:
329,192,118583,128,0,118739:0:0:0:0:
475,192,118583,128,0,118739:0:0:0:0:
182,192,118739,128,0,118895:0:0:0:0:
36,192,118739,128,0,118895:0:0:0:0:
402,192,118739,128,0,118895:0:0:0:0:
256,192,118895,128,0,119052:0:0:0:0:
109,192,119052,128,0,119677:0:0:0:0:
402,192,119052,128,0,119677:0:0:0:0:
36,192,119052,1,0,0:0:0:0:
182,192,119052,1,0,0:0:0:0:
475,192,119052,1,0,0:0:0:0:
329,192,119052,1,0,0:0:0:0:
256,192,119208,1,0,0:0:0:0:
182,192,119364,128,0,119520:0:0:0:0:
329,192,119520,128,0,119677:0:0:0:0:
256,192,119677,128,0,120302:0:0:0:0:
36,192,119677,1,0,0:0:0:0:
475,192,119677,1,0,0:0:0:0:
402,192,119833,1,0,0:0:0:0:
109,192,119833,1,0,0:0:0:0:
36,192,119989,1,0,0:0:0:0:
329,192,119989,1,0,0:0:0:0:
475,192,119989,1,0,0:0:0:0:
182,192,120145,1,0,0:0:0:0:
402,192,120302,128,0,120458:0:0:0:0:
109,192,120302,1,0,0:0:0:0:
36,192,120302,1,0,0:0:0:0:
329,192,120302,1,0,0:0:0:0:
475,192,120302,1,0,0:0:0:0:
182,192,120458,128,0,120614:0:0:0:0:
109,192,120614,1,0,0:0:0:0:
329,192,120614,128,0,120770:0:0:0:0:
475,192,120614,1,0,0:0:0:0:
36,192,120614,1,0,0:0:0:0:
256,192,120770,128,0,120927:0:0:0:0:
402,192,120927,128,0,121395:0:0:0:0:
36,192,120927,1,0,0:0:0:0:
475,192,120927,1,0,0:0:0:0:
109,192,120927,1,0,0:0:0:0:
329,192,121083,128,0,121395:0:0:0:0:
182,192,121083,1,0,0:0:0:0:
256,192,121239,128,0,121864:0:0:0:0:
109,192,121239,1,0,0:0:0:0:
36,192,121395,1,0,0:0:0:0:
402,192,121552,1,0,0:0:0:0:
475,192,121552,1,0,0:0:0:0:
109,192,121552,1,0,0:0:0:0:
329,192,121708,1,0,0:0:0:0:
109,192,121864,1,0,0:0:0:0:
36,192,121864,1,0,0:0:0:0:
475,192,121864,1,0,0:0:0:0:
402,192,121864,128,0,122020:0:0:0:0:
182,192,122020,128,0,122177:0:0:0:0:
329,192,122020,1,0,0:0:0:0:
256,192,122177,128,0,122333:0:0:0:0:
402,192,122177,1,0,0:0:0:0:
329,192,122333,128,0,122489:0:0:0:0:
475,192,122333,1,0,0:0:0:0:
109,192,122489,128,0,122802:0:0:0:0:
36,192,122489,1,0,0:0:0:0:
256,192,122645,128,0,122802:0:0:0:0:
402,192,122645,1,0,0:0:0:0:
182,192,122802,1,0,0:0:0:0:
36,192,122802,1,0,0:0:0:0:
329,192,122802,128,0,123427:0:0:0:0:
475,192,122802,128,0,123427:0:0:0:0:
36,192,123114,1,0,0:0:0:0:
109,192,123114,1,0,0:0:0:0:
256,192,123114,1,0,0:0:0:0:
182,192,123270,1,0,0:0:0:0:
109,192,123427,1,0,0:0:0:0:
36,192,123427,1,0,0:0:0:0:
256,192,123427,1,0,0:0:0:0:
182,192,123739,1,0,0:0:0:0:
36,192,123739,1,0,0:0:0:0:
329,192,123739,1,0,0:0:0:0:
475,192,123739,1,0,0:0:0:0:
109,192,124052,128,0,124364:0:0:0:0:
256,192,124052,1,0,0:0:0:0:
402,192,124052,1,0,0:0:0:0:
402,192,124364,128,0,124677:0:0:0:0:
182,192,124364,1,0,0:0:0:0:
329,192,124364,1,0,0:0:0:0:
256,192,124677,128,0,126083:0:0:0:0:
109,192,124677,1,0,0:0:0:0:
36,192,124677,1,0,0:0:0:0:
329,192,124677,1,0,0:0:0:0:
475,192,124677,1,0,0:0:0:0:
36,192,124989,128,0,125145:0:0:0:0:
329,192,124989,128,0,125145:0:0:0:0:
109,192,125302,128,0,125458:0:0:0:0:
402,192,125302,128,0,125458:0:0:0:0:
475,192,125614,128,0,125770:0:0:0:0:
182,192,125614,128,0,125770:0:0:0:0:
402,192,125927,128,0,126083:0:0:0:0:
109,192,125927,128,0,126083:0:0:0:0:
402,192,126239,128,0,126552:0:0:0:0:
109,192,126239,128,0,126552:0:0:0:0:
329,192,126552,1,0,0:0:0:0:
475,192,126552,1,0,0:0:0:0:
36,192,126552,128,0,127177:0:0:0:0:
182,192,126552,128,0,127177:0:0:0:0:
256,192,126552,1,0,0:0:0:0:
475,192,126864,128,0,127177:0:0:0:0:
329,192,127020,128,0,127177:0:0:0:0:
402,192,127177,128,0,127489:0:0:0:0:
256,192,127177,128,0,127489:0:0:0:0:
109,192,127177,1,0,0:0:0:0:
182,192,127333,1,0,0:0:0:0:
329,192,127489,1,0,0:0:0:0:
475,192,127489,1,0,0:0:0:0:
109,192,127489,128,0,128114:0:0:0:0:
36,192,127489,1,0,0:0:0:0:
182,192,127802,1,0,0:0:0:0:
402,192,127802,128,0,128114:0:0:0:0:
256,192,127802,128,0,128114:0:0:0:0:
329,192,127958,1,0,0:0:0:0:
36,192,128114,1,0,0:0:0:0:
475,192,128114,1,0,0:0:0:0:
256,192,128270,1,0,0:0:0:0:
402,192,128270,1,0,0:0:0:0:
475,192,128427,128,0,129052:0:0:0:0:
36,192,128427,1,0,0:0:0:0:
329,192,128427,128,0,129052:0:0:0:0:
109,192,128427,1,0,0:0:0:0:
182,192,128427,1,0,0:0:0:0:
36,192,128739,1,0,0:0:0:0:
182,192,128739,1,0,0:0:0:0:
256,192,128895,1,0,0:0:0:0:
402,192,129052,1,0,0:0:0:0:
182,192,129052,128,0,129364:0:0:0:0:
36,192,129052,1,0,0:0:0:0:
109,192,129208,1,0,0:0:0:0:
329,192,129364,1,0,0:0:0:0:
475,192,129364,1,0,0:0:0:0:
402,192,129364,128,0,129677:0:0:0:0:
36,192,129364,1,0,0:0:0:0:
182,192,129520,1,0,0:0:0:0:
256,192,129677,1,0,0:0:0:0:
475,192,129677,1,0,0:0:0:0:
36,192,129677,1,0,0:0:0:0:
329,192,129677,128,0,129989:0:0:0:0:
109,192,129833,1,0,0:0:0:0:
475,192,129989,1,0,0:0:0:0:
182,192,129989,1,0,0:0:0:0:
256,192,129989,128,0,130302:0:0:0:0:
36,192,129989,1,0,0:0:0:0:
402,192,130145,1,0,0:0:0:0:
475,192,130302,1,0,0:0:0:0:
182,192,130302,128,0,131239:0:0:0:0:
36,192,130302,1,0,0:0:0:0:
329,192,130302,1,0,0:0:0:0:
36,192,130614,1,0,0:0:0:0:
475,192,130614,1,0,0:0:0:0:
329,192,130614,1,0,0:0:0:0:
402,192,130770,1,0,0:0:0:0:
36,192,130927,1,0,0:0:0:0:
256,192,130927,1,0,0:0:0:0:
402,192,131083,1,0,0:0:0:0:
36,192,131239,1,0,0:0:0:0:
329,192,131239,128,0,131864:0:0:0:0:
109,192,131239,1,0,0:0:0:0:
475,192,131239,1,0,0:0:0:0:
402,192,131395,1,0,0:0:0:0:
182,192,131552,1,0,0:0:0:0:
475,192,131552,1,0,0:0:0:0:
36,192,131552,1,0,0:0:0:0:
256,192,131708,1,0,0:0:0:0:
36,192,131864,1,0,0:0:0:0:
475,192,131864,1,0,0:0:0:0:
109,192,131864,128,0,132177:0:0:0:0:
402,192,131864,128,0,132177:0:0:0:0:
182,192,132020,1,0,0:0:0:0:
329,192,132177,128,0,133114:0:0:0:0:
36,192,132177,128,0,132489:0:0:0:0:
256,192,132177,1,0,0:0:0:0:
475,192,132177,1,0,0:0:0:0:
182,192,132489,128,0,132645:0:0:0:0:
256,192,132645,128,0,132802:0:0:0:0:
109,192,132802,128,0,133114:0:0:0:0:
36,192,132802,1,0,0:0:0:0:
475,192,132802,1,0,0:0:0:0:
182,192,133114,1,0,0:0:0:0:
475,192,133114,1,0,0:0:0:0:
36,192,133114,1,0,0:0:0:0:
402,192,133114,128,0,133427:0:0:0:0:
256,192,133114,128,0,133427:0:0:0:0:
329,192,133427,1,0,0:0:0:0:
475,192,133427,1,0,0:0:0:0:
36,192,133427,128,0,133739:0:0:0:0:
182,192,133427,128,0,133739:0:0:0:0:
256,192,133583,1,0,0:0:0:0:
109,192,133739,1,0,0:0:0:0:
402,192,133739,1,0,0:0:0:0:
329,192,133739,128,0,134052:0:0:0:0:
475,192,133739,128,0,134052:0:0:0:0:
182,192,134052,1,0,0:0:0:0:
402,192,134052,1,0,0:0:0:0:
36,192,134052,128,0,134677:0:0:0:0:
256,192,134052,128,0,134364:0:0:0:0:
475,192,134364,1,0,0:0:0:0:
402,192,134364,1,0,0:0:0:0:
109,192,134364,128,0,134520:0:0:0:0:
329,192,134520,1,0,0:0:0:0:
182,192,134520,128,0,134677:0:0:0:0:
256,192,134677,1,0,0:0:0:0:
475,192,134677,128,0,134989:0:0:0:0:
402,192,134677,128,0,134989:0:0:0:0:
329,192,134989,1,0,0:0:0:0:
36,192,134989,1,0,0:0:0:0:
182,192,134989,128,0,135302:0:0:0:0:
109,192,134989,1,0,0:0:0:0:
36,192,135302,1,0,0:0:0:0:
475,192,135302,1,0,0:0:0:0:
329,192,135302,128,0,135614:0:0:0:0:
256,192,135458,1,0,0:0:0:0:
475,192,135614,1,0,0:0:0:0:
182,192,135614,1,0,0:0:0:0:
109,192,135614,128,0,135927:0:0:0:0:
475,192,135927,1,0,0:0:0:0:
329,192,135927,1,0,0:0:0:0:
36,192,135927,1,0,0:0:0:0:
402,192,135927,128,0,136552:0:0:0:0:
182,192,135927,1,0,0:0:0:0:
109,192,136239,1,0,0:0:0:0:
256,192,136239,128,0,136552:0:0:0:0:
36,192,136395,128,0,136864:0:0:0:0:
329,192,136552,1,0,0:0:0:0:
109,192,136552,128,0,136864:0:0:0:0:
182,192,136708,128,0,136864:0:0:0:0:
402,192,136864,128,0,137177:0:0:0:0:
329,192,136864,1,0,0:0:0:0:
475,192,136864,1,0,0:0:0:0:
256,192,136864,128,0,137177:0:0:0:0:
109,192,137020,128,0,137177:0:0:0:0:
36,192,137177,1,0,0:0:0:0:
182,192,137177,128,0,137489:0:0:0:0:
475,192,137177,1,0,0:0:0:0:
329,192,137333,128,0,137489:0:0:0:0:
475,192,137489,1,0,0:0:0:0:
256,192,137489,128,0,137802:0:0:0:0:
36,192,137489,1,0,0:0:0:0:
475,192,137802,1,0,0:0:0:0:
329,192,137802,1,0,0:0:0:0:
109,192,137802,1,0,0:0:0:0:
182,192,137802,128,0,138270:0:0:0:0:
36,192,137802,1,0,0:0:0:0:
475,192,138114,1,0,0:0:0:0:
36,192,138114,1,0,0:0:0:0:
329,192,138114,128,0,138739:0:0:0:0:
256,192,138270,1,0,0:0:0:0:
475,192,138427,1,0,0:0:0:0:
36,192,138427,1,0,0:0:0:0:
182,192,138427,128,0,138739:0:0:0:0:
109,192,138583,1,0,0:0:0:0:
256,192,138739,1,0,0:0:0:0:
36,192,138739,128,0,139208:0:0:0:0:
475,192,138739,1,0,0:0:0:0:
402,192,138739,1,0,0:0:0:0:
182,192,138895,1,0,0:0:0:0:
475,192,139052,1,0,0:0:0:0:
256,192,139052,1,0,0:0:0:0:
329,192,139208,1,0,0:0:0:0:
256,192,139364,128,0,139520:0:0:0:0:
109,192,139364,128,0,139520:0:0:0:0:
402,192,139364,1,0,0:0:0:0:
475,192,139677,1,0,0:0:0:0:
329,192,139677,1,0,0:0:0:0:
36,192,139677,1,0,0:0:0:0:
109,192,139677,128,0,140458:0:0:0:0:
256,192,139677,128,0,140458:0:0:0:0:
475,192,139989,1,0,0:0:0:0:
329,192,139989,1,0,0:0:0:0:
402,192,140145,1,0,0:0:0:0:
36,192,140302,1,0,0:0:0:0:
475,192,140302,1,0,0:0:0:0:
329,192,140302,1,0,0:0:0:0:
182,192,140458,1,0,0:0:0:0:
36,192,140614,1,0,0:0:0:0:
475,192,140614,1,0,0:0:0:0:
109,192,140614,1,0,0:0:0:0:
256,192,140614,128,0,141239:0:0:0:0:
402,192,140614,128,0,141239:0:0:0:0:
182,192,140927,1,0,0:0:0:0:
36,192,140927,1,0,0:0:0:0:
182,192,141083,1,0,0:0:0:0:
475,192,141239,1,0,0:0:0:0:
329,192,141239,1,0,0:0:0:0:
36,192,141239,1,0,0:0:0:0:
109,192,141395,1,0,0:0:0:0:
36,192,141552,1,0,0:0:0:0:
475,192,141552,1,0,0:0:0:0:
402,192,141552,128,0,142020:0:0:0:0:
182,192,141552,1,0,0:0:0:0:
329,192,141552,1,0,0:0:0:0:
182,192,141864,1,0,0:0:0:0:
109,192,142020,1,0,0:0:0:0:
36,192,142177,1,0,0:0:0:0:
402,192,142177,128,0,142333:0:0:0:0:
256,192,142177,1,0,0:0:0:0:
182,192,142333,1,0,0:0:0:0:
109,192,142489,1,0,0:0:0:0:
475,192,142489,1,0,0:0:0:0:
329,192,142489,128,0,142958:0:0:0:0:
36,192,142489,1,0,0:0:0:0:
475,192,142802,1,0,0:0:0:0:
36,192,142802,1,0,0:0:0:0:
182,192,142802,128,0,143270:0:0:0:0:
402,192,142958,1,0,0:0:0:0:
475,192,143114,1,0,0:0:0:0:
109,192,143114,1,0,0:0:0:0:
329,192,143114,128,0,143270:0:0:0:0:
36,192,143114,1,0,0:0:0:0:
36,192,143427,1,0,0:0:0:0:
256,192,143427,1,0,0:0:0:0:
182,192,143427,1,0,0:0:0:0:
402,192,143427,128,0,144052:0:0:0:0:
475,192,143427,128,0,144052:0:0:0:0:
256,192,143739,1,0,0:0:0:0:
36,192,143739,128,0,144052:0:0:0:0:
329,192,143895,1,0,0:0:0:0:
109,192,143895,128,0,144052:0:0:0:0:
256,192,144052,128,0,144364:0:0:0:0:
329,192,144208,128,0,144364:0:0:0:0:
475,192,144364,1,0,0:0:0:0:
182,192,144364,128,0,144833:0:0:0:0:
402,192,144364,1,0,0:0:0:0:
36,192,144364,1,0,0:0:0:0:
36,192,144677,1,0,0:0:0:0:
475,192,144677,1,0,0:0:0:0:
256,192,144677,1,0,0:0:0:0:
329,192,144833,1,0,0:0:0:0:
402,192,144989,1,0,0:0:0:0:
475,192,144989,1,0,0:0:0:0:
182,192,144989,128,0,145302:0:0:0:0:
36,192,144989,1,0,0:0:0:0:
256,192,145145,1,0,0:0:0:0:
109,192,145302,1,0,0:0:0:0:
475,192,145302,1,0,0:0:0:0:
329,192,145302,128,0,145770:0:0:0:0:
36,192,145302,1,0,0:0:0:0:
256,192,145614,1,0,0:0:0:0:
109,192,145614,128,0,145927:0:0:0:0:
182,192,145770,128,0,145927:0:0:0:0:
402,192,145927,1,0,0:0:0:0:
475,192,145927,1,0,0:0:0:0:
329,192,145927,128,0,146239:0:0:0:0:
36,192,145927,1,0,0:0:0:0:
256,192,146239,1,0,0:0:0:0:
475,192,146239,1,0,0:0:0:0:
36,192,146239,128,0,146552:0:0:0:0:
109,192,146239,1,0,0:0:0:0:
329,192,146552,1,0,0:0:0:0:
182,192,146552,128,0,146864:0:0:0:0:
402,192,146708,1,0,0:0:0:0:
475,192,146864,1,0,0:0:0:0:
36,192,146864,1,0,0:0:0:0:
329,192,146864,128,0,147177:0:0:0:0:
256,192,146864,1,0,0:0:0:0:
36,192,147177,1,0,0:0:0:0:
475,192,147177,1,0,0:0:0:0:
109,192,147177,128,0,147645:0:0:0:0:
182,192,147177,1,0,0:0:0:0:
256,192,147489,128,0,147645:0:0:0:0:
402,192,147489,1,0,0:0:0:0:
329,192,147645,128,0,147802:0:0:0:0:
475,192,147802,1,0,0:0:0:0:
182,192,147802,128,0,148114:0:0:0:0:
109,192,147802,1,0,0:0:0:0:
36,192,147802,1,0,0:0:0:0:
329,192,148114,1,0,0:0:0:0:
475,192,148114,1,0,0:0:0:0:
36,192,148114,1,0,0:0:0:0:
402,192,148114,128,0,148427:0:0:0:0:
256,192,148114,128,0,148427:0:0:0:0:
475,192,148427,1,0,0:0:0:0:
36,192,148427,128,0,148739:0:0:0:0:
182,192,148427,128,0,148739:0:0:0:0:
256,192,148739,1,0,0:0:0:0:
475,192,148739,128,0,149052:0:0:0:0:
329,192,148739,128,0,149052:0:0:0:0:
109,192,149052,1,0,0:0:0:0:
256,192,149052,1,0,0:0:0:0:
402,192,149052,1,0,0:0:0:0:
36,192,149052,128,0,149520:0:0:0:0:
182,192,149052,128,0,149520:0:0:0:0:
402,192,149364,128,0,149520:0:0:0:0:
256,192,149364,1,0,0:0:0:0:
329,192,149520,128,0,149677:0:0:0:0:
109,192,149677,1,0,0:0:0:0:
256,192,149677,1,0,0:0:0:0:
402,192,149677,128,0,149989:0:0:0:0:
36,192,149677,128,0,149989:0:0:0:0:
475,192,149677,1,0,0:0:0:0:
109,192,149989,1,0,0:0:0:0:
182,192,149989,128,0,150302:0:0:0:0:
329,192,149989,1,0,0:0:0:0:
475,192,149989,128,0,150614:0:0:0:0:
256,192,150302,1,0,0:0:0:0:
109,192,150302,128,0,150614:0:0:0:0:
402,192,150302,128,0,150614:0:0:0:0:
182,192,150614,1,0,0:0:0:0:
36,192,150614,128,0,150927:0:0:0:0:
329,192,150614,128,0,150927:0:0:0:0:
109,192,150927,1,0,0:0:0:0:
256,192,150927,128,0,152177:0:0:0:0:
402,192,150927,1,0,0:0:0:0:
475,192,150927,1,0,0:0:0:0:
402,192,151239,128,0,151395:0:0:0:0:
182,192,151239,1,0,0:0:0:0:
109,192,151239,1,0,0:0:0:0:
475,192,151395,128,0,151552:0:0:0:0:
329,192,151552,128,0,151708:0:0:0:0:
36,192,151552,1,0,0:0:0:0:
182,192,151552,1,0,0:0:0:0:
402,192,151708,128,0,151864:0:0:0:0:
109,192,151864,1,0,0:0:0:0:
475,192,151864,1,0,0:0:0:0:
36,192,151864,128,0,152177:0:0:0:0:
182,192,151864,128,0,152177:0:0:0:0:
475,192,152177,128,0,152489:0:0:0:0:
109,192,152177,1,0,0:0:0:0:
329,192,152177,128,0,152489:0:0:0:0:
402,192,152177,1,0,0:0:0:0:
182,192,152489,128,0,152802:0:0:0:0:
256,192,152489,1,0,0:0:0:0:
402,192,152489,1,0,0:0:0:0:
36,192,152489,128,0,152802:0:0:0:0:
109,192,152802,1,0,0:0:0:0:
402,192,152802,1,0,0:0:0:0:
256,192,152802,1,0,0:0:0:0:
475,192,152802,128,0,153270:0:0:0:0:
329,192,152802,128,0,153270:0:0:0:0:
109,192,153114,128,0,153270:0:0:0:0:
256,192,153114,1,0,0:0:0:0:
182,192,153270,128,0,153427:0:0:0:0:
402,192,153427,1,0,0:0:0:0:
256,192,153427,1,0,0:0:0:0:
109,192,153427,128,0,153739:0:0:0:0:
475,192,153427,128,0,153739:0:0:0:0:
36,192,153427,1,0,0:0:0:0:
402,192,153739,1,0,0:0:0:0:
329,192,153739,128,0,154052:0:0:0:0:
182,192,153739,1,0,0:0:0:0:
36,192,153739,128,0,154364:0:0:0:0:
402,192,154052,128,0,154364:0:0:0:0:
109,192,154052,128,0,154364:0:0:0:0:
182,192,154052,1,0,0:0:0:0:
256,192,154208,1,0,0:0:0:0:
329,192,154364,1,0,0:0:0:0:
475,192,154364,128,0,154677:0:0:0:0:
182,192,154364,128,0,154677:0:0:0:0:
402,192,154520,1,0,0:0:0:0:
329,192,154677,1,0,0:0:0:0:
256,192,154677,128,0,157802:0:0:0:0:
109,192,154677,1,0,0:0:0:0:
36,192,154677,1,0,0:0:0:0:
109,192,154989,128,0,155145:0:0:0:0:
329,192,154989,1,0,0:0:0:0:
402,192,154989,1,0,0:0:0:0:
36,192,155145,128,0,155302:0:0:0:0:
182,192,155302,128,0,155458:0:0:0:0:
475,192,155302,1,0,0:0:0:0:
329,192,155302,1,0,0:0:0:0:
109,192,155458,128,0,155614:0:0:0:0:
182,192,155614,1,0,0:0:0:0:
36,192,155614,1,0,0:0:0:0:
475,192,155614,128,0,155927:0:0:0:0:
329,192,155614,128,0,155927:0:0:0:0:
36,192,155927,128,0,156239:0:0:0:0:
402,192,155927,1,0,0:0:0:0:
182,192,155927,128,0,156239:0:0:0:0:
475,192,156239,128,0,156552:0:0:0:0:
329,192,156239,128,0,156552:0:0:0:0:
109,192,156239,1,0,0:0:0:0:
36,192,156552,1,0,0:0:0:0:
182,192,156552,1,0,0:0:0:0:
402,192,156552,1,0,0:0:0:0:
109,192,156864,1,0,0:0:0:0:
402,192,156864,1,0,0:0:0:0:
402,192,157020,1,0,0:0:0:0:
109,192,157020,1,0,0:0:0:0:
475,192,157177,1,0,0:0:0:0:
36,192,157177,1,0,0:0:0:0:
182,192,157333,1,0,0:0:0:0:
329,192,157333,1,0,0:0:0:0:
109,192,157489,1,0,0:0:0:0:
402,192,157489,1,0,0:0:0:0:
36,192,157802,1,0,0:0:0:0:
182,192,157802,1,0,0:0:0:0:
475,192,157802,1,0,0:0:0:0:
329,192,157958,1,0,0:0:0:0:
109,192,158114,1,0,0:0:0:0:
256,192,158114,1,0,0:0:0:0:
402,192,158114,1,0,0:0:0:0:
182,192,158270,1,0,0:0:0:0:
256,192,158427,1,0,0:0:0:0:
36,192,158427,1,0,0:0:0:0:
475,192,158427,1,0,0:0:0:0:
182,192,158739,1,0,0:0:0:0:
329,192,158739,1,0,0:0:0:0:
36,192,158895,1,0,0:0:0:0:
256,192,159052,1,0,0:0:0:0:
402,192,159052,1,0,0:0:0:0:
182,192,159364,1,0,0:0:0:0:
36,192,159364,1,0,0:0:0:0:
329,192,159364,1,0,0:0:0:0:
475,192,159364,1,0,0:0:0:0:
256,192,159677,1,0,0:0:0:0:
402,192,159677,1,0,0:0:0:0:
36,192,159833,1,0,0:0:0:0:
182,192,159989,1,0,0:0:0:0:
329,192,159989,1,0,0:0:0:0:
36,192,160302,1,0,0:0:0:0:
182,192,160302,1,0,0:0:0:0:
329,192,160302,1,0,0:0:0:0:
402,192,160302,1,0,0:0:0:0:
36,192,160614,1,0,0:0:0:0:
329,192,160614,1,0,0:0:0:0:
109,192,160770,1,0,0:0:0:0:
182,192,160927,1,0,0:0:0:0:
402,192,160927,1,0,0:0:0:0:
256,192,161083,1,0,0:0:0:0:
109,192,161239,1,0,0:0:0:0:
36,192,161239,1,0,0:0:0:0:
329,192,161239,1,0,0:0:0:0:
475,192,161239,1,0,0:0:0:0:
402,192,161552,1,0,0:0:0:0:
256,192,161552,1,0,0:0:0:0:
36,192,161708,1,0,0:0:0:0:
182,192,161864,1,0,0:0:0:0:
329,192,161864,1,0,0:0:0:0:
182,192,162177,1,0,0:0:0:0:
36,192,162177,1,0,0:0:0:0:
329,192,162177,1,0,0:0:0:0:
475,192,162177,1,0,0:0:0:0:
182,192,162489,1,0,0:0:0:0:
329,192,162489,1,0,0:0:0:0:
36,192,162645,1,0,0:0:0:0:
329,192,162802,1,0,0:0:0:0:
475,192,162802,1,0,0:0:0:0:
256,192,163114,1,0,0:0:0:0:
109,192,163114,1,0,0:0:0:0:
402,192,163114,1,0,0:0:0:0:
36,192,163114,1,0,0:0:0:0:
182,192,163427,1,0,0:0:0:0:
329,192,163427,1,0,0:0:0:0:
36,192,163583,1,0,0:0:0:0:
329,192,163739,1,0,0:0:0:0:
475,192,163739,1,0,0:0:0:0:
182,192,164052,1,0,0:0:0:0:
36,192,164052,1,0,0:0:0:0:
256,192,164052,1,0,0:0:0:0:
402,192,164052,1,0,0:0:0:0:
475,192,164364,128,0,164442:0:0:0:0:
182,192,164364,1,0,0:0:0:0:
402,192,164520,128,0,164598:0:0:0:0:
36,192,164520,1,0,0:0:0:0:
329,192,164677,128,0,164755:0:0:0:0:
109,192,164677,1,0,0:0:0:0:
402,192,164833,128,0,164911:0:0:0:0:
256,192,164989,128,0,165067:0:0:0:0:
36,192,164989,1,0,0:0:0:0:
475,192,164989,1,0,0:0:0:0:
182,192,165145,128,0,165223:0:0:0:0:
109,192,165302,128,0,165927:0:0:0:0:
256,192,165458,1,0,0:0:0:0:
329,192,165614,1,0,0:0:0:0:
402,192,165770,1,0,0:0:0:0:
256,192,165927,1,0,0:0:0:0:
182,192,165927,1,0,0:0:0:0:
36,192,165927,1,0,0:0:0:0:
475,192,165927,1,0,0:0:0:0:
475,192,166239,1,0,0:0:0:0:
329,192,166239,1,0,0:0:0:0:
109,192,166395,1,0,0:0:0:0:
402,192,166552,1,0,0:0:0:0:
256,192,166552,1,0,0:0:0:0:
182,192,166864,1,0,0:0:0:0:
36,192,166864,1,0,0:0:0:0:
256,192,166864,1,0,0:0:0:0:
402,192,166864,1,0,0:0:0:0:
182,192,167177,1,0,0:0:0:0:
329,192,167177,1,0,0:0:0:0:
36,192,167333,1,0,0:0:0:0:
329,192,167489,1,0,0:0:0:0:
475,192,167489,1,0,0:0:0:0:
329,192,167802,1,0,0:0:0:0:
475,192,167802,1,0,0:0:0:0:
109,192,167802,1,0,0:0:0:0:
256,192,168114,1,0,0:0:0:0:
402,192,168114,1,0,0:0:0:0:
36,192,168270,1,0,0:0:0:0:
182,192,168427,1,0,0:0:0:0:
329,192,168427,1,0,0:0:0:0:
109,192,168739,1,0,0:0:0:0:
256,192,168739,1,0,0:0:0:0:
402,192,168739,1,0,0:0:0:0:
475,192,168739,1,0,0:0:0:0:
36,192,169052,1,0,0:0:0:0:
256,192,169052,1,0,0:0:0:0:
109,192,169208,1,0,0:0:0:0:
182,192,169364,1,0,0:0:0:0:
402,192,169364,1,0,0:0:0:0:
256,192,169520,1,0,0:0:0:0:
329,192,169677,1,0,0:0:0:0:
109,192,169677,1,0,0:0:0:0:
36,192,169677,1,0,0:0:0:0:
475,192,169677,1,0,0:0:0:0:
182,192,169989,1,0,0:0:0:0:
329,192,169989,1,0,0:0:0:0:
36,192,170145,1,0,0:0:0:0:
256,192,170302,1,0,0:0:0:0:
402,192,170302,1,0,0:0:0:0:
475,192,170302,1,0,0:0:0:0:
182,192,170614,1,0,0:0:0:0:
402,192,170614,1,0,0:0:0:0:
329,192,170614,1,0,0:0:0:0:
36,192,170614,1,0,0:0:0:0:
109,192,170927,1,0,0:0:0:0:
256,192,170927,1,0,0:0:0:0:
36,192,171083,1,0,0:0:0:0:
182,192,171239,1,0,0:0:0:0:
329,192,171239,1,0,0:0:0:0:
402,192,171239,1,0,0:0:0:0:
36,192,171552,1,0,0:0:0:0:
109,192,171552,1,0,0:0:0:0:
256,192,171552,1,0,0:0:0:0:
475,192,171552,1,0,0:0:0:0:
329,192,171730,1,0,0:0:0:0:
402,192,171864,1,0,0:0:0:0:
182,192,172020,1,0,0:0:0:0:
256,192,172177,1,0,0:0:0:0:
36,192,172177,1,0,0:0:0:0:
329,192,172333,1,0,0:0:0:0:
402,192,172489,1,0,0:0:0:0:
182,192,172489,1,0,0:0:0:0:
475,192,172489,1,0,0:0:0:0:
109,192,172802,1,0,0:0:0:0:
329,192,172802,1,0,0:0:0:0:
182,192,172958,1,0,0:0:0:0:
256,192,173114,1,0,0:0:0:0:
36,192,173114,1,0,0:0:0:0:
475,192,173114,128,0,173427:0:0:0:0:
182,192,173427,128,0,173895:0:0:0:0:
109,192,173427,1,0,0:0:0:0:
36,192,173427,1,0,0:0:0:0:
402,192,173427,1,0,0:0:0:0:
329,192,173427,128,0,173739:0:0:0:0:
36,192,173739,1,0,0:0:0:0:
475,192,173739,1,0,0:0:0:0:
329,192,173895,128,0,174364:0:0:0:0:
402,192,173895,1,0,0:0:0:0:
182,192,174052,128,0,174364:0:0:0:0:
36,192,174052,1,0,0:0:0:0:
475,192,174052,1,0,0:0:0:0:
109,192,174052,1,0,0:0:0:0:
402,192,174364,128,0,174833:0:0:0:0:
256,192,174364,1,0,0:0:0:0:
36,192,174364,1,0,0:0:0:0:
475,192,174364,1,0,0:0:0:0:
109,192,174364,128,0,174677:0:0:0:0:
109,192,174833,128,0,175302:0:0:0:0:
256,192,174833,1,0,0:0:0:0:
402,192,174989,128,0,175302:0:0:0:0:
182,192,174989,1,0,0:0:0:0:
329,192,174989,1,0,0:0:0:0:
475,192,174989,1,0,0:0:0:0:
256,192,175302,128,0,175614:0:0:0:0:
36,192,175302,128,0,175614:0:0:0:0:
475,192,175302,128,0,175614:0:0:0:0:
182,192,175302,1,0,0:0:0:0:
329,192,175302,1,0,0:0:0:0:
402,192,175614,128,0,176239:0:0:0:0:
182,192,175614,128,0,175770:0:0:0:0:
329,192,175770,128,0,175927:0:0:0:0:
109,192,175927,128,0,176239:0:0:0:0:
36,192,175927,1,0,0:0:0:0:
256,192,176083,128,0,176239:0:0:0:0:
329,192,176239,128,0,176395:0:0:0:0:
182,192,176239,1,0,0:0:0:0:
475,192,176239,1,0,0:0:0:0:
36,192,176239,128,0,176864:0:0:0:0:
475,192,176395,128,0,176552:0:0:0:0:
256,192,176552,128,0,176864:0:0:0:0:
109,192,176552,1,0,0:0:0:0:
402,192,176552,1,0,0:0:0:0:
402,192,176708,128,0,176864:0:0:0:0:
182,192,176864,128,0,177177:0:0:0:0:
329,192,176864,128,0,177177:0:0:0:0:
109,192,176864,1,0,0:0:0:0:
402,192,177177,128,0,177645:0:0:0:0:
36,192,177177,128,0,177645:0:0:0:0:
475,192,177177,1,0,0:0:0:0:
109,192,177177,1,0,0:0:0:0:
256,192,177177,1,0,0:0:0:0:
256,192,177489,1,0,0:0:0:0:
182,192,177645,128,0,177802:0:0:0:0:
109,192,177645,1,0,0:0:0:0:
256,192,177802,128,0,178114:0:0:0:0:
402,192,177802,128,0,178114:0:0:0:0:
475,192,177802,1,0,0:0:0:0:
475,192,178114,128,0,178427:0:0:0:0:
36,192,178114,128,0,178427:0:0:0:0:
182,192,178114,1,0,0:0:0:0:
109,192,178114,1,0,0:0:0:0:
329,192,178114,1,0,0:0:0:0:
329,192,178270,128,0,178583:0:0:0:0:
182,192,178427,128,0,178739:0:0:0:0:
475,192,178583,128,0,178895:0:0:0:0:
109,192,178739,128,0,179052:0:0:0:0:
256,192,178739,128,0,178895:0:0:0:0:
36,192,178739,1,0,0:0:0:0:
329,192,178895,128,0,179052:0:0:0:0:
402,192,179052,128,0,179520:0:0:0:0:
36,192,179052,128,0,179520:0:0:0:0:
182,192,179052,1,0,0:0:0:0:
475,192,179052,1,0,0:0:0:0:
256,192,179052,1,0,0:0:0:0:
256,192,179364,1,0,0:0:0:0:
182,192,179520,128,0,179677:0:0:0:0:
329,192,179677,128,0,179989:0:0:0:0:
475,192,179677,128,0,179989:0:0:0:0:
36,192,179677,1,0,0:0:0:0:
256,192,179989,128,0,180302:0:0:0:0:
36,192,179989,128,0,180302:0:0:0:0:
109,192,179989,1,0,0:0:0:0:
182,192,179989,1,0,0:0:0:0:
402,192,179989,1,0,0:0:0:0:
402,192,180145,128,0,180302:0:0:0:0:
182,192,180302,128,0,180614:0:0:0:0:
475,192,180302,1,0,0:0:0:0:
329,192,180302,1,0,0:0:0:0:
329,192,180458,128,0,180614:0:0:0:0:
109,192,180614,128,0,180927:0:0:0:0:
402,192,180614,1,0,0:0:0:0:
256,192,180614,1,0,0:0:0:0:
256,192,180770,128,0,180927:0:0:0:0:
36,192,180927,1,0,0:0:0:0:
475,192,180927,1,0,0:0:0:0:
402,192,180927,128,0,181395:0:0:0:0:
182,192,180927,128,0,181239:0:0:0:0:
329,192,180927,1,0,0:0:0:0:
182,192,181395,128,0,181708:0:0:0:0:
329,192,181395,1,0,0:0:0:0:
402,192,181552,128,0,181708:0:0:0:0:
475,192,181552,1,0,0:0:0:0:
36,192,181552,1,0,0:0:0:0:
256,192,181552,1,0,0:0:0:0:
109,192,181864,128,0,182333:0:0:0:0:
329,192,181864,128,0,182177:0:0:0:0:
182,192,181864,1,0,0:0:0:0:
36,192,181864,1,0,0:0:0:0:
475,192,181864,1,0,0:0:0:0:
402,192,182177,1,0,0:0:0:0:
329,192,182333,128,0,182645:0:0:0:0:
182,192,182333,1,0,0:0:0:0:
109,192,182489,128,0,182645:0:0:0:0:
256,192,182489,1,0,0:0:0:0:
475,192,182489,1,0,0:0:0:0:
36,192,182802,1,0,0:0:0:0:
329,192,182802,1,0,0:0:0:0:
475,192,182802,1,0,0:0:0:0:
182,192,182802,128,0,183114:0:0:0:0:
256,192,182802,1,0,0:0:0:0:
402,192,183114,128,0,183427:0:0:0:0:
36,192,183114,128,0,183583:0:0:0:0:
182,192,183270,128,0,183583:0:0:0:0:
475,192,183427,128,0,183739:0:0:0:0:
329,192,183427,128,0,183739:0:0:0:0:
256,192,183583,128,0,183739:0:0:0:0:
36,192,183739,128,0,184052:0:0:0:0:
182,192,183739,128,0,184052:0:0:0:0:
109,192,183739,1,0,0:0:0:0:
402,192,183739,1,0,0:0:0:0:
329,192,183895,128,0,184052:0:0:0:0:
475,192,184052,128,0,184364:0:0:0:0:
402,192,184052,1,0,0:0:0:0:
256,192,184052,128,0,184364:0:0:0:0:
109,192,184208,128,0,184364:0:0:0:0:
182,192,184364,128,0,184520:0:0:0:0:
36,192,184364,128,0,184677:0:0:0:0:
402,192,184364,128,0,184677:0:0:0:0:
329,192,184364,1,0,0:0:0:0:
256,192,184520,128,0,184677:0:0:0:0:
109,192,184677,1,0,0:0:0:0:
329,192,184677,128,0,185093:0:0:0:0:
182,192,184677,1,0,0:0:0:0:
475,192,184677,128,0,185093:0:0:0:0:
182,192,185093,128,0,185302:0:0:0:0:
36,192,185302,128,0,185614:0:0:0:0:
329,192,185302,1,0,0:0:0:0:
475,192,185302,1,0,0:0:0:0:
109,192,185302,128,0,185614:0:0:0:0:
402,192,185614,128,0,186083:0:0:0:0:
475,192,185614,1,0,0:0:0:0:
182,192,185614,1,0,0:0:0:0:
256,192,185614,128,0,186083:0:0:0:0:
109,192,186083,128,0,186239:0:0:0:0:
182,192,186239,128,0,186552:0:0:0:0:
475,192,186239,1,0,0:0:0:0:
329,192,186239,128,0,186552:0:0:0:0:
36,192,186239,1,0,0:0:0:0:
475,192,186552,128,0,188427:0:0:0:0:
109,192,186552,1,0,0:0:0:0:
402,192,186552,1,0,0:0:0:0:
256,192,186552,1,0,0:0:0:0:
36,192,186552,128,0,188427:0:0:0:0:
109,192,186864,1,0,0:0:0:0:
256,192,186864,1,0,0:0:0:0:
402,192,186864,1,0,0:0:0:0:
109,192,187333,1,0,0:0:0:0:
182,192,187333,1,0,0:0:0:0:
402,192,187489,1,0,0:0:0:0:
329,192,187489,1,0,0:0:0:0:
182,192,187802,1,0,0:0:0:0:
402,192,187802,1,0,0:0:0:0:
109,192,187802,1,0,0:0:0:0:
256,192,187958,1,0,0:0:0:0:
109,192,188114,1,0,0:0:0:0:
329,192,188114,1,0,0:0:0:0:
109,192,188427,1,0,0:0:0:0:
182,192,188427,1,0,0:0:0:0:
256,192,188427,1,0,0:0:0:0:
402,192,188427,1,0,0:0:0:0:
109,192,188739,1,0,0:0:0:0:
402,192,188739,1,0,0:0:0:0:
256,192,188739,1,0,0:0:0:0:
402,192,189052,1,0,0:0:0:0:
109,192,189052,1,0,0:0:0:0:
182,192,189208,1,0,0:0:0:0:
256,192,189364,1,0,0:0:0:0:
36,192,189364,1,0,0:0:0:0:
329,192,189364,1,0,0:0:0:0:
475,192,189364,1,0,0:0:0:0:
109,192,189677,1,0,0:0:0:0:
329,192,189677,1,0,0:0:0:0:
475,192,189677,1,0,0:0:0:0:
256,192,189833,1,0,0:0:0:0:
182,192,189989,1,0,0:0:0:0:
402,192,189989,1,0,0:0:0:0:
329,192,190145,1,0,0:0:0:0:
256,192,190302,1,0,0:0:0:0:
109,192,190302,1,0,0:0:0:0:
36,192,190302,1,0,0:0:0:0:
475,192,190302,1,0,0:0:0:0:
402,192,190302,1,0,0:0:0:0:
109,192,190614,1,0,0:0:0:0:
402,192,190614,1,0,0:0:0:0:
402,192,190770,1,0,0:0:0:0:
109,192,190770,1,0,0:0:0:0:
36,192,190927,1,0,0:0:0:0:
475,192,190927,1,0,0:0:0:0:
329,192,191083,1,0,0:0:0:0:
182,192,191083,1,0,0:0:0:0:
109,192,191239,1,0,0:0:0:0:
402,192,191239,1,0,0:0:0:0:
36,192,191552,1,0,0:0:0:0:
329,192,191552,1,0,0:0:0:0:
475,192,191864,1,0,0:0:0:0:
182,192,191864,1,0,0:0:0:0:
36,192,192177,128,0,192333:0:0:0:0:
329,192,192177,128,0,192333:0:0:0:0:
475,192,192177,128,0,192333:0:0:0:0:
402,192,192333,128,0,192489:0:0:0:0:
182,192,192333,128,0,192489:0:0:0:0:
475,192,192489,128,0,192645:0:0:0:0:
256,192,192489,128,0,192645:0:0:0:0:
36,192,192489,128,0,192645:0:0:0:0:
182,192,192645,128,0,192802:0:0:0:0:
329,192,192645,128,0,192802:0:0:0:0:
402,192,192802,128,0,192958:0:0:0:0:
475,192,192802,128,0,192958:0:0:0:0:
36,192,192802,128,0,192958:0:0:0:0:
109,192,192958,128,0,193114:0:0:0:0:
256,192,192958,128,0,193114:0:0:0:0:
475,192,193114,128,0,193895:0:0:0:0:
182,192,193114,128,0,193270:0:0:0:0:
329,192,193114,128,0,193270:0:0:0:0:
36,192,193114,128,0,193895:0:0:0:0:
109,192,193270,128,0,193427:0:0:0:0:
402,192,193270,128,0,193427:0:0:0:0:
182,192,193427,128,0,193583:0:0:0:0:
329,192,193427,128,0,193583:0:0:0:0:
256,192,193583,128,0,193739:0:0:0:0:
402,192,193583,128,0,193895:0:0:0:0:
329,192,193739,128,0,194052:0:0:0:0:
182,192,193739,128,0,193895:0:0:0:0:
109,192,193739,128,0,193895:0:0:0:0:
256,192,193895,128,0,194052:0:0:0:0:
402,192,194052,1,0,0:0:0:0:
475,192,194052,1,0,0:0:0:0:
36,192,194052,128,0,194677:0:0:0:0:
182,192,194052,128,0,194364:0:0:0:0:
109,192,194052,1,0,0:0:0:0:
402,192,194364,1,0,0:0:0:0:
256,192,194364,1,0,0:0:0:0:
329,192,194520,128,0,194833:0:0:0:0:
402,192,194677,1,0,0:0:0:0:
475,192,194677,1,0,0:0:0:0:
182,192,194677,128,0,194833:0:0:0:0:
109,192,194677,1,0,0:0:0:0:
402,192,194989,1,0,0:0:0:0:
475,192,194989,1,0,0:0:0:0:
256,192,194989,128,0,195302:0:0:0:0:
109,192,194989,128,0,195302:0:0:0:0:
36,192,195302,1,0,0:0:0:0:
475,192,195302,1,0,0:0:0:0:
182,192,195302,128,0,195614:0:0:0:0:
329,192,195302,128,0,195614:0:0:0:0:
36,192,195614,1,0,0:0:0:0:
109,192,195614,1,0,0:0:0:0:
256,192,195614,128,0,195927:0:0:0:0:
402,192,195614,128,0,195927:0:0:0:0:
36,192,195927,1,0,0:0:0:0:
182,192,195927,1,0,0:0:0:0:
475,192,195927,128,0,196239:0:0:0:0:
109,192,195927,128,0,196708:0:0:0:0:
329,192,195927,1,0,0:0:0:0:
402,192,196239,1,0,0:0:0:0:
36,192,196239,1,0,0:0:0:0:
329,192,196239,1,0,0:0:0:0:
256,192,196395,1,0,0:0:0:0:
36,192,196552,128,0,196708:0:0:0:0:
475,192,196552,1,0,0:0:0:0:
402,192,196552,128,0,196708:0:0:0:0:
182,192,196552,128,0,196708:0:0:0:0:
329,192,196708,128,0,196864:0:0:0:0:
402,192,196864,128,0,197020:0:0:0:0:
182,192,196864,128,0,197020:0:0:0:0:
475,192,197020,128,0,197177:0:0:0:0:
256,192,197020,128,0,197177:0:0:0:0:
36,192,197177,1,0,0:0:0:0:
329,192,197177,128,0,197333:0:0:0:0:
109,192,197177,128,0,197333:0:0:0:0:
182,192,197333,128,0,197489:0:0:0:0:
402,192,197333,128,0,197489:0:0:0:0:
475,192,197489,1,0,0:0:0:0:
256,192,197489,128,0,197645:0:0:0:0:
36,192,197489,128,0,197645:0:0:0:0:
109,192,197645,128,0,197802:0:0:0:0:
329,192,197645,128,0,197802:0:0:0:0:
402,192,197802,1,0,0:0:0:0:
475,192,197802,1,0,0:0:0:0:
256,192,197802,1,0,0:0:0:0:
182,192,197802,128,0,198427:0:0:0:0:
36,192,197802,1,0,0:0:0:0:
475,192,198114,128,0,198270:0:0:0:0:
329,192,198114,128,0,198270:0:0:0:0:
36,192,198270,128,0,198427:0:0:0:0:
109,192,198270,128,0,198427:0:0:0:0:
402,192,198427,128,0,198739:0:0:0:0:
256,192,198427,128,0,198739:0:0:0:0:
36,192,198739,1,0,0:0:0:0:
475,192,198739,1,0,0:0:0:0:
182,192,198739,1,0,0:0:0:0:
109,192,198739,128,0,199052:0:0:0:0:
329,192,198739,128,0,199052:0:0:0:0:
402,192,198895,1,0,0:0:0:0:
475,192,199052,1,0,0:0:0:0:
256,192,199052,128,0,199364:0:0:0:0:
36,192,199052,128,0,199364:0:0:0:0:
402,192,199208,1,0,0:0:0:0:
475,192,199364,1,0,0:0:0:0:
329,192,199364,1,0,0:0:0:0:
182,192,199364,128,0,199677:0:0:0:0:
109,192,199520,1,0,0:0:0:0:
36,192,199677,1,0,0:0:0:0:
402,192,199677,1,0,0:0:0:0:
475,192,199677,1,0,0:0:0:0:
329,192,199677,128,0,200302:0:0:0:0:
256,192,199677,1,0,0:0:0:0:
36,192,199989,1,0,0:0:0:0:
182,192,199989,1,0,0:0:0:0:
109,192,200145,1,0,0:0:0:0:
256,192,200145,1,0,0:0:0:0:
475,192,200302,1,0,0:0:0:0:
36,192,200302,1,0,0:0:0:0:
182,192,200302,1,0,0:0:0:0:
402,192,200302,1,0,0:0:0:0:
329,192,200458,1,0,0:0:0:0:
402,192,200614,128,0,200770:0:0:0:0:
182,192,200614,1,0,0:0:0:0:
36,192,200614,1,0,0:0:0:0:
475,192,200614,1,0,0:0:0:0:
329,192,200770,128,0,200927:0:0:0:0:
109,192,200927,1,0,0:0:0:0:
475,192,200927,1,0,0:0:0:0:
256,192,200927,128,0,201083:0:0:0:0:
182,192,201083,128,0,201239:0:0:0:0:
475,192,201239,1,0,0:0:0:0:
329,192,201239,1,0,0:0:0:0:
109,192,201239,128,0,201395:0:0:0:0:
36,192,201395,128,0,201552:0:0:0:0:
475,192,201552,1,0,0:0:0:0:
402,192,201552,1,0,0:0:0:0:
256,192,201552,1,0,0:0:0:0:
329,192,201552,128,0,202177:0:0:0:0:
182,192,201552,1,0,0:0:0:0:
475,192,201864,1,0,0:0:0:0:
256,192,201864,1,0,0:0:0:0:
36,192,201864,1,0,0:0:0:0:
182,192,202020,128,0,202177:0:0:0:0:
402,192,202020,1,0,0:0:0:0:
256,192,202177,128,0,202489:0:0:0:0:
109,192,202177,1,0,0:0:0:0:
36,192,202177,1,0,0:0:0:0:
475,192,202177,1,0,0:0:0:0:
36,192,202489,128,0,203270:0:0:0:0:
475,192,202489,128,0,203270:0:0:0:0:
402,192,202489,128,0,202802:0:0:0:0:
182,192,202489,1,0,0:0:0:0:
109,192,202489,1,0,0:0:0:0:
329,192,202802,128,0,203270:0:0:0:0:
256,192,202802,1,0,0:0:0:0:
109,192,202802,1,0,0:0:0:0:
109,192,203114,1,0,0:0:0:0:
256,192,203114,128,0,203270:0:0:0:0:
402,192,203114,128,0,203270:0:0:0:0:
182,192,203270,1,0,0:0:0:0:
475,192,203427,1,0,0:0:0:0:
329,192,203427,1,0,0:0:0:0:
36,192,203427,1,0,0:0:0:0:
256,192,203427,128,0,203583:0:0:0:0:
402,192,203427,128,0,203583:0:0:0:0:
36,192,203739,1,0,0:0:0:0:
475,192,203739,1,0,0:0:0:0:
182,192,203739,128,0,204208:0:0:0:0:
329,192,203895,1,0,0:0:0:0:
109,192,204052,1,0,0:0:0:0:
36,192,204052,1,0,0:0:0:0:
402,192,204052,1,0,0:0:0:0:
475,192,204052,1,0,0:0:0:0:
256,192,204208,128,0,204364:0:0:0:0:
402,192,204364,128,0,204520:0:0:0:0:
475,192,204364,128,0,204677:0:0:0:0:
36,192,204364,128,0,204677:0:0:0:0:
109,192,204364,1,0,0:0:0:0:
256,192,204520,128,0,204677:0:0:0:0:
109,192,204677,128,0,204833:0:0:0:0:
256,192,204833,128,0,204989:0:0:0:0:
475,192,204989,1,0,0:0:0:0:
36,192,204989,1,0,0:0:0:0:
182,192,204989,128,0,205145:0:0:0:0:
329,192,204989,128,0,205145:0:0:0:0:
475,192,205302,1,0,0:0:0:0:
182,192,205302,1,0,0:0:0:0:
402,192,205302,1,0,0:0:0:0:
109,192,205302,128,0,205458:0:0:0:0:
36,192,205302,1,0,0:0:0:0:
329,192,205302,1,0,0:0:0:0:
402,192,205458,128,0,205927:0:0:0:0:
36,192,205614,1,0,0:0:0:0:
182,192,205614,1,0,0:0:0:0:
182,192,205770,128,0,205927:0:0:0:0:
475,192,205927,1,0,0:0:0:0:
36,192,205927,1,0,0:0:0:0:
256,192,205927,128,0,206083:0:0:0:0:
109,192,205927,1,0,0:0:0:0:
329,192,206083,128,0,206239:0:0:0:0:
36,192,206239,1,0,0:0:0:0:
475,192,206239,1,0,0:0:0:0:
182,192,206239,128,0,206552:0:0:0:0:
402,192,206239,128,0,206552:0:0:0:0:
256,192,206395,1,0,0:0:0:0:
36,192,206552,1,0,0:0:0:0:
475,192,206552,1,0,0:0:0:0:
109,192,206552,128,0,206864:0:0:0:0:
329,192,206552,128,0,206864:0:0:0:0:
182,192,206708,1,0,0:0:0:0:
475,192,206864,1,0,0:0:0:0:
36,192,206864,128,0,207177:0:0:0:0:
402,192,206864,1,0,0:0:0:0:
256,192,206864,128,0,207177:0:0:0:0:
182,192,207177,1,0,0:0:0:0:
475,192,207177,1,0,0:0:0:0:
109,192,207177,1,0,0:0:0:0:
329,192,207177,128,0,207333:0:0:0:0:
402,192,207333,1,0,0:0:0:0:
182,192,207333,128,0,207489:0:0:0:0:
475,192,207489,1,0,0:0:0:0:
36,192,207489,1,0,0:0:0:0:
256,192,207489,128,0,207645:0:0:0:0:
402,192,207645,1,0,0:0:0:0:
329,192,207645,128,0,207802:0:0:0:0:
36,192,207802,1,0,0:0:0:0:
475,192,207802,1,0,0:0:0:0:
109,192,207802,128,0,207958:0:0:0:0:
256,192,207802,1,0,0:0:0:0:
182,192,207958,128,0,208114:0:0:0:0:
256,192,208114,1,0,0:0:0:0:
402,192,208114,1,0,0:0:0:0:
36,192,208114,1,0,0:0:0:0:
329,192,208114,128,0,208427:0:0:0:0:
475,192,208114,128,0,208427:0:0:0:0:
402,192,208427,1,0,0:0:0:0:
109,192,208427,1,0,0:0:0:0:
182,192,208427,128,0,208739:0:0:0:0:
36,192,208427,128,0,208739:0:0:0:0:
256,192,208583,1,0,0:0:0:0:
109,192,208739,1,0,0:0:0:0:
402,192,208739,1,0,0:0:0:0:
329,192,208739,128,0,209052:0:0:0:0:
475,192,208739,128,0,209052:0:0:0:0:
402,192,209052,1,0,0:0:0:0:
256,192,209052,1,0,0:0:0:0:
109,192,209052,1,0,0:0:0:0:
182,192,209052,128,0,209833:0:0:0:0:
36,192,209052,1,0,0:0:0:0:
36,192,209364,1,0,0:0:0:0:
329,192,209364,1,0,0:0:0:0:
475,192,209364,1,0,0:0:0:0:
256,192,209520,128,0,209677:0:0:0:0:
329,192,209677,128,0,209833:0:0:0:0:
402,192,209677,1,0,0:0:0:0:
475,192,209677,128,0,209833:0:0:0:0:
36,192,209677,128,0,209833:0:0:0:0:
109,192,209833,128,0,209989:0:0:0:0:
182,192,209989,128,0,210145:0:0:0:0:
36,192,209989,1,0,0:0:0:0:
329,192,209989,128,0,210458:0:0:0:0:
475,192,209989,128,0,210145:0:0:0:0:
402,192,210302,128,0,210458:0:0:0:0:
256,192,210302,128,0,210458:0:0:0:0:
109,192,210302,128,0,210458:0:0:0:0:
475,192,210614,1,0,0:0:0:0:
256,192,210614,1,0,0:0:0:0:
182,192,210614,128,0,210927:0:0:0:0:
36,192,210614,128,0,210927:0:0:0:0:
402,192,210614,128,0,210927:0:0:0:0:
109,192,210927,1,0,0:0:0:0:
256,192,210927,1,0,0:0:0:0:
329,192,210927,128,0,211552:0:0:0:0:
475,192,210927,128,0,212020:0:0:0:0:
36,192,211239,1,0,0:0:0:0:
182,192,211239,1,0,0:0:0:0:
402,192,211239,1,0,0:0:0:0:
109,192,211395,1,0,0:0:0:0:
256,192,211395,1,0,0:0:0:0:
182,192,211552,128,0,211864:0:0:0:0:
36,192,211552,1,0,0:0:0:0:
402,192,211552,1,0,0:0:0:0:
329,192,211708,1,0,0:0:0:0:
36,192,211864,128,0,212645:0:0:0:0:
402,192,211864,1,0,0:0:0:0:
256,192,211864,128,0,212020:0:0:0:0:
182,192,212020,128,0,212177:0:0:0:0:
475,192,212177,1,0,0:0:0:0:
329,192,212177,128,0,212333:0:0:0:0:
109,192,212333,128,0,212489:0:0:0:0:
182,192,212489,1,0,0:0:0:0:
329,192,212489,1,0,0:0:0:0:
402,192,212489,128,0,212645:0:0:0:0:
256,192,212645,128,0,212802:0:0:0:0:
475,192,212802,1,0,0:0:0:0:
182,192,212802,1,0,0:0:0:0:
402,192,212802,128,0,213583:0:0:0:0:
109,192,212802,1,0,0:0:0:0:
36,192,212802,128,0,213895:0:0:0:0:
182,192,213270,128,0,213427:0:0:0:0:
475,192,213427,128,0,213583:0:0:0:0:
109,192,213427,128,0,213583:0:0:0:0:
256,192,213427,128,0,213583:0:0:0:0:
475,192,213739,128,0,213895:0:0:0:0:
109,192,213739,1,0,0:0:0:0:
182,192,213739,128,0,213895:0:0:0:0:
329,192,213739,128,0,213895:0:0:0:0:
36,192,214052,128,0,214208:0:0:0:0:
475,192,214052,1,0,0:0:0:0:
182,192,214052,128,0,214208:0:0:0:0:
402,192,214052,128,0,214208:0:0:0:0:
329,192,214052,128,0,214208:0:0:0:0:
256,192,214208,1,0,0:0:0:0:
475,192,214364,128,0,214677:0:0:0:0:
182,192,214364,1,0,0:0:0:0:
109,192,214364,128,0,214677:0:0:0:0:
329,192,214364,128,0,214677:0:0:0:0:
36,192,214677,128,0,215302:0:0:0:0:
256,192,214677,1,0,0:0:0:0:
182,192,214677,1,0,0:0:0:0:
402,192,214677,128,0,214989:0:0:0:0:
329,192,214833,128,0,215145:0:0:0:0:
109,192,214989,1,0,0:0:0:0:
256,192,214989,128,0,215302:0:0:0:0:
475,192,215145,1,0,0:0:0:0:
402,192,215145,1,0,0:0:0:0:
182,192,215145,128,0,215458:0:0:0:0:
329,192,215302,1,0,0:0:0:0:
109,192,215302,128,0,215614:0:0:0:0:
475,192,215458,1,0,0:0:0:0:
36,192,215458,128,0,215770:0:0:0:0:
182,192,215614,1,0,0:0:0:0:
402,192,215614,128,0,215770:0:0:0:0:
256,192,215614,1,0,0:0:0:0:
329,192,215770,128,0,215927:0:0:0:0:
475,192,215927,1,0,0:0:0:0:
109,192,215927,1,0,0:0:0:0:
256,192,215927,128,0,216083:0:0:0:0:
182,192,216083,128,0,216239:0:0:0:0:
402,192,216083,1,0,0:0:0:0:
475,192,216239,1,0,0:0:0:0:
329,192,216239,1,0,0:0:0:0:
109,192,216239,128,0,216395:0:0:0:0:
36,192,216395,128,0,216552:0:0:0:0:
256,192,216395,1,0,0:0:0:0:
402,192,216552,128,0,217333:0:0:0:0:
475,192,216552,1,0,0:0:0:0:
182,192,216552,1,0,0:0:0:0:
329,192,216552,1,0,0:0:0:0:
109,192,216552,128,0,217333:0:0:0:0:
329,192,216864,1,0,0:0:0:0:
475,192,216864,1,0,0:0:0:0:
36,192,216864,1,0,0:0:0:0:
256,192,217020,128,0,217177:0:0:0:0:
36,192,217177,128,0,217333:0:0:0:0:
329,192,217177,1,0,0:0:0:0:
182,192,217177,128,0,217333:0:0:0:0:
475,192,217177,128,0,217333:0:0:0:0:
36,192,217489,128,0,218270:0:0:0:0:
402,192,217489,128,0,217645:0:0:0:0:
475,192,217489,128,0,218270:0:0:0:0:
329,192,217489,128,0,217645:0:0:0:0:
109,192,217489,128,0,217645:0:0:0:0:
256,192,217489,128,0,218270:0:0:0:0:
402,192,217802,128,0,217958:0:0:0:0:
182,192,217802,128,0,217958:0:0:0:0:
109,192,217802,128,0,217958:0:0:0:0:
109,192,218114,128,0,218270:0:0:0:0:
402,192,218114,128,0,218270:0:0:0:0:
329,192,218114,128,0,218270:0:0:0:0:
182,192,218114,128,0,218270:0:0:0:0:
36,192,218427,1,0,0:0:0:0:
402,192,218427,1,0,0:0:0:0:
475,192,218427,128,0,219052:0:0:0:0:
182,192,218427,128,0,218739:0:0:0:0:
329,192,218427,128,0,218739:0:0:0:0:
402,192,218739,1,0,0:0:0:0:
36,192,218739,1,0,0:0:0:0:
109,192,218739,128,0,219052:0:0:0:0:
256,192,218895,1,0,0:0:0:0:
182,192,219052,1,0,0:0:0:0:
36,192,219052,1,0,0:0:0:0:
402,192,219052,1,0,0:0:0:0:
329,192,219052,1,0,0:0:0:0:
36,192,219208,128,0,219364:0:0:0:0:
256,192,219208,1,0,0:0:0:0:
402,192,219364,1,0,0:0:0:0:
475,192,219364,1,0,0:0:0:0:
329,192,219364,128,0,219677:0:0:0:0:
182,192,219364,128,0,219677:0:0:0:0:
109,192,219520,128,0,219677:0:0:0:0:
36,192,219677,1,0,0:0:0:0:
475,192,219677,1,0,0:0:0:0:
256,192,219677,128,0,219989:0:0:0:0:
402,192,219677,128,0,219989:0:0:0:0:
182,192,219833,128,0,219989:0:0:0:0:
329,192,219989,1,0,0:0:0:0:
475,192,219989,1,0,0:0:0:0:
109,192,219989,128,0,220302:0:0:0:0:
36,192,219989,128,0,220302:0:0:0:0:
256,192,220145,128,0,220302:0:0:0:0:
329,192,220302,128,0,220458:0:0:0:0:
182,192,220302,1,0,0:0:0:0:
475,192,220302,1,0,0:0:0:0:
109,192,220458,1,0,0:0:0:0:
402,192,220458,128,0,220614:0:0:0:0:
36,192,220614,1,0,0:0:0:0:
256,192,220614,1,0,0:0:0:0:
475,192,220614,128,0,220770:0:0:0:0:
109,192,220770,1,0,0:0:0:0:
402,192,220770,128,0,220927:0:0:0:0:
36,192,220927,1,0,0:0:0:0:
329,192,220927,1,0,0:0:0:0:
475,192,220927,128,0,221239:0:0:0:0:
182,192,220927,1,0,0:0:0:0:
329,192,221239,1,0,0:0:0:0:
109,192,221239,1,0,0:0:0:0:
182,192,221239,128,0,221395:0:0:0:0:
36,192,221239,1,0,0:0:0:0:
402,192,221395,1,0,0:0:0:0:
256,192,221395,128,0,221552:0:0:0:0:
36,192,221552,1,0,0:0:0:0:
475,192,221552,1,0,0:0:0:0:
329,192,221552,128,0,221708:0:0:0:0:
109,192,221708,1,0,0:0:0:0:
256,192,221708,128,0,221864:0:0:0:0:
36,192,221864,1,0,0:0:0:0:
475,192,221864,1,0,0:0:0:0:
329,192,221864,128,0,222177:0:0:0:0:
182,192,221864,1,0,0:0:0:0:
475,192,222177,1,0,0:0:0:0:
182,192,222177,1,0,0:0:0:0:
36,192,222177,128,0,222333:0:0:0:0:
402,192,222177,1,0,0:0:0:0:
329,192,222333,1,0,0:0:0:0:
109,192,222333,128,0,222489:0:0:0:0:
475,192,222489,1,0,0:0:0:0:
256,192,222489,1,0,0:0:0:0:
182,192,222489,128,0,222645:0:0:0:0:
402,192,222645,1,0,0:0:0:0:
109,192,222645,128,0,222802:0:0:0:0:
36,192,222802,1,0,0:0:0:0:
329,192,222802,1,0,0:0:0:0:
182,192,222802,128,0,223114:0:0:0:0:
475,192,222802,1,0,0:0:0:0:
256,192,222958,1,0,0:0:0:0:
402,192,222958,1,0,0:0:0:0:
36,192,223114,128,0,223270:0:0:0:0:
109,192,223114,128,0,223270:0:0:0:0:
329,192,223114,128,0,223270:0:0:0:0:
475,192,223114,128,0,223270:0:0:0:0:
475,192,223427,128,0,223583:0:0:0:0:
329,192,223427,128,0,223583:0:0:0:0:
36,192,223427,128,0,223583:0:0:0:0:
182,192,223427,128,0,223583:0:0:0:0:
36,192,223739,128,0,223895:0:0:0:0:
402,192,223739,128,0,223895:0:0:0:0:
109,192,223739,128,0,223895:0:0:0:0:
256,192,223739,128,0,223895:0:0:0:0:
475,192,224052,1,0,0:0:0:0:
256,192,224052,1,0,0:0:0:0:
182,192,224052,1,0,0:0:0:0:
329,192,224052,128,0,224208:0:0:0:0:
36,192,224052,1,0,0:0:0:0:
109,192,224208,1,0,0:0:0:0:
402,192,224208,128,0,224364:0:0:0:0:
36,192,224364,1,0,0:0:0:0:
256,192,224364,1,0,0:0:0:0:
475,192,224364,128,0,224520:0:0:0:0:
329,192,224520,128,0,224677:0:0:0:0:
182,192,224520,1,0,0:0:0:0:
36,192,224677,1,0,0:0:0:0:
109,192,224677,1,0,0:0:0:0:
475,192,224677,128,0,224989:0:0:0:0:
256,192,224677,1,0,0:0:0:0:
329,192,224989,1,0,0:0:0:0:
36,192,224989,1,0,0:0:0:0:
182,192,224989,128,0,225145:0:0:0:0:
109,192,224989,1,0,0:0:0:0:
402,192,225145,1,0,0:0:0:0:
256,192,225145,128,0,225302:0:0:0:0:
475,192,225302,1,0,0:0:0:0:
36,192,225302,1,0,0:0:0:0:
329,192,225302,128,0,225458:0:0:0:0:
109,192,225458,1,0,0:0:0:0:
182,192,225458,128,0,225614:0:0:0:0:
36,192,225614,1,0,0:0:0:0:
475,192,225614,1,0,0:0:0:0:
329,192,225614,128,0,225927:0:0:0:0:
256,192,225614,1,0,0:0:0:0:
402,192,225927,1,0,0:0:0:0:
182,192,225927,1,0,0:0:0:0:
36,192,225927,128,0,226083:0:0:0:0:
475,192,225927,1,0,0:0:0:0:
329,192,226083,1,0,0:0:0:0:
109,192,226083,128,0,226239:0:0:0:0:
475,192,226239,1,0,0:0:0:0:
256,192,226239,1,0,0:0:0:0:
182,192,226239,128,0,226395:0:0:0:0:
402,192,226395,1,0,0:0:0:0:
36,192,226395,128,0,226552:0:0:0:0:
475,192,226552,1,0,0:0:0:0:
109,192,226552,1,0,0:0:0:0:
182,192,226552,128,0,226864:0:0:0:0:
329,192,226552,1,0,0:0:0:0:
256,192,226708,1,0,0:0:0:0:
36,192,226864,1,0,0:0:0:0:
475,192,226864,1,0,0:0:0:0:
402,192,226864,128,0,227020:0:0:0:0:
109,192,226864,1,0,0:0:0:0:
329,192,227020,128,0,227177:0:0:0:0:
182,192,227020,1,0,0:0:0:0:
475,192,227177,1,0,0:0:0:0:
36,192,227177,1,0,0:0:0:0:
109,192,227177,128,0,227333:0:0:0:0:
402,192,227333,1,0,0:0:0:0:
182,192,227333,128,0,227489:0:0:0:0:
36,192,227489,1,0,0:0:0:0:
329,192,227489,128,0,227645:0:0:0:0:
109,192,227645,1,0,0:0:0:0:
256,192,227645,128,0,227802:0:0:0:0:
36,192,227802,128,0,228739:0:0:0:0:
182,192,227802,128,0,228739:0:0:0:0:
475,192,227802,1,0,0:0:0:0:
402,192,227802,1,0,0:0:0:0:
329,192,227802,1,0,0:0:0:0:
329,192,228739,128,0,229052:0:0:0:0:
475,192,228739,128,0,229677:0:0:0:0:
109,192,229052,128,0,229364:0:0:0:0:
256,192,229364,128,0,229677:0:0:0:0:
182,192,229677,128,0,230302:0:0:0:0:
36,192,229677,128,0,230302:0:0:0:0:
402,192,229677,128,0,230302:0:0:0:0:
109,192,230302,128,0,230614:0:0:0:0:
256,192,230458,128,0,230614:0:0:0:0:
329,192,230614,128,0,231552:0:0:0:0:
475,192,230614,128,0,231552:0:0:0:0:
182,192,230614,128,0,231552:0:0:0:0:
36,192,231239,128,0,231552:0:0:0:0:
256,192,231552,128,0,232177:0:0:0:0:
402,192,231552,128,0,232177:0:0:0:0:
109,192,231552,128,0,232177:0:0:0:0:
36,192,232177,128,0,232489:0:0:0:0:
182,192,232333,128,0,232489:0:0:0:0:
329,192,232489,128,0,233114:0:0:0:0:
475,192,232489,128,0,233114:0:0:0:0:
109,192,232489,128,0,233114:0:0:0:0:
256,192,233114,128,0,233270:0:0:0:0:
36,192,233427,128,0,234052:0:0:0:0:
256,192,233427,128,0,234052:0:0:0:0:
402,192,233427,128,0,234052:0:0:0:0:
109,192,234052,128,0,234364:0:0:0:0:
329,192,234052,128,0,234208:0:0:0:0:
475,192,234208,128,0,234364:0:0:0:0:
36,192,234364,128,0,235145:0:0:0:0:
182,192,234364,128,0,235145:0:0:0:0:
329,192,234364,128,0,234833:0:0:0:0:
475,192,234677,128,0,235302:0:0:0:0:
329,192,234989,128,0,235302:0:0:0:0:
36,192,235302,128,0,235927:0:0:0:0:
182,192,235302,128,0,235927:0:0:0:0:
402,192,235302,128,0,235927:0:0:0:0:
475,192,235927,128,0,236239:0:0:0:0:
256,192,236083,128,0,236239:0:0:0:0:
182,192,236239,128,0,236864:0:0:0:0:
36,192,236239,128,0,236864:0:0:0:0:
402,192,236239,128,0,236395:0:0:0:0:
329,192,236395,128,0,236552:0:0:0:0:
256,192,236552,128,0,236708:0:0:0:0:
475,192,236552,128,0,236864:0:0:0:0:
402,192,236708,128,0,236864:0:0:0:0:
329,192,236864,128,0,237020:0:0:0:0:
182,192,237020,128,0,237177:0:0:0:0:
109,192,237177,128,0,237802:0:0:0:0:
256,192,237177,128,0,237802:0:0:0:0:
402,192,237177,128,0,237802:0:0:0:0:
182,192,237802,128,0,238114:0:0:0:0:
329,192,237958,128,0,238114:0:0:0:0:
36,192,238114,128,0,238739:0:0:0:0:
475,192,238114,128,0,238427:0:0:0:0:
109,192,238114,128,0,238739:0:0:0:0:
182,192,238427,128,0,238739:0:0:0:0:
329,192,238427,128,0,238739:0:0:0:0:
475,192,238583,128,0,239052:0:0:0:0:
256,192,238739,128,0,239052:0:0:0:0:
402,192,238895,128,0,239052:0:0:0:0:
109,192,239052,128,0,239677:0:0:0:0:
329,192,239052,128,0,239364:0:0:0:0:
36,192,239052,128,0,239677:0:0:0:0:
182,192,239364,128,0,239677:0:0:0:0:
402,192,239364,128,0,239677:0:0:0:0:
475,192,239520,128,0,239989:0:0:0:0:
256,192,239677,128,0,239989:0:0:0:0:
329,192,239833,128,0,239989:0:0:0:0:
36,192,239989,128,0,240614:0:0:0:0:
182,192,239989,128,0,240614:0:0:0:0:
402,192,239989,128,0,240302:0:0:0:0:
329,192,240302,128,0,240614:0:0:0:0:
475,192,240458,128,0,240927:0:0:0:0:
109,192,240614,128,0,240927:0:0:0:0:
256,192,240770,128,0,240927:0:0:0:0:
182,192,240927,128,0,241552:0:0:0:0:
36,192,240927,128,0,241552:0:0:0:0:
402,192,240927,128,0,241552:0:0:0:0:
329,192,241552,128,0,241864:0:0:0:0:
475,192,241552,128,0,241864:0:0:0:0:
182,192,241864,128,0,242645:0:0:0:0:
402,192,241864,128,0,242177:0:0:0:0:
36,192,241864,128,0,242645:0:0:0:0:
329,192,242177,128,0,242333:0:0:0:0:
475,192,242333,128,0,242489:0:0:0:0:
256,192,242489,128,0,242645:0:0:0:0:
402,192,242645,128,0,242802:0:0:0:0:
329,192,242802,128,0,243114:0:0:0:0:
36,192,242802,128,0,243427:0:0:0:0:
109,192,242802,128,0,243427:0:0:0:0:
475,192,243114,128,0,243427:0:0:0:0:
256,192,243114,128,0,243427:0:0:0:0:
182,192,243427,128,0,243739:0:0:0:0:
402,192,243427,128,0,243739:0:0:0:0:
109,192,243739,128,0,244052:0:0:0:0:
256,192,243739,128,0,244052:0:0:0:0:
329,192,244052,128,0,244364:0:0:0:0:
182,192,244052,128,0,244364:0:0:0:0:
256,192,244364,128,0,244677:0:0:0:0:
402,192,244364,128,0,244677:0:0:0:0:
182,192,244677,128,0,245614:0:0:0:0:
36,192,244677,128,0,245614:0:0:0:0:
109,192,244677,128,0,245614:0:0:0:0:
329,192,244677,1,0,0:0:0:0:
475,192,244677,1,0,0:0:0:0:
329,192,245302,128,0,245614:0:0:0:0:
475,192,245302,128,0,245614:0:0:0:0:
256,192,245614,128,0,246552:0:0:0:0:
402,192,245614,128,0,246552:0:0:0:0:
36,192,245927,128,0,246083:0:0:0:0:
109,192,246083,128,0,246239:0:0:0:0:
182,192,246239,128,0,246395:0:0:0:0:
109,192,246395,128,0,246552:0:0:0:0:
36,192,246552,128,0,247177:0:0:0:0:
329,192,246552,128,0,246708:0:0:0:0:
475,192,246552,128,0,246708:0:0:0:0:
256,192,246708,128,0,246864:0:0:0:0:
182,192,246864,128,0,247020:0:0:0:0:
329,192,247020,128,0,247177:0:0:0:0:
256,192,247177,128,0,247489:0:0:0:0:
402,192,247177,128,0,247489:0:0:0:0:
109,192,247333,128,0,247489:0:0:0:0:
329,192,247489,128,0,247802:0:0:0:0:
475,192,247489,128,0,247802:0:0:0:0:
182,192,247489,128,0,247802:0:0:0:0:
36,192,247645,128,0,247802:0:0:0:0:
109,192,247802,128,0,248114:0:0:0:0:
256,192,247802,128,0,248114:0:0:0:0:
402,192,247802,128,0,248114:0:0:0:0:
36,192,247958,128,0,248114:0:0:0:0:
182,192,248114,128,0,248466:0:0:0:0:
329,192,248114,128,0,248466:0:0:0:0:
475,192,248114,128,0,248466:0:0:0:0:
36,192,248270,128,0,248466:0:0:0:0:
109,192,248466,128,0,249403:0:0:0:0:
402,192,248466,128,0,249403:0:0:0:0:
256,192,248466,128,0,249403:0:0:0:0:
329,192,248817,128,0,249403:0:0:0:0:
182,192,249208,128,0,249403:0:0:0:0:
109,192,249559,128,0,250497:0:0:0:0:
256,192,249559,128,0,250497:0:0:0:0:
402,192,249559,128,0,250497:0:0:0:0:
329,192,249911,128,0,250497:0:0:0:0:
182,192,250262,128,0,250497:0:0:0:0:
109,192,250653,128,0,251708:0:0:0:0:
256,192,250653,128,0,251708:0:0:0:0:
402,192,250653,128,0,251708:0:0:0:0:
329,192,251005,128,0,251708:0:0:0:0:
182,192,251434,128,0,251708:0:0:0:0:
109,192,251864,128,0,253927:0:0:0:0:
402,192,251864,128,0,253927:0:0:0:0:
256,192,251864,128,0,253052:0:0:0:0:
329,192,252333,128,0,253927:0:0:0:0:
182,192,253052,128,0,253927:0:0:0:0:
475,192,253927,128,0,260302:0:0:0:0:
36,192,253927,128,0,260302:0:0:0:0:
256,192,253927,128,0,260302:0:0:0:0:
