osu file format v14

[General]
AudioFilename: audio.mp3
AudioLeadIn: 0
PreviewTime: 54937
Countdown: 0
SampleSet: Soft
StackLeniency: 0.7
Mode: 0
LetterboxInBreaks: 0
WidescreenStoryboard: 0

[Editor]
DistanceSpacing: 1.1
BeatDivisor: 12
GridSize: 16
TimelineZoom: 1.9

[Metadata]
Title:Brightly horizon
TitleUnicode:Brightly horizon
Artist:Nakae Mitsuki
ArtistUnicode:中恵光城
Creator:Hanazawa Kana
Version:Bravery
Source:封緘のグラセスタ
Tags:ふうかんのぐらせすた エウシュリー 松長暁生 NAMBO from STRIKERS Eushully Asuka_- Present -ClariS- TT_Mouse
BeatmapID:1971289
BeatmapSetID:943927

[Difficulty]
HPDrainRate:5
CircleSize:4
OverallDifficulty:8
ApproachRate:9
SliderMultiplier:1.6
SliderTickRate:1

[Events]
//Background and Video events
0,0,"bg.jpg",0,0
//Break Periods
//Storyboard Layer 0 (Background)
//Storyboard Layer 1 (Fail)
//Storyboard Layer 2 (Pass)
//Storyboard Layer 3 (Foreground)
//Storyboard Sound Samples

[TimingPoints]
668,1011.23601186719,2,2,1,60,1,0
668,-33.3333333333333,2,2,1,60,0,0
16847,-66.6666666666667,3,2,1,40,0,0
18533,-66.6666666666667,3,2,2,40,0,0
18870,-66.6666666666667,3,2,1,40,0,0
19038,-66.6666666666667,3,2,1,30,0,0
19207,-66.6666666666667,3,2,1,40,0,0
20892,-66.6666666666667,3,2,2,40,0,0
21566,-47.6190476190476,3,2,2,40,0,0
22915,-47.6190476190476,3,2,3,40,0,0
23589,-47.6190476190476,3,2,2,40,0,0
24937,-47.6190476190476,3,2,4,40,0,0
25948,-47.6190476190476,3,2,5,40,0,0
27971,-47.6190476190476,3,2,8,40,0,0
28982,-47.6190476190476,3,2,2,40,0,0
31005,-47.6190476190476,3,2,3,40,0,0
31679,-47.6190476190476,3,2,2,40,0,0
33027,-47.6190476190476,3,2,4,40,0,0
34038,-47.6190476190476,3,2,9,40,0,0
35050,-47.6190476190476,3,2,2,40,0,0
35387,-47.6190476190476,3,2,1,40,0,0
37072,-37.037037037037,3,2,1,60,0,0
53252,-111.111111111111,3,2,1,60,0,0
54179,-111.111111111111,3,2,1,5,0,0
54263,-33.3333333333333,3,2,1,60,0,0
55274,-33.3333333333333,3,2,10,70,0,1
55611,-33.3333333333333,3,2,1,70,0,1
71454,-33.3333333333333,3,2,10,70,0,1
71791,-33.3333333333333,3,2,1,70,0,1
83926,-33.3333333333333,3,2,1,60,0,1
86875,-33.3333333333333,3,2,1,5,0,1
86960,-33.3333333333333,3,2,1,60,0,1
87634,-33.3333333333333,3,2,1,60,0,0
105836,-66.6666666666667,3,2,1,60,0,0
106510,-66.6666666666667,3,2,6,50,0,0
106847,-66.6666666666667,3,2,7,50,0,0
107521,-66.6666666666667,3,2,6,50,0,0
107859,-66.6666666666667,3,2,7,50,0,0
108533,-66.6666666666667,3,2,6,50,0,0
108870,-66.6666666666667,3,2,7,65,0,0

[Colours]
Combo1 : 242,249,128
Combo2 : 249,155,244
Combo3 : 115,194,253
Combo4 : 243,50,79

[HitObjects]
116,144,668,6,0,P|176:130|228:207,1,160,6|0,0:0|0:0,0:0:0:0:
53,199,1173,1,0,0:0:0:0:
18,121,1342,2,0,P|74:118|113:136,1,80,2|0,0:0|0:0,0:0:0:0:
186,272,1679,2,0,P|128:264|107:244,1,80,8|0,0:0|0:0,0:0:0:0:
242,54,2016,2,0,P|230:100|208:134,1,80
0,255,2353,2,0,P|21:219|64:195,1,80,2|0,0:0|0:0,0:0:0:0:
139,218,2690,6,0,P|188:223|219:329,1,160,2|0,0:0|0:0,0:0:0:0:
384,195,3196,1,0,0:0:0:0:
313,345,3364,2,0,P|267:330|208:309,1,80,2|0,0:0|0:0,0:0:0:0:
495,284,3701,1,8,0:0:0:0:
495,284,4038,5,2,0:0:0:0:
484,378,4207,1,8,0:0:0:0:
384,195,4375,1,2,0:0:0:0:
400,287,4544,1,8,0:0:0:0:
512,105,4712,6,0,P|471:140|432:129,1,80,6|0,0:0|0:0,0:0:0:0:
400,287,5050,2,0,P|349:268|339:229,1,80
185,325,5387,2,0,P|175:271|204:243,1,80,2|0,0:0|0:0,0:0:0:0:
330,83,5724,2,0,L|157:120,1,160,8|0,0:0|0:0,0:0:0:0:
59,52,6229,1,0,0:0:0:0:
188,253,6398,2,0,P|136:232|95:230,1,80,2|0,0:0|0:0,0:0:0:0:
0,308,6735,6,0,P|32:254|142:258,1,160,2|0,0:0|0:0,0:0:0:0:
193,298,7241,1,0,0:0:0:0:
333,288,7409,2,0,P|377:272|413:258,1,80,2|0,0:0|0:0,0:0:0:0:
193,298,7746,5,8,0:0:0:0:
254,349,7915,1,2,0:0:0:0:
200,288,8083,5,8,0:0:0:0:
261,339,8252,1,2,0:0:0:0:
210,280,8420,5,8,0:0:0:0:
266,336,8589,1,2,0:0:0:0:
457,271,8757,2,0,P|435:216|331:209,1,160,6|0,0:0|0:0,0:0:0:0:
291,257,9263,1,0,0:0:0:0:
448,300,9432,2,0,P|440:253|400:226,1,80,2|0,0:0|0:0,0:0:0:0:
261,135,9769,6,0,L|426:103,1,160,8|0,0:0|0:0,0:0:0:0:
476,47,10274,1,0,0:0:0:0:
231,115,10443,2,0,L|318:129,1,80,2|0,0:0|0:0,0:0:0:0:
127,200,10780,2,0,L|44:218,1,80,2|0,0:0|0:0,0:0:0:0:
216,141,11117,5,0,0:0:0:0:
262,220,11285,1,0,0:0:0:0:
203,146,11454,5,2,0:0:0:0:
187,318,11623,1,0,0:0:0:0:
264,237,11791,2,0,L|352:226,1,80,8|0,0:0|0:0,0:0:0:0:
398,297,12128,2,0,L|304:308,1,80,2|0,0:0|0:0,0:0:0:0:
297,157,12465,2,0,L|388:147,1,80,2|0,0:0|0:0,0:0:0:0:
163,265,12802,5,6,0:0:0:0:
245,233,12971,1,0,0:0:0:0:
151,259,13139,5,0,0:0:0:0:
233,227,13308,1,0,0:0:0:0:
139,254,13476,5,2,0:0:0:0:
221,222,13645,1,0,0:0:0:0:
302,189,13814,2,0,L|297:292,1,80,8|0,0:0|0:0,0:0:0:0:
139,254,14151,2,0,L|142:174,1,80
221,222,14488,2,0,L|216:325,1,80,2|0,0:0|0:0,0:0:0:0:
397,356,14825,6,0,L|482:334,1,80,6|0,0:0|0:0,0:0:0:0:
475,186,15162,2,0,L|397:206,1,80
300,147,15499,5,2,0:0:0:0:
348,280,15667,1,0,0:0:0:0:
413,127,15836,2,0,L|392:229,1,80,6|0,0:0|0:0,0:0:0:0:
278,365,16173,2,0,L|261:286,1,80,8|0,0:0|0:0,0:0:0:0:
167,128,16510,1,8,0:0:0:0:
182,220,16679,1,2,0:0:0:0:
389,50,16847,6,0,P|499:20|412:112,1,320,6|0,0:0|0:0,0:0:0:0:
393,74,18533,6,0,L|407:124,1,40,2|0,0:0|0:0,0:0:0:0:
409,269,18870,5,2,0:0:0:0:
480,219,19038,2,0,L|507:224,2,20,8|8|8,0:0|0:0|0:0,0:0:0:0:
355,185,19375,1,8,0:0:0:0:
395,273,19544,1,2,0:0:0:0:
478,229,19712,1,2,0:0:0:0:
436,149,19881,1,8,0:0:0:0:
94,83,20892,6,0,B|137:126|137:126|200:112,1,120,14|0,0:0|0:0,0:0:0:0:
275,99,21566,6,0,L|257:174,1,55.9999982910157,2|0,0:0|0:0,0:0:0:0:
246,240,21903,6,0,L|198:205,1,55.9999982910157,2|0,0:0|0:0,0:0:0:0:
126,218,22241,2,0,L|185:204,1,55.9999982910157,2|0,0:0|0:0,0:0:0:0:
184,135,22578,2,0,L|193:207,1,55.9999982910157,2|0,0:0|0:0,0:0:0:0:
208,358,22915,5,6,0:0:0:0:
208,358,23589,6,0,L|268:340,1,55.9999982910157,2|0,0:0|0:0,0:0:0:0:
425,307,23926,6,0,L|362:286,1,55.9999982910157,2|0,0:0|0:0,0:0:0:0:
342,296,24263,2,0,L|362:355,1,55.9999982910157,2|0,0:0|0:0,0:0:0:0:
386,369,24600,2,0,L|426:315,1,55.9999982910157,2|0,0:0|0:0,0:0:0:0:
414,167,24937,6,0,L|431:236,1,55.9999982910157,6|0,0:0|0:0,0:0:0:0:
504,208,25274,2,0,L|490:153,1,55.9999982910157,2|0,0:0|0:0,0:0:0:0:
405,170,25611,2,0,L|422:239,1,55.9999982910157,2|0,0:0|0:0,0:0:0:0:
491,34,25948,5,6,0:0:0:0:
491,34,26623,6,0,L|425:24,1,55.9999982910157,2|0,0:0|0:0,0:0:0:0:
233,78,26960,6,0,L|297:97,1,55.9999982910157,6|0,0:0|0:0,0:0:0:0:
232,158,27297,2,0,L|204:90,1,55.9999982910157,2|0,0:0|0:0,0:0:0:0:
300,117,27634,2,0,L|254:169,1,55.9999982910157,2|0,0:0|0:0,0:0:0:0:
123,263,27971,6,0,L|51:247,1,55.9999982910157,6|0,0:0|0:0,0:0:0:0:
52,166,28308,2,0,L|106:178,1,55.9999982910157,2|0,0:0|0:0,0:0:0:0:
125,275,28645,2,0,L|53:259,1,55.9999982910157,2|0,0:0|0:0,0:0:0:0:
4,85,28982,5,6,0:0:0:0:
4,85,29656,6,0,L|70:72,1,55.9999982910157,2|0,0:0|0:0,0:0:0:0:
268,180,29993,6,0,L|201:157,1,55.9999982910157,2|0,0:0|0:0,0:0:0:0:
157,108,30330,2,0,L|208:63,1,55.9999982910157,2|0,0:0|0:0,0:0:0:0:
271,42,30667,2,0,L|284:103,1,55.9999982910157,2|0,0:0|0:0,0:0:0:0:
319,304,31005,5,6,0:0:0:0:
319,304,31679,6,0,L|336:245,1,55.9999982910157,2|0,0:0|0:0,0:0:0:0:
384,57,32016,6,0,L|401:120,1,55.9999982910157,2|0,0:0|0:0,0:0:0:0:
511,69,32353,2,0,L|446:34,1,55.9999982910157,2|0,0:0|0:0,0:0:0:0:
438,177,32690,2,0,L|486:130,1,55.9999982910157,2|0,0:0|0:0,0:0:0:0:
281,233,33027,6,0,L|348:254,1,55.9999982910157,6|0,0:0|0:0,0:0:0:0:
397,337,33364,2,0,L|460:313,1,55.9999982910157,2|0,0:0|0:0,0:0:0:0:
281,243,33701,2,0,L|348:264,1,55.9999982910157,2|0,0:0|0:0,0:0:0:0:
160,344,34038,6,0,L|227:323,1,55.9999982910157,6|0,0:0|0:0,0:0:0:0:
28,226,34375,2,0,L|100:255,1,55.9999982910157,2|0,0:0|0:0,0:0:0:0:
152,338,34712,2,0,L|219:317,1,55.9999982910157,2|0,0:0|0:0,0:0:0:0:
0,384,35050,5,6,0:0:0:0:
0,384,35387,5,8,0:0:0:0:
0,384,35555,1,2,0:0:0:0:
152,338,35724,1,8,0:0:0:0:
152,338,35892,1,0,0:0:0:0:
0,298,36061,5,12,0:0:0:0:
229,237,36398,1,2,0:0:0:0:
74,119,36735,2,0,L|76:182,1,55.9999982910157,8|2,0:0|0:0,0:0:0:0:
305,200,37072,6,0,P|247:157|165:181,1,143.999995605469,2|0,0:0|0:0,0:0:0:0:
129,247,37578,1,0,0:0:0:0:
193,177,37746,2,0,L|194:100,1,71.9999978027344,2|0,0:0|0:0,0:0:0:0:
405,239,38083,6,0,P|352:247|297:333,1,143.999995605469,8|2,0:0|0:0,0:0:0:0:
216,277,38589,1,0,0:0:0:0:
308,336,38757,2,0,L|299:247,1,71.9999978027344,2|0,0:0|0:0,0:0:0:0:
437,130,39094,6,0,P|420:183|467:275,1,143.999995605469,2|0,0:0|0:0,0:0:0:0:
418,345,39600,1,0,0:0:0:0:
476,271,39769,2,0,L|397:260,1,71.9999978027344,2|0,0:0|0:0,0:0:0:0:
298,85,40106,6,0,P|342:122|429:112,1,143.999995605469,8|0,0:0|0:0,0:0:0:0:
493,51,40611,1,0,0:0:0:0:
271,44,40780,6,0,L|280:127,1,71.9999978027344,2|0,0:0|0:0,0:0:0:0:
404,261,41117,2,0,P|344:215|259:238,1,143.999995605469,2|0,0:0|0:0,0:0:0:0:
207,177,41623,1,0,0:0:0:0:
420,298,41791,6,0,L|434:214,1,71.9999978027344,2|0,0:0|0:0,0:0:0:0:
193,329,42128,2,0,P|246:345|327:291,1,143.999995605469,8|0,0:0|0:0,0:0:0:0:
338,215,42634,1,0,0:0:0:0:
163,290,42802,6,0,L|185:372,1,71.9999978027344,2|0,0:0|0:0,0:0:0:0:
236,140,43139,2,0,P|155:157|116:234,1,143.999995605469,2|0,0:0|0:0,0:0:0:0:
126,293,43645,1,0,0:0:0:0:
268,170,43814,6,0,L|243:101,1,71.9999978027344,2|0,0:0|0:0,0:0:0:0:
349,262,44151,1,8,0:0:0:0:
349,262,44488,5,8,0:0:0:0:
263,265,44656,1,2,0:0:0:0:
414,215,44825,1,8,0:0:0:0:
414,215,45162,6,0,L|384:363,1,143.999995605469,2|0,0:0|0:0,0:0:0:0:
392,86,45667,1,0,0:0:0:0:
386,171,45836,2,0,L|400:250,1,71.9999978027344,2|0,0:0|0:0,0:0:0:0:
489,109,46173,6,0,P|431:53|376:75,1,143.999995605469,8|0,0:0|0:0,0:0:0:0:
369,164,46679,1,0,0:0:0:0:
170,71,46847,6,0,L|247:51,1,71.9999978027344,2|0,0:0|0:0,0:0:0:0:
369,164,47184,2,0,L|204:133,1,143.999995605469,2|0,0:0|0:0,0:0:0:0:
149,79,47690,1,0,0:0:0:0:
221,154,47859,2,0,L|198:231,1,71.9999978027344,2|0,0:0|0:0,0:0:0:0:
46,48,48196,6,0,P|86:21|161:75,1,143.999995605469,8|0,0:0|0:0,0:0:0:0:
162,152,48701,1,0,0:0:0:0:
298,47,48870,5,2,0:0:0:0:
89,125,49038,1,0,0:0:0:0:
269,242,49207,2,0,L|257:156,1,71.9999978027344,2|0,0:0|0:0,0:0:0:0:
423,193,49544,2,0,L|399:285,1,71.9999978027344,2|0,0:0|0:0,0:0:0:0:
326,325,49881,1,2,0:0:0:0:
175,184,50218,6,0,L|185:256,1,71.9999978027344,2|0,0:0|0:0,0:0:0:0:
494,289,50555,2,0,L|512:219,1,71.9999978027344,2|0,0:0|0:0,0:0:0:0:
363,42,50892,1,8,0:0:0:0:
326,325,51229,5,2,0:0:0:0:
242,347,51398,1,0,0:0:0:0:
242,347,51482,1,0,0:0:0:0:
242,347,51566,1,8,0:0:0:0:
267,260,51735,1,2,0:0:0:0:
359,244,51903,1,8,0:0:0:0:
411,318,52072,1,2,0:0:0:0:
326,325,52241,5,2,0:0:0:0:
417,85,52578,1,2,0:0:0:0:
326,325,52915,1,2,0:0:0:0:
417,85,53252,6,0,P|445:62|431:112,1,131.99999597168,6|0,0:0|0:0,0:0:0:0:
412,105,54263,5,6,0:0:0:0:
455,240,54432,2,0,P|479:245|505:251,1,40
512,123,54600,1,8,0:0:0:0:
372,279,54769,1,8,0:0:0:0:
281,55,54937,5,12,0:0:0:0:
503,364,55106,1,2,0:0:0:0:
97,315,55274,2,0,P|125:239|154:146,1,160,14|0,0:0|0:0,0:0:0:0:
69,49,55780,1,0,0:0:0:0:
321,274,55948,6,0,P|368:263|399:249,1,80,2|0,0:0|0:0,0:0:0:0:
97,315,56285,2,0,P|146:336|262:348,1,160,8|0,0:0|0:0,0:0:0:0:
303,264,56791,1,0,0:0:0:0:
40,174,56960,6,0,P|27:214|12:262,1,80,2|0,0:0|0:0,0:0:0:0:
314,26,57297,2,0,P|330:75|341:192,1,160,2|0,0:0|0:0,0:0:0:0:
306,286,57802,1,0,0:0:0:0:
512,192,57971,2,0,P|463:171|424:158,1,80,2|0,0:0|0:0,0:0:0:0:
116,303,58308,5,12,0:0:0:0:
206,330,58476,1,0,0:0:0:0:
282,278,58645,1,2,0:0:0:0:
257,193,58814,1,0,0:0:0:0:
296,360,58982,6,0,P|348:339|400:323,1,80,2|0,0:0|0:0,0:0:0:0:
173,226,59319,2,0,P|113:209|-3:180,1,160,6|0,0:0|0:0,0:0:0:0:
140,97,59825,1,0,0:0:0:0:
46,284,59993,1,2,0:0:0:0:
147,354,60162,1,0,0:0:0:0:
270,205,60330,6,0,P|198:216|97:230,1,160,8|0,0:0|0:0,0:0:0:0:
161,120,60836,1,0,0:0:0:0:
171,344,61005,2,0,L|259:326,1,80,2|0,0:0|0:0,0:0:0:0:
347,116,61342,6,0,P|288:107|303:191,1,160,2|0,0:0|0:0,0:0:0:0:
451,88,61847,1,0,0:0:0:0:
400,228,62016,2,0,L|491:211,1,80,2|0,0:0|0:0,0:0:0:0:
171,344,62353,5,8,0:0:0:0:
240,281,62521,1,0,0:0:0:0:
194,201,62690,1,8,0:0:0:0:
106,204,62859,1,8,0:0:0:0:
151,341,63027,2,0,L|260:362,1,80,8|0,0:0|0:0,0:0:0:0:
499,222,63364,6,0,P|414:239|333:258,1,160,6|0,0:0|0:0,0:0:0:0:
325,346,63870,1,0,0:0:0:0:
426,272,64038,2,0,L|501:305,1,80,2|0,0:0|0:0,0:0:0:0:
289,167,64375,2,0,P|235:181|197:190,1,80,8|0,0:0|0:0,0:0:0:0:
419,88,64712,5,2,0:0:0:0:
493,124,64881,1,0,0:0:0:0:
315,26,65050,1,2,0:0:0:0:
232,64,65218,1,0,0:0:0:0:
508,45,65387,6,0,L|469:228,1,160,6|0,0:0|0:0,0:0:0:0:
491,300,65892,1,0,0:0:0:0:
254,211,66061,2,0,L|165:235,1,80,2|0,0:0|0:0,0:0:0:0:
491,300,66398,1,8,0:0:0:0:
361,357,66735,5,2,0:0:0:0:
405,281,66903,1,0,0:0:0:0:
491,300,67072,1,2,0:0:0:0:
258,248,67241,1,0,0:0:0:0:
449,99,67409,6,0,L|436:208,1,80,6|0,0:0|0:0,0:0:0:0:
273,166,67746,2,0,L|294:258,1,80
146,307,68083,2,0,L|188:385,1,80,2|0,0:0|0:0,0:0:0:0:
430,191,68420,6,0,P|395:154|348:145,1,80,8|0,0:0|0:0,0:0:0:0:
229,38,68757,2,0,P|179:49|148:86,1,80
12,116,69094,2,0,P|-2:164|13:210,1,80,2|0,0:0|0:0,0:0:0:0:
16,333,69432,1,2,0:0:0:0:
16,333,69769,5,2,0:0:0:0:
104,312,69937,1,0,0:0:0:0:
0,251,70106,1,2,0:0:0:0:
79,229,70274,2,0,L|133:235,1,40
16,333,70443,5,8,0:0:0:0:
249,277,70611,1,2,0:0:0:0:
79,229,70780,1,8,0:0:0:0:
346,351,70948,1,2,0:0:0:0:
5,351,71117,5,6,0:0:0:0:
387,189,71285,1,2,0:0:0:0:
50,71,71454,2,0,P|70:184|80:239,1,160,14|0,0:0|0:0,0:0:0:0:
100,317,71960,1,0,0:0:0:0:
283,152,72128,6,0,P|325:170|365:187,1,80,2|0,0:0|0:0,0:0:0:0:
151,298,72465,2,0,P|70:328|-18:353,1,160,8|0,0:0|0:0,0:0:0:0:
0,257,72971,1,0,0:0:0:0:
294,344,73139,6,0,P|276:286|268:251,1,80,2|0,0:0|0:0,0:0:0:0:
123,55,73476,2,0,P|103:121|74:218,1,160,2|0,0:0|0:0,0:0:0:0:
0,141,73982,1,0,0:0:0:0:
245,191,74151,2,0,L|339:175,1,80,2|0,0:0|0:0,0:0:0:0:
22,347,74488,5,8,0:0:0:0:
5,260,74656,1,2,0:0:0:0:
76,208,74825,1,2,0:0:0:0:
163,217,74993,1,0,0:0:0:0:
369,337,75162,2,0,L|271:307,1,80,2|0,0:0|0:0,0:0:0:0:
158,199,75499,6,0,P|79:226|-21:258,1,160,6|0,0:0|0:0,0:0:0:0:
0,164,76005,1,0,0:0:0:0:
215,272,76173,1,2,0:0:0:0:
185,350,76342,1,0,0:0:0:0:
313,219,76510,6,0,L|142:167,1,160,8|0,0:0|0:0,0:0:0:0:
194,98,77016,1,0,0:0:0:0:
361,300,77184,1,2,0:0:0:0:
313,367,77353,1,0,0:0:0:0:
458,165,77521,6,0,L|277:212,1,160,2|0,0:0|0:0,0:0:0:0:
310,117,78027,1,0,0:0:0:0:
495,270,78196,1,2,0:0:0:0:
468,358,78364,1,0,0:0:0:0:
310,117,78533,5,8,0:0:0:0:
380,168,78701,1,2,0:0:0:0:
372,255,78870,1,2,0:0:0:0:
293,293,79038,1,0,0:0:0:0:
227,127,79207,2,0,L|199:44,1,80,2|0,0:0|0:0,0:0:0:0:
38,350,79544,6,0,P|66:284|100:196,1,160,6|0,0:0|0:0,0:0:0:0:
57,126,80050,1,0,0:0:0:0:
293,241,80218,2,0,P|348:250|394:260,1,80,2|0,0:0|0:0,0:0:0:0:
462,67,80555,6,0,P|446:111|443:152,1,80,12|0,0:0|0:0,0:0:0:0:
253,158,80892,2,0,P|272:200|299:231,1,80
152,363,81229,2,0,P|196:379|237:382,1,80,2|0,0:0|0:0,0:0:0:0:
477,369,81566,1,2,0:0:0:0:
477,369,81903,5,0,0:0:0:0:
462,260,82072,1,0,0:0:0:0:
284,315,82241,2,0,L|390:329,1,80,2|0,0:0|0:0,0:0:0:0:
463,137,82578,1,8,0:0:0:0:
463,137,82915,5,2,0:0:0:0:
416,45,83083,1,0,0:0:0:0:
289,162,83252,5,2,0:0:0:0:
508,59,83420,1,0,0:0:0:0:
409,269,83589,1,6,0:0:0:0:
409,269,83926,5,8,0:0:0:0:
216,177,84094,1,2,0:0:0:0:
386,149,84263,1,8,0:0:0:0:
163,262,84432,1,2,0:0:0:0:
305,35,84600,5,8,0:0:0:0:
248,330,84769,1,2,0:0:0:0:
190,67,84937,1,8,0:0:0:0:
409,269,85106,1,2,0:0:0:0:
413,63,85274,1,8,0:0:0:0:
310,233,85443,1,2,0:0:0:0:
78,50,85611,5,6,0:0:0:0:
45,230,85780,1,2,0:0:0:0:
0,88,85948,1,2,0:0:0:0:
129,243,86117,1,2,0:0:0:0:
166,77,86285,1,2,0:0:0:0:
114,330,86454,1,2,0:0:0:0:
409,269,86623,6,0,P|395:217|378:142,1,120,6|0,0:0|0:0,0:0:0:0:
372,136,86960,1,8,0:0:0:0:
353,348,87128,1,2,0:0:0:0:
291,88,87297,1,8,0:0:0:0:
312,276,87465,1,2,0:0:0:0:
369,40,87634,1,6,0:0:0:0:
369,40,88139,5,8,0:0:0:0:
393,46,88308,1,2,0:0:0:0:
420,64,88476,1,2,0:0:0:0:
364,120,88645,1,8,0:0:0:0:
364,120,89319,5,8,0:0:0:0:
445,142,89488,1,2,0:0:0:0:
209,240,89656,2,0,L|302:218,1,80,6|0,0:0|0:0,0:0:0:0:
479,258,89993,1,0,0:0:0:0:
396,213,90162,1,8,0:0:0:0:
378,306,90330,1,2,0:0:0:0:
378,306,90667,6,0,L|397:391,1,80,8|0,0:0|0:0,0:0:0:0:
286,221,91005,2,0,L|264:305,1,80
186,71,91342,2,0,L|215:154,1,80,2|0,0:0|0:0,0:0:0:0:
447,80,91679,6,0,P|430:30|385:95,1,160,2|0,0:0|0:0,0:0:0:0:
419,168,92184,1,0,0:0:0:0:
332,209,92353,1,2,0:0:0:0:
244,169,92521,1,0,0:0:0:0:
172,233,92690,6,0,L|261:219,1,80,8|0,0:0|0:0,0:0:0:0:
87,163,93027,2,0,L|176:149,1,80,2|0,0:0|0:0,0:0:0:0:
9,254,93364,2,0,L|110:239,1,80,2|0,0:0|0:0,0:0:0:0:
315,297,93701,6,0,P|298:341|287:383,1,80,6|0,0:0|0:0,0:0:0:0:
172,233,94038,2,0,P|173:283|189:332,1,80
9,254,94375,2,0,P|39:305|71:335,1,80,2|0,0:0|0:0,0:0:0:0:
296,199,94712,1,8,0:0:0:0:
296,199,95218,5,0,0:0:0:0:
449,153,95387,2,0,L|355:142,1,80,2|0,0:0|0:0,0:0:0:0:
186,262,95724,2,0,P|202:303|227:344,1,80,2|0,0:0|0:0,0:0:0:0:
95,221,96061,2,0,P|92:273|101:319,1,80
18,154,96398,2,0,P|5:197|1:258,1,80,2|0,0:0|0:0,0:0:0:0:
248,218,96735,6,0,P|210:231|178:285,1,80,8|0,0:0|0:0,0:0:0:0:
95,221,97072,1,8,0:0:0:0:
95,221,97241,1,2,0:0:0:0:
18,154,97409,1,8,0:0:0:0:
18,154,97578,1,2,0:0:0:0:
183,39,97746,5,6,0:0:0:0:
225,117,97915,1,0,0:0:0:0:
173,42,98083,5,0,0:0:0:0:
173,196,98252,1,0,0:0:0:0:
213,121,98420,2,0,L|312:130,1,80,2|0,0:0|0:0,0:0:0:0:
489,65,98757,6,0,P|473:111|460:158,1,80,8|0,0:0|0:0,0:0:0:0:
367,193,99094,2,0,P|384:234|410:281,1,80
300,347,99432,2,0,P|342:369|395:380,1,80,2|0,0:0|0:0,0:0:0:0:
108,269,99769,5,2,0:0:0:0:
199,286,99937,1,0,0:0:0:0:
104,281,100106,5,0,0:0:0:0:
195,298,100274,1,0,0:0:0:0:
99,291,100443,5,2,0:0:0:0:
281,364,100611,1,0,0:0:0:0:
192,313,100780,2,0,L|182:220,1,80,8|0,0:0|0:0,0:0:0:0:
123,75,101117,1,2,0:0:0:0:
71,153,101285,1,8,0:0:0:0:
165,155,101454,1,2,0:0:0:0:
246,115,101623,6,0,P|265:123|287:136,1,40
296,153,101791,1,6,0:0:0:0:
387,105,101960,2,0,L|361:214,1,80
305,50,102297,1,0,0:0:0:0:
482,93,102465,2,0,L|385:106,1,80,2|0,0:0|0:0,0:0:0:0:
301,204,102802,2,0,P|349:203|296:174,1,160,8|0,0:0|0:0,0:0:0:0:
288,189,103308,5,0,0:0:0:0:
360,273,103476,1,2,0:0:0:0:
375,93,103645,1,0,0:0:0:0:
360,273,103814,2,0,L|464:259,1,80,6|0,0:0|0:0,0:0:0:0:
209,204,104151,2,0,L|119:217,1,80
64,343,104488,5,2,0:0:0:0:
19,142,104656,1,0,0:0:0:0:
40,239,104825,5,12,0:0:0:0:
40,239,104993,1,2,0:0:0:0:
103,86,105162,1,8,0:0:0:0:
103,86,105330,1,2,0:0:0:0:
170,313,105499,1,8,0:0:0:0:
170,313,105667,1,2,0:0:0:0:
252,45,105836,6,0,P|263:92|311:57,1,120,6|0,0:0|0:0,0:0:0:0:
328,50,106510,5,6,0:0:0:0:
397,89,106847,1,6,0:0:0:0:
394,168,107184,1,2,0:0:0:0:
208,216,107521,5,6,0:0:0:0:
253,183,107859,1,6,0:0:0:0:
305,201,108196,1,2,0:0:0:0:
281,328,108533,5,6,0:0:0:0:
206,52,108870,5,6,0:0:0:0:
