osu file format v14

[General]
AudioFilename: audio.mp3
AudioLeadIn: 0
PreviewTime: 48803
Countdown: 0
SampleSet: Soft
StackLeniency: 0.7
Mode: 2
LetterboxInBreaks: 0
WidescreenStoryboard: 1

[Editor]
Bookmarks: 51147
DistanceSpacing: 0.8
BeatDivisor: 4
GridSize: 8
TimelineZoom: 2.799999

[Metadata]
Title:Alchemia (Short Ver.)
TitleUnicode:Alchemia (Short Ver.)
Artist:Nakae Mitsuki
ArtistUnicode:中恵光城
Creator:-Luminate
Version:Salad
Source:ネルケと伝説の錬金術士たち ~新たな大地のアトリエ~
Tags:Nelke & the Legendary Alchemists to Densetsu no Renkinjutsushi-tachi aratana na daicihi and opening gust jrpg koeitecmo
BeatmapID:2074014
BeatmapSetID:991718

[Difficulty]
HPDrainRate:4
CircleSize:3
OverallDifficulty:7
ApproachRate:7
SliderMultiplier:1.45
SliderTickRate:1

[Events]
//Background and Video events
0,0,"nelke.jpg",0,0
Video,1056,"opening.mp4"
//Break Periods
//Storyboard Layer 0 (Background)
//Storyboard Layer 1 (Fail)
//Storyboard Layer 2 (Pass)
//Storyboard Layer 3 (Foreground)
//Storyboard Layer 4 (Overlay)
//Storyboard Sound Samples

[TimingPoints]
193,375,4,3,2,60,1,0
1647,375,4,3,2,80,1,0
1647,-90.9090909090909,4,3,2,80,0,0
7647,-90.9090909090909,4,3,2,80,0,0
12147,-100,4,2,1,80,0,0
13272,-100,4,2,1,55,0,0
19647,-100,4,2,1,60,0,0
22647,-90.9090909090909,4,2,1,65,0,0
23209,-90.9090909090909,4,2,1,50,0,0
23959,-90.9090909090909,4,2,1,70,0,0
24897,-90.9090909090909,4,2,1,45,0,0
25647,-90.9090909090909,4,2,1,50,0,0
34084,-90.9090909090909,4,2,1,30,0,0
34647,-90.9090909090909,4,2,1,50,0,0
38959,-90.9090909090909,4,2,1,35,0,0
39147,-90.9090909090909,4,2,1,50,0,0
46084,-90.9090909090909,4,2,1,30,0,0
46647,-90.9090909090909,4,2,1,60,0,0
48897,-90.9090909090909,4,2,1,70,0,0
49647,-86.9565217391304,4,2,1,80,0,1
52365,-86.9565217391304,4,2,1,40,0,1
52647,-86.9565217391304,4,2,1,80,0,1
53959,-86.9565217391304,4,2,1,35,0,1
54147,-86.9565217391304,4,2,1,35,0,1
54522,-86.9565217391304,4,2,1,80,0,1
54615,-86.9565217391304,4,2,1,35,0,1
54709,-86.9565217391304,4,2,1,80,0,1
54802,-86.9565217391304,4,2,1,35,0,1
55084,-86.9565217391304,4,2,1,80,0,1
55177,-86.9565217391304,4,2,1,35,0,1
55272,-86.9565217391304,4,2,1,80,0,1
55365,-86.9565217391304,4,2,1,35,0,1
55459,-86.9565217391304,4,2,1,50,0,1
55552,-86.9565217391304,4,2,1,35,0,1
55647,-86.9565217391304,4,2,1,80,0,1
56959,-86.9565217391304,4,2,1,50,0,1
57147,-86.9565217391304,4,2,1,80,0,1
57240,-86.9565217391304,4,2,1,35,0,1
57522,-86.9565217391304,4,2,1,80,0,1
57615,-86.9565217391304,4,2,1,35,0,1
57709,-86.9565217391304,4,2,1,80,0,1
57802,-86.9565217391304,4,2,1,35,0,1
58084,-86.9565217391304,4,2,1,80,0,1
58177,-86.9565217391304,4,2,1,35,0,1
58272,-86.9565217391304,4,2,1,80,0,1
58365,-86.9565217391304,4,2,1,35,0,1
58459,-86.9565217391304,4,2,1,55,0,1
58552,-86.9565217391304,4,2,1,35,0,1
58647,-86.9565217391304,4,2,1,80,0,1
59678,-86.9565217391304,4,2,1,10,0,1
59772,-86.9565217391304,4,2,1,80,0,1
60709,-86.9565217391304,4,2,1,35,0,1
60897,-86.9565217391304,4,2,1,80,0,1
61459,-86.9565217391304,4,2,1,35,0,1
61647,-86.9565217391304,4,2,1,80,0,1
61740,-86.9565217391304,4,2,1,35,0,1
62022,-86.9565217391304,4,2,1,80,0,1
62115,-86.9565217391304,4,2,1,35,0,1
62209,-86.9565217391304,4,2,1,80,0,1
62302,-86.9565217391304,4,2,1,35,0,1
62584,-86.9565217391304,4,2,1,80,0,1
62677,-86.9565217391304,4,2,1,35,0,1
62772,-86.9565217391304,4,2,1,80,0,1
62865,-86.9565217391304,4,2,1,35,0,1
63147,-86.9565217391304,4,2,1,80,0,1
63240,-86.9565217391304,4,2,1,35,0,1
63522,-86.9565217391304,4,2,1,80,0,1
63615,-86.9565217391304,4,2,1,35,0,1
63709,-86.9565217391304,4,2,1,80,0,1
63802,-86.9565217391304,4,2,1,35,0,1
64084,-86.9565217391304,4,2,1,80,0,1
64177,-86.9565217391304,4,2,1,35,0,1
64272,-86.9565217391304,4,2,1,80,0,1
64365,-86.9565217391304,4,2,1,35,0,1
64647,-86.9565217391304,4,2,1,80,0,1
64740,-86.9565217391304,4,2,1,35,0,1
65022,-86.9565217391304,4,2,1,80,0,1
65115,-86.9565217391304,4,2,1,35,0,1
65209,-86.9565217391304,4,2,1,80,0,1
65302,-86.9565217391304,4,2,1,35,0,1
65584,-86.9565217391304,4,2,1,80,0,1
66053,-86.9565217391304,4,2,1,10,0,1
66147,-86.9565217391304,4,2,1,80,0,1
66240,-86.9565217391304,4,2,1,35,0,1
66522,-86.9565217391304,4,2,1,80,0,1
66615,-86.9565217391304,4,2,1,35,0,1
66709,-86.9565217391304,4,2,1,80,0,1
66802,-86.9565217391304,4,2,1,35,0,1
66897,-86.9565217391304,4,2,1,80,0,1
67178,-86.9565217391304,4,2,1,10,0,1
67272,-86.9565217391304,4,2,1,80,0,1
67553,-86.9565217391304,4,2,1,10,0,1
67647,-86.9565217391304,4,2,1,80,0,1
71209,-86.9565217391304,4,2,1,40,0,1
71772,-86.9565217391304,4,2,1,80,0,1
72803,-86.9565217391304,4,2,1,55,0,1
73178,-100,4,2,1,50,0,1
73647,-100,4,2,1,70,0,0
76084,-100,4,2,1,40,0,0
76647,-100,4,2,1,70,0,0
78147,-100,4,2,1,40,0,0
79647,-100,4,2,1,30,0,0
80772,-100,4,2,1,20,0,0

[Colours]
Combo1 : 84,72,223
Combo2 : 183,68,137
Combo3 : 233,201,177
Combo4 : 141,207,74

[HitObjects]
312,320,1647,6,0,P|352:240|304:200,1,159.500004867554,6|2,0:0|0:0,0:0:0:0:
152,200,2397,2,0,P|112:128|176:72,1,159.500004867554,2|2,0:0|0:0,0:0:0:0:
448,216,3147,6,0,P|488:152|440:80,1,159.500004867554,2|2,0:0|0:0,0:0:0:0:
280,248,3897,1,2,0:0:0:0:
208,216,4022,1,0,0:0:0:0:
184,152,4147,1,0,0:0:0:0:
208,80,4272,1,2,0:0:0:0:
288,56,4397,1,0,0:0:0:0:
72,320,4647,6,0,P|32:240|80:200,1,159.500004867554,6|2,0:0|0:0,0:0:0:0:
240,200,5397,2,0,P|352:144|368:96,1,159.500004867554,2|2,0:0|0:0,0:0:0:0:
80,304,6147,6,0,P|40:240|104:184,1,159.500004867554,2|2,0:0|0:0,0:0:0:0:
240,232,6865,1,2,0:0:0:0:
296,200,6990,1,0,0:0:0:0:
288,136,7115,1,0,0:0:0:0:
240,88,7240,1,2,0:0:0:0:
176,88,7365,1,0,0:0:0:0:
448,96,7647,6,0,P|488:160|448:232,1,159.500004867554,6|10,0:0|0:0,0:0:0:0:
320,296,8272,1,0,0:0:0:0:
263,281,8397,2,0,P|282:186|347:165,1,159.500004867554,10|10,0:0|0:0,0:0:0:0:
96,256,9022,1,0,0:0:0:0:
48,248,9147,6,0,P|16:168|64:120,1,159.500004867554,14|10,0:0|0:0,0:0:0:0:
208,208,9897,1,10,0:0:0:0:
256,160,10022,1,0,0:0:0:0:
256,96,10147,1,0,0:0:0:0:
216,64,10272,1,10,0:0:0:0:
160,56,10397,1,0,0:0:0:0:
405,328,10647,5,14,0:0:0:0:
448,295,10772,1,8,0:0:0:0:
472,250,10897,1,8,0:0:0:0:
446,189,11022,1,10,0:0:0:0:
395,165,11147,1,8,0:0:0:0:
152,64,11397,1,14,0:0:0:0:
103,89,11522,1,8,0:0:0:0:
84,140,11647,1,8,0:0:0:0:
107,190,11772,1,10,0:0:0:0:
153,210,11897,1,8,0:0:0:0:
416,48,12147,5,4,0:2:0:0:
112,320,13272,2,0,L|104:224,1,72.5,2|2,0:3|0:3,0:0:0:0:
304,216,13647,6,0,P|440:168|480:80,2,217.5,2|0|2,0:0|0:0|0:3,0:0:0:0:
152,256,15147,2,0,P|112:176|224:144,1,217.5,2|0,0:0|0:0,0:0:0:0:
400,288,16272,2,0,L|408:192,1,72.5,2|2,0:3|0:3,0:0:0:0:
208,216,16647,6,0,P|72:168|32:80,2,217.5,2|0|2,0:0|0:0|0:3,0:0:0:0:
384,320,18147,2,0,P|440:248|360:168,1,217.5,2|0,0:0|0:0,0:0:0:0:
184,176,19272,2,0,L|176:80,1,72.5,2|2,0:3|0:3,0:0:0:0:
376,304,19647,6,0,P|464:272|496:200,1,145,2|0,0:0|0:0,0:0:0:0:
400,208,20209,1,2,0:0:0:0:
264,144,20584,2,0,L|352:96,2,72.5,0|2|0,0:0|0:0|0:0,0:0:0:0:
72,296,21147,6,0,P|48:224|96:184,1,145,2|0,0:3|0:0,0:0:0:0:
184,176,21709,2,0,P|208:128|152:64,1,145,2|0,0:0|0:0,0:0:0:0:
72,272,22272,2,0,L|64:192,1,72.5,2|2,0:0|0:3,0:0:0:0:
280,216,22647,6,0,L|440:136,1,159.500004867554,2|2,0:3|0:0,0:0:0:0:
320,112,23209,1,2,0:3:0:0:
216,280,23397,1,2,0:3:0:0:
179,260,23490,1,2,0:3:0:0:
159,213,23584,1,2,0:3:0:0:
176,168,23678,1,2,0:3:0:0:
216,144,23772,1,2,0:3:0:0:
407,154,23959,6,0,P|447:98|391:26,1,159.500004867554,2|2,0:3|0:0,0:0:0:0:
216,32,24522,1,2,0:0:0:0:
384,352,24897,1,2,0:3:0:0:
432,312,25084,1,0,0:0:0:0:
432,248,25272,1,2,0:3:0:0:
384,224,25459,1,0,0:0:0:0:
216,232,25647,6,0,L|208:128,1,79.7500024337769,2|0,0:0|0:0,0:0:0:0:
328,240,26022,1,2,0:0:0:0:
424,232,26209,2,0,P|464:184|416:96,1,159.500004867554,2|0,0:3|0:0,0:0:0:0:
328,64,26772,1,2,0:0:0:0:
424,32,26959,1,0,0:0:0:0:
240,256,27147,6,0,P|152:224|96:144,1,159.500004867554,2|2,0:0|0:0,0:0:0:0:
200,176,27709,1,0,0:0:0:0:
288,168,27897,2,0,P|352:144|408:56,1,159.500004867554,2|2,0:0|0:0,0:0:0:0:
320,56,28459,1,0,0:0:0:0:
136,248,28647,6,0,P|88:184|152:136,1,159.500004867554,2|2,0:0|0:0,0:0:0:0:
216,128,29209,1,0,0:0:0:0:
136,104,29397,1,2,0:0:0:0:
280,64,29772,1,2,0:3:0:0:
96,312,29959,6,0,P|56:272|120:192,1,159.500004867554,2|2,0:3|0:0,0:0:0:0:
184,192,30522,1,2,0:3:0:0:
368,112,30709,2,0,L|192:112,1,159.500004867554,2|2,0:0|0:3,0:0:0:0:
136,168,31272,2,0,L|128:80,1,79.7500024337769,2|2,0:0|0:3,0:0:0:0:
328,312,31647,6,0,L|480:208,1,159.500004867554,2|0,0:0|0:0,0:0:0:0:
368,224,32209,1,2,0:0:0:0:
208,192,32584,2,0,L|296:128,2,79.7500024337769,0|2|0,0:0|0:0|0:0,0:0:0:0:
400,208,33147,6,0,P|432:232|376:328,1,159.500004867554,2|2,0:0|0:0,0:0:0:0:
312,328,33709,1,0,0:0:0:0:
224,328,33897,2,0,P|176:264|248:200,1,159.500004867554,2|2,0:0|0:3,0:0:0:0:
304,208,34459,1,2,0:3:0:0:
112,200,34647,6,0,P|40:160|8:80,1,159.500004867554,2|2,0:0|0:0,0:0:0:0:
88,56,35209,2,0,L|200:56,1,79.7500024337769,2|0,0:3|0:0,0:0:0:0:
80,120,35584,2,0,L|72:200,1,79.7500024337769,2|0,0:0|0:0,0:0:0:0:
280,312,35959,6,0,P|320:224|272:200,1,159.500004867554,2|0,0:3|0:0,0:0:0:0:
208,192,36522,1,2,0:0:0:0:
168,128,36709,1,0,0:0:0:0:
232,64,36897,2,0,L|312:64,2,79.7500024337769,2|0|2,0:0|0:0|0:0,0:0:0:0:
144,64,37459,1,2,0:3:0:0:
336,280,37647,6,0,P|424:240|448:176,1,159.500004867554,2|2,0:3|0:0,0:0:0:0:
320,200,38397,2,0,L|328:112,1,79.7500024337769,2|0,0:0|0:0,0:0:0:0:
408,80,38772,2,0,L|304:80,1,79.7500024337769,2|2,0:0|0:3,0:0:0:0:
128,328,39147,6,0,P|80:272|136:208,1,159.500004867554,2|2,0:3|0:0,0:0:0:0:
248,208,39897,1,2,0:0:0:0:
184,184,40084,1,0,0:0:0:0:
184,112,40272,1,2,0:0:0:0:
280,96,40459,1,2,0:3:0:0:
96,304,40647,6,0,P|48:248|112:184,1,159.500004867554,2|2,0:3|0:0,0:0:0:0:
224,176,41397,2,0,L|136:176,1,79.7500024337769,2|0,0:0|0:0,0:0:0:0:
248,128,41772,2,0,L|256:16,1,79.7500024337769,2|0,0:0|0:0,0:0:0:0:
64,272,42147,6,0,L|240:272,1,159.500004867554,2|0,0:3|0:0,0:0:0:0:
312,272,42709,1,2,0:0:0:0:
224,208,42897,2,0,L|216:120,1,79.7500024337769,0|2,0:0|0:0,0:0:0:0:
328,144,43272,2,0,L|336:48,1,79.7500024337769,2|0,0:3|0:0,0:0:0:0:
136,240,43647,6,0,P|48:208|16:144,1,159.500004867554,2|0,0:3|0:0,0:0:0:0:
112,152,44210,1,2,0:3:0:0:
208,152,44397,2,0,P|248:208|200:272,1,159.500004867554,2|2,0:0|0:0,0:0:0:0:
112,272,44959,1,2,0:3:0:0:
296,320,45147,6,0,L|384:264,1,79.7500024337769,2|0,0:0|0:0,0:0:0:0:
272,240,45522,2,0,L|264:136,1,79.7500024337769,2|0,0:0|0:0,0:0:0:0:
160,168,45897,2,0,L|168:72,1,79.7500024337769,2|2,0:0|0:3,0:0:0:0:
272,80,46272,2,0,L|368:80,1,79.7500024337769,2|2,0:3|0:3,0:0:0:0:
144,328,46647,6,0,P|96:288|168:216,1,159.500004867554,6|6,0:3|0:0,0:0:0:0:
248,208,47209,1,2,0:3:0:0:
96,136,47584,1,2,0:3:0:0:
432,296,47959,6,0,P|472:208|424:176,1,159.500004867554,4|8,0:0|0:3,0:0:0:0:
336,176,48522,2,0,L|256:168,1,79.7500024337769,2|2,0:0|0:0,0:0:0:0:
344,128,48897,1,2,0:0:0:0:
435,178,49084,1,2,0:3:0:0:
432,264,49272,1,8,0:3:0:0:
344,320,49459,1,2,0:3:0:0:
136,296,49647,6,0,P|88:224|144:168,1,166.750003180504,4|8,0:3|0:0,0:0:0:0:
232,176,50209,2,0,L|104:56,1,166.750003180504,2|2,0:0|0:0,0:0:0:0:
16,64,50772,2,0,L|112:24,1,83.375001590252,8|0,0:0|0:0,0:0:0:0:
296,264,51147,6,0,L|304:152,1,83.375001590252,2|0,0:0|0:0,0:0:0:0:
200,176,51522,2,0,L|192:72,1,83.375001590252,8|2,0:0|0:0,0:0:0:0:
296,96,51897,2,0,L|392:96,1,83.375001590252,2|2,0:3|0:0,0:0:0:0:
296,192,52272,2,0,L|184:192,1,83.375001590252,8|2,0:0|0:3,0:0:0:0:
416,328,52647,6,0,P|464:264|408:208,1,166.750003180504,4|8,0:0|0:0,0:0:0:0:
320,208,53209,2,0,P|232:176|184:96,1,166.750003180504,2|2,0:0|0:0,0:0:0:0:
288,112,53772,2,0,L|296:24,1,83.375001590252,8|2,0:0|0:3,0:0:0:0:
88,32,54147,6,0,L|24:32,2,41.687500795126,2|2|2,0:3|0:3|0:3,0:0:0:0:
184,112,54522,2,0,L|288:112,1,83.375001590252,8|2,0:0|0:0,0:0:0:0:
168,224,54897,2,0,L|112:224,2,41.687500795126,2|2|2,0:3|0:3|0:0,0:0:0:0:
264,272,55272,1,8,0:0:0:0:
160,320,55459,1,2,0:3:0:0:
368,328,55647,6,0,P|464:288|496:208,1,166.750003180504,4|8,0:0|0:0,0:0:0:0:
400,208,56209,2,0,P|360:112|424:88,1,166.750003180504,2|2,0:0|0:0,0:0:0:0:
488,88,56772,1,8,0:0:0:0:
392,160,56959,1,2,0:3:0:0:
184,256,57147,6,0,L|136:256,2,41.687500795126,2|2|2,0:0|0:3|0:3,0:0:0:0:
288,224,57522,2,0,L|176:224,1,83.375001590252,8|2,0:0|0:0,0:0:0:0:
320,128,57897,2,0,L|352:64,2,41.687500795126,2|2|2,0:3|0:3|0:0,0:0:0:0:
208,128,58272,2,0,L|88:128,1,83.375001590252,8|2,0:0|0:3,0:0:0:0:
336,328,58647,6,0,P|384:256|320:208,1,166.750003180504,4|8,0:0|0:0,0:0:0:0:
240,208,59209,1,2,0:0:0:0:
144,176,59397,2,0,L|136:64,1,83.375001590252,2|0,0:0|0:0,0:0:0:0:
240,104,59772,2,0,L|248:8,1,83.375001590252,8|0,0:0|0:0,0:0:0:0:
40,280,60147,6,0,L|232:280,1,166.750003180504,4|8,0:0|0:0,0:0:0:0:
120,184,60709,2,0,L|112:120,1,41.687500795126,2|2,0:3|0:3,0:0:0:0:
168,128,60897,2,0,L|280:96,1,83.375001590252,2|2,0:0|0:0,0:0:0:0:
336,72,61272,1,8,0:0:0:0:
248,40,61459,1,2,0:3:0:0:
464,288,61647,6,0,L|472:232,2,41.687500795126,6|2|2,0:3|0:3|0:3,0:0:0:0:
376,328,62022,2,0,L|480:328,1,83.375001590252,8|2,0:0|0:0,0:0:0:0:
360,296,62397,1,2,0:3:0:0:
320,272,62490,1,2,0:3:0:0:
304,224,62584,1,2,0:0:0:0:
320,176,62678,1,2,0:3:0:0:
360,152,62772,2,0,L|456:152,1,83.375001590252,8|2,0:0|0:3,0:0:0:0:
232,80,63147,6,0,L|216:24,2,41.687500795126,2|2|2,0:0|0:3|0:3,0:0:0:0:
312,128,63522,2,0,L|208:128,1,83.375001590252,8|2,0:0|0:0,0:0:0:0:
120,272,63897,1,2,0:3:0:0:
168,248,63990,1,2,0:3:0:0:
184,192,64084,1,2,0:0:0:0:
160,144,64178,1,2,0:3:0:0:
120,112,64272,2,0,L|224:112,1,83.375001590252,8|2,0:0|0:3,0:0:0:0:
408,288,64647,5,2,0:0:0:0:
456,264,64740,1,2,0:3:0:0:
472,208,64834,1,2,0:3:0:0:
400,144,65022,2,0,L|312:104,1,83.375001590252,8|2,0:0|0:0,0:0:0:0:
216,136,65397,2,0,L|200:72,2,41.687500795126,2|2|2,0:3|0:3|0:0,0:0:0:0:
312,208,65772,2,0,L|400:176,1,83.375001590252,8|0,0:0|0:0,0:0:0:0:
184,352,66147,6,0,P|144:296|208:232,1,166.750003180504,2|8,0:0|0:0,0:0:0:0:
288,232,66709,1,2,0:0:0:0:
88,176,66897,2,0,L|80:56,1,83.375001590252,2|0,0:0|0:0,0:0:0:0:
176,112,67272,2,0,L|184:16,1,83.375001590252,2|0,0:0|0:0,0:0:0:0:
384,320,67647,6,0,P|408:256|336:200,1,166.750003180504,4|8,0:0|0:0,0:0:0:0:
176,272,68397,1,2,0:0:0:0:
96,240,68584,1,2,0:0:0:0:
64,160,68772,1,8,0:0:0:0:
120,88,68959,1,0,0:0:0:0:
336,288,69147,6,0,P|392:224|328:160,1,166.750003180504,4|8,0:0|0:0,0:0:0:0:
248,160,69709,2,0,P|272:88|368:40,1,166.750003180504,2|2,0:0|0:0,0:0:0:0:
432,40,70272,1,8,0:0:0:0:
112,272,70647,6,0,P|64:216|144:152,1,166.750003180504,4|8,0:0|0:0,0:0:0:0:
216,248,71209,1,2,0:3:0:0:
256,216,71303,1,2,0:3:0:0:
272,160,71397,1,2,0:3:0:0:
256,112,71490,1,2,0:3:0:0:
216,88,71584,1,2,0:0:0:0:
125,88,71772,1,8,0:0:0:0:
328,336,71959,6,0,P|416:304|440:216,1,166.750003180504,4|2,0:0|0:0,0:0:0:0:
344,224,72522,2,0,L|272:176,1,83.375001590252,8|0,0:0|0:0,0:0:0:0:
184,128,72897,2,0,L|272:48,1,83.375001590252,2|2,0:0|0:0,0:0:0:0:
344,96,73272,2,0,L|352:8,1,72.5,2|2,0:3|0:3,0:0:0:0:
146,280,73647,6,0,P|82:264|42:184,1,145,4|8,0:3|0:0,0:0:0:0:
80,112,74209,1,0,0:0:0:0:
160,88,74397,1,2,0:0:0:0:
328,64,74772,2,0,L|248:64,1,72.5,8|0,0:0|0:0,0:0:0:0:
160,264,75147,6,0,L|328:264,1,145,2|8,0:0|0:0,0:0:0:0:
400,248,75709,1,2,0:3:0:0:
400,168,75897,1,2,0:0:0:0:
304,152,76084,1,2,0:3:0:0:
256,136,76177,1,2,0:3:0:0:
232,96,76271,1,2,0:3:0:0:
240,48,76365,1,2,0:3:0:0:
280,24,76459,1,2,0:3:0:0:
472,344,76647,6,0,P|432:272|352:248,1,145,4|8,0:3|0:0,0:0:0:0:
288,248,77209,1,2,0:3:0:0:
432,152,77584,1,2,0:0:0:0:
112,152,77959,5,4,0:0:0:0:
256,192,78334,12,2,81053,0:3:0:0:
