osu file format v14

[General]
AudioFilename: audio.mp3
AudioLeadIn: 0
PreviewTime: 48803
Countdown: 0
SampleSet: Soft
StackLeniency: 0.7
Mode: 2
LetterboxInBreaks: 0
WidescreenStoryboard: 1

[Editor]
Bookmarks: 51147
DistanceSpacing: 0.8
BeatDivisor: 4
GridSize: 8
TimelineZoom: 2.799999

[Metadata]
Title:Alchemia (Short Ver.)
TitleUnicode:Alchemia (Short Ver.)
Artist:Nakae Mitsuki
ArtistUnicode:中恵光城
Creator:-Luminate
Version:Platter
Source:ネルケと伝説の錬金術士たち ~新たな大地のアトリエ~
Tags:Nelke & the Legendary Alchemists to Densetsu no Renkinjutsushi-tachi aratana na daicihi and opening gust jrpg koeitecmo
BeatmapID:2074011
BeatmapSetID:991718

[Difficulty]
HPDrainRate:5
CircleSize:3.5
OverallDifficulty:7.9
ApproachRate:7.9
SliderMultiplier:1.6
SliderTickRate:1

[Events]
//Background and Video events
0,0,"nelke.jpg",0,0
Video,1056,"opening.mp4"
//Break Periods
//Storyboard Layer 0 (Background)
//Storyboard Layer 1 (Fail)
//Storyboard Layer 2 (Pass)
//Storyboard Layer 3 (Foreground)
//Storyboard Layer 4 (Overlay)
//Storyboard Sound Samples

[TimingPoints]
193,375,4,3,2,60,1,0
1647,375,4,3,2,80,1,0
1647,-89.2857142857143,4,3,2,80,0,0
7647,-89.2857142857143,4,3,2,80,0,0
12147,-100,4,2,1,80,0,0
13272,-100,4,2,1,55,0,0
19647,-100,4,2,1,60,0,0
22647,-90.9090909090909,4,2,1,65,0,0
23209,-90.9090909090909,4,2,1,50,0,0
23959,-90.9090909090909,4,2,1,70,0,0
24897,-90.9090909090909,4,2,1,45,0,0
25647,-90.9090909090909,4,2,1,50,0,0
34084,-90.9090909090909,4,2,1,30,0,0
34647,-90.9090909090909,4,2,1,50,0,0
38959,-90.9090909090909,4,2,1,35,0,0
39147,-90.9090909090909,4,2,1,50,0,0
46084,-90.9090909090909,4,2,1,30,0,0
46647,-90.9090909090909,4,2,1,60,0,0
48897,-90.9090909090909,4,2,1,70,0,0
49647,-86.9565217391304,4,2,1,80,0,1
52365,-86.9565217391304,4,2,1,40,0,1
52647,-86.9565217391304,4,2,1,80,0,1
53959,-86.9565217391304,4,2,1,35,0,1
54147,-86.9565217391304,4,2,1,35,0,1
54522,-86.9565217391304,4,2,1,80,0,1
54615,-86.9565217391304,4,2,1,35,0,1
54709,-86.9565217391304,4,2,1,80,0,1
54802,-86.9565217391304,4,2,1,35,0,1
55084,-86.9565217391304,4,2,1,80,0,1
55177,-86.9565217391304,4,2,1,35,0,1
55272,-86.9565217391304,4,2,1,80,0,1
55365,-86.9565217391304,4,2,1,35,0,1
55459,-86.9565217391304,4,2,1,50,0,1
55552,-86.9565217391304,4,2,1,35,0,1
55647,-86.9565217391304,4,2,1,80,0,1
56959,-86.9565217391304,4,2,1,50,0,1
57147,-86.9565217391304,4,2,1,80,0,1
57240,-86.9565217391304,4,2,1,35,0,1
57522,-86.9565217391304,4,2,1,80,0,1
57615,-86.9565217391304,4,2,1,35,0,1
57709,-86.9565217391304,4,2,1,80,0,1
57802,-86.9565217391304,4,2,1,35,0,1
58084,-86.9565217391304,4,2,1,80,0,1
58177,-86.9565217391304,4,2,1,35,0,1
58272,-86.9565217391304,4,2,1,80,0,1
58365,-86.9565217391304,4,2,1,35,0,1
58459,-86.9565217391304,4,2,1,55,0,1
58552,-86.9565217391304,4,2,1,35,0,1
58647,-86.9565217391304,4,2,1,80,0,1
59678,-86.9565217391304,4,2,1,10,0,1
59772,-86.9565217391304,4,2,1,80,0,1
60709,-86.9565217391304,4,2,1,35,0,1
60897,-86.9565217391304,4,2,1,80,0,1
61459,-86.9565217391304,4,2,1,35,0,1
61647,-86.9565217391304,4,2,1,80,0,1
61740,-86.9565217391304,4,2,1,35,0,1
62022,-86.9565217391304,4,2,1,80,0,1
62115,-86.9565217391304,4,2,1,35,0,1
62209,-86.9565217391304,4,2,1,80,0,1
62302,-86.9565217391304,4,2,1,35,0,1
62584,-86.9565217391304,4,2,1,80,0,1
62677,-86.9565217391304,4,2,1,35,0,1
62772,-86.9565217391304,4,2,1,80,0,1
62865,-86.9565217391304,4,2,1,35,0,1
63147,-86.9565217391304,4,2,1,80,0,1
63240,-86.9565217391304,4,2,1,35,0,1
63522,-86.9565217391304,4,2,1,80,0,1
63615,-86.9565217391304,4,2,1,35,0,1
63709,-86.9565217391304,4,2,1,80,0,1
63802,-86.9565217391304,4,2,1,35,0,1
64084,-86.9565217391304,4,2,1,80,0,1
64177,-86.9565217391304,4,2,1,35,0,1
64272,-86.9565217391304,4,2,1,80,0,1
64365,-86.9565217391304,4,2,1,35,0,1
64647,-86.9565217391304,4,2,1,80,0,1
64740,-86.9565217391304,4,2,1,35,0,1
65022,-86.9565217391304,4,2,1,80,0,1
65115,-86.9565217391304,4,2,1,35,0,1
65209,-86.9565217391304,4,2,1,80,0,1
65302,-86.9565217391304,4,2,1,35,0,1
65584,-86.9565217391304,4,2,1,80,0,1
66053,-86.9565217391304,4,2,1,10,0,1
66147,-86.9565217391304,4,2,1,80,0,1
66240,-86.9565217391304,4,2,1,35,0,1
66522,-86.9565217391304,4,2,1,80,0,1
66615,-86.9565217391304,4,2,1,35,0,1
66709,-86.9565217391304,4,2,1,80,0,1
66802,-86.9565217391304,4,2,1,35,0,1
66897,-86.9565217391304,4,2,1,80,0,1
67178,-86.9565217391304,4,2,1,10,0,1
67272,-86.9565217391304,4,2,1,80,0,1
67553,-86.9565217391304,4,2,1,10,0,1
67647,-86.9565217391304,4,2,1,80,0,1
71209,-86.9565217391304,4,2,1,40,0,1
71772,-86.9565217391304,4,2,1,80,0,1
72803,-86.9565217391304,4,2,1,55,0,1
73178,-100,4,2,1,50,0,1
73647,-100,4,2,1,70,0,0
76084,-100,4,2,1,40,0,0
76647,-100,4,2,1,70,0,0
78147,-100,4,2,1,40,0,0
79647,-100,4,2,1,30,0,0
80772,-100,4,2,1,20,0,0

[Colours]
Combo1 : 84,72,223
Combo2 : 183,68,137
Combo3 : 233,201,177
Combo4 : 141,207,74

[HitObjects]
112,184,1443,5,2,0:0:0:0:
392,168,1647,2,0,P|432:144|384:48,1,179.2000021875,6|2,0:0|0:0,0:0:0:0:
296,312,2147,1,0,0:0:0:0:
296,224,2272,1,0,0:0:0:0:
448,208,2397,2,0,L|280:88,1,179.2000021875,2|2,0:0|0:0,0:0:0:0:
392,104,2897,1,0,0:0:0:0:
392,32,3022,1,0,0:0:0:0:
200,336,3147,6,0,P|104:304|72:216,1,179.2000021875,2|2,0:0|0:0,0:0:0:0:
160,216,3647,1,0,0:0:0:0:
216,136,3772,1,0,0:0:0:0:
80,112,3897,2,0,L|24:40,2,59.7333340625,2|0|0,0:0|0:0|0:0,0:0:0:0:
216,128,4272,1,2,0:0:0:0:
288,96,4397,1,0,0:0:0:0:
288,32,4522,1,0,0:0:0:0:
80,168,4647,6,0,P|40:144|88:48,1,179.2000021875,6|2,0:0|0:0,0:0:0:0:
176,312,5147,1,0,0:0:0:0:
176,224,5272,1,0,0:0:0:0:
24,208,5397,2,0,L|192:88,1,179.2000021875,2|2,0:0|0:0,0:0:0:0:
80,104,5897,1,0,0:0:0:0:
80,32,6022,1,0,0:0:0:0:
272,336,6147,6,0,P|368:304|400:216,1,179.2000021875,2|2,0:0|0:0,0:0:0:0:
312,216,6647,1,0,0:0:0:0:
312,144,6772,1,0,0:0:0:0:
376,128,6865,1,2,0:0:0:0:
440,112,6990,2,0,L|440:48,1,59.7333340625
384,200,7240,2,0,L|336:160,2,59.7333340625,2|0|0,0:0|0:0|0:0,0:0:0:0:
152,264,7647,6,0,P|96:232|72:168,1,119.466668125,6|0,0:0|0:0,0:0:0:0:
72,104,8022,1,10,0:0:0:0:
112,48,8147,1,0,0:0:0:0:
176,40,8272,1,0,0:0:0:0:
328,328,8397,2,0,L|216:256,1,119.466668125,10|0,0:0|0:0,0:0:0:0:
280,304,8772,1,10,0:0:0:0:
344,264,8897,1,0,0:0:0:0:
352,192,9022,1,0,0:0:0:0:
104,168,9147,6,0,P|80:96|104:64,1,119.466668125,14|0,0:0|0:0,0:0:0:0:
184,48,9522,2,0,L|248:96,2,59.7333340625,10|0|0,0:0|0:0|0:0,0:0:0:0:
40,272,9897,2,0,L|32:200,1,59.7333340625,10|0,0:0|0:0,0:0:0:0:
104,192,10147,1,0,0:0:0:0:
176,168,10272,2,0,L|240:128,2,59.7333340625,10|0|0,0:0|0:0|0:0,0:0:0:0:
368,288,10647,6,0,L|440:288,2,59.7333340625,14|8|8,0:0|0:0|0:0,0:0:0:0:
232,272,11022,1,10,0:0:0:0:
168,224,11147,1,8,0:0:0:0:
231,172,11272,1,8,0:0:0:0:
464,152,11397,2,0,L|464:88,1,59.7333340625,14|8,0:0|0:0,0:0:0:0:
384,88,11647,1,8,0:0:0:0:
176,88,11772,2,0,L|104:88,2,59.7333340625,10|8|8,0:0|0:0|0:0,0:0:0:0:
384,168,12147,5,4,0:2:0:0:
112,312,13272,1,2,0:3:0:0:
72,272,13365,1,2,0:3:0:0:
112,248,13459,1,2,0:3:0:0:
296,248,13647,2,0,P|432:192|464:80,1,240,2|0,0:0|0:0,0:0:0:0:
224,104,14772,1,2,0:3:0:0:
472,336,15147,6,0,L|200:336,1,240,2|0,0:0|0:0,0:0:0:0:
424,248,16272,2,0,L|424:192,1,40,2|2,0:3|0:3,0:0:0:0:
368,192,16459,1,2,0:3:0:0:
159,190,16647,6,0,P|87:118|175:38,1,240,2|0,0:0|0:0,0:0:0:0:
392,48,17772,1,2,0:3:0:0:
104,328,18147,6,0,L|368:328,1,240,2|0,0:0|0:3,0:0:0:0:
128,312,19272,1,2,0:3:0:0:
80,280,19365,1,2,0:3:0:0:
128,240,19459,1,2,0:3:0:0:
332,236,19647,6,0,P|366:173|296:120,1,160,2|0,0:0|0:0,0:0:0:0:
192,120,20209,1,2,0:0:0:0:
376,304,20584,2,0,L|456:304,2,80,0|2|0,0:0|0:0|0:0,0:0:0:0:
171,307,21147,6,0,P|152:224|216:192,1,160,2|0,0:3|0:0,0:0:0:0:
312,192,21709,1,2,0:0:0:0:
136,112,22084,2,0,L|232:112,2,80,0|2|2,0:0|0:0|0:3,0:0:0:0:
408,312,22647,6,0,P|456:248|376:184,1,176.000005371094,2|2,0:3|0:0,0:0:0:0:
296,192,23209,1,2,0:3:0:0:
248,176,23303,1,2,0:3:0:0:
216,144,23397,1,2,0:3:0:0:
200,88,23490,1,2,0:3:0:0:
224,32,23584,1,2,0:3:0:0:
272,16,23678,1,2,0:3:0:0:
328,16,23772,1,2,0:3:0:0:
80,310,23959,6,0,L|72:190,1,88.000002685547,2|0,0:3|0:0,0:0:0:0:
240,176,24334,1,2,0:0:0:0:
70,127,24522,1,2,0:0:0:0:
328,248,25459,2,0,L|328:200,1,44.0000013427735,2|2,0:3|0:3,0:0:0:0:
232,192,25647,6,0,L|152:112,1,88.000002685547,2|0,0:0|0:0,0:0:0:0:
272,64,26022,2,0,L|280:184,1,88.000002685547,2|0,0:0|0:0,0:0:0:0:
168,240,26397,2,0,L|280:240,1,88.000002685547,2|0,0:0|0:0,0:0:0:0:
352,208,26772,1,2,0:0:0:0:
232,168,26959,1,0,0:0:0:0:
424,144,27147,6,0,L|432:32,1,88.000002685547,2|0,0:0|0:0,0:0:0:0:
328,304,27522,2,0,L|232:248,1,88.000002685547,2|0,0:0|0:0,0:0:0:0:
168,216,27897,2,0,L|256:160,1,88.000002685547,2|0,0:0|0:0,0:0:0:0:
344,144,28272,2,0,L|360:48,1,88.000002685547,2|0,0:0|0:0,0:0:0:0:
80,304,28647,6,0,P|32:224|96:176,1,176.000005371094,2|2,0:0|0:0,0:0:0:0:
184,160,29209,2,0,P|232:112|168:40,1,176.000005371094,0|0,0:0|0:0,0:0:0:0:
72,40,29772,1,2,0:3:0:0:
336,320,29959,6,0,L|448:320,1,88.000002685547,2|0,0:3|0:0,0:0:0:0:
304,240,30334,2,0,L|232:160,1,88.000002685547,2|2,0:0|0:3,0:0:0:0:
448,160,30709,2,0,P|488:96|400:40,1,176.000005371094,2|2,0:0|0:3,0:0:0:0:
320,200,31272,1,2,0:0:0:0:
416,272,31459,1,2,0:3:0:0:
232,328,31647,6,0,L|144:328,1,88.000002685547,2|0,0:0|0:0,0:0:0:0:
256,232,32022,1,0,0:0:0:0:
416,208,32209,2,0,P|456:152|368:80,1,176.000005371094,2|0,0:0|0:0,0:0:0:0:
288,160,32772,2,0,L|280:56,1,88.000002685547,2|0,0:0|0:0,0:0:0:0:
472,288,33147,6,0,L|368:288,1,88.000002685547,2|0,0:0|0:0,0:0:0:0:
280,240,33522,2,0,L|392:240,1,88.000002685547,2|0,0:0|0:0,0:0:0:0:
464,184,33897,2,0,L|472:72,1,88.000002685547,2|2,0:0|0:3,0:0:0:0:
352,296,34272,1,2,0:3:0:0:
400,296,34365,1,2,0:3:0:0:
448,296,34459,1,2,0:3:0:0:
160,232,34647,6,0,P|128:128|184:120,1,176.000005371094,2|2,0:0|0:0,0:0:0:0:
248,112,35209,1,2,0:3:0:0:
96,80,35584,2,0,L|88:184,1,88.000002685547,2|0,0:0|0:0,0:0:0:0:
352,320,35959,6,0,P|400:264|328:192,1,176.000005371094,2|0,0:3|0:0,0:0:0:0:
240,184,36522,2,0,L|232:80,1,88.000002685547,2|0,0:0|0:0,0:0:0:0:
328,64,36897,2,0,L|408:128,2,88.000002685547,2|0|2,0:0|0:0|0:0,0:0:0:0:
216,240,37459,1,2,0:3:0:0:
400,336,37647,6,0,L|496:320,1,88.000002685547,2|0,0:3|0:0,0:0:0:0:
392,256,38022,2,0,L|304:216,1,88.000002685547,2|0,0:0|0:0,0:0:0:0:
216,184,38397,2,0,L|208:72,1,88.000002685547,2|0,0:0|0:0,0:0:0:0:
320,128,38772,2,0,L|328:24,1,88.000002685547,2|2,0:0|0:3,0:0:0:0:
120,296,39147,6,0,P|72:232|152:184,1,176.000005371094,2|2,0:3|0:0,0:0:0:0:
312,176,39897,2,0,L|400:128,2,88.000002685547,2|0|2,0:0|0:0|0:0,0:0:0:0:
128,248,40459,1,2,0:3:0:0:
312,256,40647,6,0,L|320:144,1,88.000002685547,2|0,0:3|0:0,0:0:0:0:
224,168,41022,2,0,L|216:64,1,88.000002685547,2|0,0:0|0:0,0:0:0:0:
304,72,41397,2,0,L|216:0,1,88.000002685547,2|0,0:0|0:0,0:0:0:0:
72,88,41772,2,0,L|176:16,1,88.000002685547,2|0,0:0|0:0,0:0:0:0:
336,256,42147,6,0,P|384:192|304:128,1,176.000005371094,2|0,0:3|0:0,0:0:0:0:
192,216,42897,2,0,L|176:104,1,88.000002685547,0|2,0:0|0:0,0:0:0:0:
272,104,43272,2,0,L|352:32,1,88.000002685547,2|0,0:3|0:0,0:0:0:0:
88,320,43647,6,0,P|48:224|104:200,1,176.000005371094,2|0,0:3|0:0,0:0:0:0:
192,200,44209,1,2,0:3:0:0:
280,136,44397,2,0,L|104:104,1,176.000005371094,2|2,0:0|0:0,0:0:0:0:
192,224,44959,1,2,0:3:0:0:
376,216,45147,6,0,L|384:112,1,88.000002685547,2|0,0:0|0:0,0:0:0:0:
280,336,45522,2,0,L|272:232,1,88.000002685547,2|0,0:0|0:0,0:0:0:0:
368,208,45897,2,0,L|264:208,1,88.000002685547,2|2,0:0|0:3,0:0:0:0:
112,152,46272,2,0,L|72:112,2,44.0000013427735,2|2|2,0:3|0:3|0:3,0:0:0:0:
368,320,46647,6,0,P|408:224|344:192,1,176.000005371094,6|6,0:3|0:0,0:0:0:0:
256,176,47209,2,0,L|248:80,1,88.000002685547,2|0,0:3|0:0,0:0:0:0:
360,72,47584,2,0,L|448:24,1,88.000002685547,2|0,0:3|0:0,0:0:0:0:
176,336,47959,6,0,P|80:304|24:224,1,176.000005371094,4|8,0:0|0:3,0:0:0:0:
136,224,48522,2,0,L|248:200,1,88.000002685547,2|2,0:0|0:0,0:0:0:0:
136,112,48897,1,2,0:0:0:0:
224,56,49084,1,2,0:3:0:0:
56,288,49272,2,0,L|40:160,1,88.000002685547,8|2,0:3|0:3,0:0:0:0:
336,256,49647,6,0,P|384:208|320:120,1,184.000003509522,4|8,0:3|0:0,0:0:0:0:
224,144,50209,2,0,P|232:64|344:24,1,184.000003509522,2|2,0:0|0:0,0:0:0:0:
496,312,50772,2,0,L|400:240,1,92.0000017547608,8|0,0:0|0:0,0:0:0:0:
136,288,51147,6,0,L|152:176,1,92.0000017547608,2|0,0:0|0:0,0:0:0:0:
328,208,51522,2,0,L|312:104,1,92.0000017547608,8|2,0:0|0:0,0:0:0:0:
152,128,51897,2,0,L|160:32,1,92.0000017547608,2|2,0:3|0:0,0:0:0:0:
352,40,52272,2,0,L|408:40,2,46.0000008773804,8|2|2,0:0|0:3|0:3,0:0:0:0:
88,296,52647,6,0,P|40:216|128:176,1,184.000003509522,4|8,0:0|0:0,0:0:0:0:
208,280,53209,2,0,P|296:264|360:176,1,184.000003509522,2|2,0:0|0:0,0:0:0:0:
160,184,53772,2,0,L|136:88,1,92.0000017547608,8|2,0:0|0:3,0:0:0:0:
400,160,54147,5,2,0:3:0:0:
440,128,54240,1,2,0:3:0:0:
448,80,54334,1,2,0:3:0:0:
416,48,54428,1,2,0:3:0:0:
368,40,54522,1,8,0:0:0:0:
480,240,54709,1,2,0:0:0:0:
296,248,54897,5,2,0:3:0:0:
256,216,54990,1,2,0:3:0:0:
248,168,55084,1,2,0:0:0:0:
280,136,55178,1,2,0:3:0:0:
328,128,55272,1,8,0:0:0:0:
216,328,55459,1,2,0:3:0:0:
488,336,55647,6,0,P|472:280|336:216,1,184.000003509522,4|8,0:0|0:0,0:0:0:0:
272,200,56209,2,0,P|224:136|320:72,1,184.000003509522,2|2,0:0|0:0,0:0:0:0:
456,72,56772,2,0,L|472:208,1,92.0000017547608,8|2,0:0|0:3,0:0:0:0:
184,320,57147,5,2,0:0:0:0:
144,304,57240,1,2,0:3:0:0:
128,256,57334,1,2,0:3:0:0:
144,208,57428,1,2,0:3:0:0:
192,192,57522,1,8,0:0:0:0:
352,192,57709,1,2,0:0:0:0:
192,352,57897,6,0,L|184:280,1,46.0000008773804,2|2,0:3|0:3,0:0:0:0:
232,272,58084,2,0,L|296:272,2,46.0000008773804,2|2|8,0:0|0:3|0:0,0:0:0:0:
120,272,58459,1,2,0:3:0:0:
376,232,58647,6,0,P|424:176|352:96,1,184.000003509522,4|8,0:0|0:0,0:0:0:0:
264,96,59209,1,2,0:0:0:0:
104,296,59397,2,0,L|216:296,1,92.0000017547608,2|0,0:0|0:0,0:0:0:0:
384,256,59772,2,0,L|440:144,1,92.0000017547608,8|0,0:0|0:0,0:0:0:0:
128,184,60147,6,0,P|88:120|176:56,1,184.000003509522,4|8,0:0|0:0,0:0:0:0:
344,56,60709,2,0,L|344:120,1,46.0000008773804,2|2,0:3|0:3,0:3:0:0:
312,144,60897,1,2,0:0:0:0:
104,272,61084,2,0,L|8:272,2,92.0000017547608,2|8|2,0:0|0:0|0:3,0:0:0:0:
360,224,61647,6,0,L|376:144,3,46.0000008773804,6|2|2|2,0:3|0:3|0:3|0:3,0:0:0:0:
296,304,62022,1,8,0:0:0:0:
257,280,62115,1,2,0:3:0:0:
257,232,62209,1,2,0:0:0:0:
297,216,62303,1,2,0:3:0:0:
232,176,62397,6,0,L|208:112,3,46.0000008773804,2|2|2|2,0:3|0:3|0:0|0:3,0:0:0:0:
272,176,62772,1,8,0:0:0:0:
152,208,62959,1,2,0:3:0:0:
408,320,63147,5,2,0:0:0:0:
448,288,63240,1,2,0:3:0:0:
448,240,63334,1,2,0:3:0:0:
400,224,63428,1,2,0:3:0:0:
328,200,63522,2,0,L|304:128,3,46.0000008773804,8|2|2|2,0:0|0:3|0:0|0:3,0:0:0:0:
368,160,63897,5,2,0:3:0:0:
408,128,63990,1,2,0:3:0:0:
368,88,64084,1,2,0:0:0:0:
312,80,64178,1,2,0:3:0:0:
312,24,64272,1,8,0:0:0:0:
408,24,64459,1,2,0:3:0:0:
136,320,64647,6,0,L|128:248,1,46.0000008773804,2|2,0:0|0:3,0:0:0:0:
192,256,64834,2,0,L|200:184,1,46.0000008773804,2|2,0:3|0:3,0:0:0:0:
128,192,65022,1,8,0:0:0:0:
80,168,65115,1,2,0:3:0:0:
80,112,65209,1,2,0:0:0:0:
128,88,65303,1,2,0:3:0:0:
208,80,65397,5,2,0:3:0:0:
104,40,65584,1,2,0:0:0:0:
288,112,65772,2,0,L|384:112,1,92.0000017547608,8|0,0:0|0:0,0:0:0:0:
128,328,66147,6,0,L|8:328,1,92.0000017547608,2|2,0:0|0:3,0:0:0:0:
88,304,66428,1,2,0:3:0:0:
120,248,66522,1,8,0:0:0:0:
96,192,66615,1,2,0:3:0:0:
40,168,66709,1,2,0:0:0:0:
296,96,66897,2,0,L|400:144,1,92.0000017547608,2|0,0:0|0:0,0:0:0:0:
192,200,67272,2,0,L|88:256,1,92.0000017547608,2|0,0:0|0:0,0:0:0:0:
392,336,67647,6,0,P|448:272|376:208,1,184.000003509522,4|8,0:0|0:0,0:0:0:0:
280,200,68209,1,0,0:0:0:0:
280,112,68397,1,2,0:0:0:0:
392,96,68584,2,0,L|504:96,2,92.0000017547608,2|8|0,0:0|0:0|0:0,0:0:0:0:
128,320,69147,6,0,P|80:256|160:192,1,184.000003509522,4|8,0:0|0:0,0:0:0:0:
328,192,69709,2,0,P|384:136|288:72,1,184.000003509522,2|2,0:0|0:0,0:0:0:0:
144,64,70272,2,0,L|32:64,1,92.0000017547608,8|0,0:0|0:0,0:0:0:0:
336,328,70647,6,0,L|352:200,1,92.0000017547608,4|0,0:0|0:0,0:0:0:0:
232,144,71022,1,8,0:0:0:0:
184,120,71115,1,0,0:0:0:0:
184,80,71209,1,2,0:3:0:0:
232,56,71303,1,2,0:3:0:0:
280,80,71397,1,2,0:3:0:0:
280,120,71490,1,2,0:3:0:0:
232,144,71584,1,2,0:0:0:0:
120,144,71772,1,8,0:0:0:0:
384,312,71959,6,0,P|432:272|360:160,1,184.000003509522,4|2,0:0|0:0,0:0:0:0:
304,184,72522,2,0,L|296:64,1,92.0000017547608,8|0,0:0|0:0,0:0:0:0:
408,112,72897,2,0,L|312:168,1,92.0000017547608,2|2,0:0|0:0,0:0:0:0:
168,200,73272,2,0,L|112:200,2,40,2|2|2,0:3|0:3|0:3,0:0:0:0:
424,312,73647,6,0,P|472:264|408:200,1,160,4|8,0:3|0:0,0:0:0:0:
304,200,74209,1,0,0:0:0:0:
112,184,74397,2,0,P|72:136|144:64,1,160,2|8,0:0|0:0,0:0:0:0:
416,304,75147,6,0,L|232:304,1,160,2|8,0:0|0:0,0:0:0:0:
176,248,75709,1,2,0:3:0:0:
264,208,75897,2,0,L|272:96,1,80,2|2,0:0|0:3,0:0:0:0:
88,88,76272,2,0,L|32:88,2,40,2|2|2,0:3|0:3|0:3,0:0:0:0:
352,88,76647,6,0,P|392:168|336:200,1,160,4|8,0:3|0:0,0:0:0:0:
168,328,77209,2,0,L|160:216,1,80,2|0,0:3|0:0,0:0:0:0:
344,240,77584,2,0,L|352:136,1,80,2|8,0:0|0:0,0:0:0:0:
72,160,77959,1,4,0:0:0:0:
256,192,78147,12,2,81053,0:3:0:0:
