osu file format v14

[General]
AudioFilename: audio.mp3
AudioLeadIn: 0
PreviewTime: 75614
Countdown: 0
SampleSet: Soft
StackLeniency: 0.7
Mode: 0
LetterboxInBreaks: 0
WidescreenStoryboard: 1

[Editor]
Bookmarks: 6549,20362,34175,47988,61801,75614,89427,103240,117053,130866,144679,158492,172305
DistanceSpacing: 1.1
BeatDivisor: 4
GridSize: 4
TimelineZoom: 1

[Metadata]
Title:50 Reais
TitleUnicode:50 Reais
Artist:Naiara Azevedo Ft. Maiara e Maraisa
ArtistUnicode:Naiara Azevedo Ft. Maiara e Maraisa
Creator:MkGuh
Version:Medio
Source:
Tags:brazil portuguese brasil portugues sertanejo Marianna Lumael Kalindraz Trynna Near Kuron-Kun Net0 Ataraxia pagode samba cultura famoso maraĆ­sa
BeatmapID:1523278
BeatmapSetID:652903

[Difficulty]
HPDrainRate:2.9
CircleSize:3.3
OverallDifficulty:4.3
ApproachRate:4.9
SliderMultiplier:1.1
SliderTickRate:1

[Events]
//Background and Video events
0,0,"maxresdefault.jpg",0,0
Video,203,"50 Reais 4.avi"
//Break Periods
2,103440,115842
//Storyboard Layer 0 (Background)
//Storyboard Layer 1 (Fail)
//Storyboard Layer 2 (Pass)
//Storyboard Layer 3 (Foreground)
//Storyboard Sound Samples

[TimingPoints]
1370,431.654676258993,4,2,0,70,1,0
20360,-142.857142857143,4,2,0,60,0,0
34173,-100,4,2,0,60,0,0
47986,-100,4,2,0,70,0,0
79067,-100,4,2,0,70,0,1
103240,-100,4,2,0,70,0,0
148132,-100,4,2,0,70,0,1
172305,-100,4,2,0,70,0,0

[Colours]
Combo1 : 201,201,201
Combo2 : 255,0,128
Combo3 : 0,183,183
Combo4 : 130,0,0

[HitObjects]
144,68,6549,6,0,B|120:136|155:175|192:213|160:281,2,220,4|2|2,0:0|0:0|0:0,0:0:0:0:
256,114,8708,1,8,0:0:0:0:
352,41,9139,2,0,P|403:27|459:42,1,110,2|0,0:0|1:0,0:0:0:0:
500,154,10003,2,0,L|477:270,1,110,2|8,0:0|0:0,0:0:0:0:
465,321,10650,1,0,1:0:0:0:
465,321,10866,2,0,P|410:336|349:319,1,110,2|0,0:0|1:0,0:0:0:0:
309,290,11513,1,0,0:0:0:0:
257,259,11729,2,0,P|202:247|150:259,1,110,2|8,0:0|0:0,0:0:0:0:
43,201,12593,6,0,L|29:132,2,55,2|2|4,0:0|0:0|0:3,0:0:0:0:
81,315,13456,2,0,P|135:329|196:309,1,110,4|2,0:0|0:0,0:0:0:0:
219,264,14103,1,0,1:0:0:0:
246,210,14319,2,0,P|298:196|351:210,1,110,2|0,0:0|1:0,0:0:0:0:
456,269,15182,2,0,P|443:208|465:153,1,110,2|0,0:0|1:0,0:0:0:0:
436,106,15830,1,0,1:0:0:0:
417,49,16046,2,0,L|288:35,1,110,2|0,0:0|1:0,0:0:0:0:
198,89,16909,5,2,3:0:0:0:
276,180,17341,1,4,0:3:0:0:
198,272,17772,1,8,3:0:0:0:
286,355,18204,2,0,B|345:355|345:355|393:327,1,110,0|0,1:0|1:0,0:0:0:0:
445,157,19283,2,0,P|371:133|279:164,1,165,0|0,1:0|1:0,0:0:0:0:
198,206,20362,6,0,B|144:224|106:168|48:183,1,153.999995300293,4|2,0:0|0:0,0:0:0:0:
147,44,22089,2,0,P|188:37|238:50,1,76.9999976501465,2|2,0:0|0:0,0:0:0:0:
304,65,22952,1,2,0:0:0:0:
193,193,23816,6,0,B|173:299|173:299|197:350,1,153.999995300293,2|2,0:0|0:0,0:0:0:0:
334,248,25542,2,0,L|420:243,1,76.9999976501465,2|2,0:0|0:0,0:0:0:0:
431,161,26405,2,0,L|340:165,1,76.9999976501465,2|0,0:0|0:0,0:0:0:0:
271,147,27269,6,0,P|254:76|310:16,2,153.999995300293,2|2|2,0:0|0:0|0:0,0:0:0:0:
260,231,29427,1,2,0:0:0:0:
182,196,29859,2,0,P|141:202|100:195,1,76.9999976501465,2|0,0:0|0:0,0:0:0:0:
40,141,30722,1,2,0:0:0:0:
87,303,31585,1,2,0:0:0:0:
256,192,32449,12,4,34175,0:0:0:0:
357,30,35039,6,0,P|322:91|390:219,1,220,8|2,0:0|0:0,0:0:0:0:
312,314,36334,1,2,0:0:0:0:
205,257,36765,2,0,P|165:242|100:257,1,110,8|2,0:0|0:0,0:0:0:0:
39,151,37628,5,2,0:0:0:0:
125,66,38060,2,0,L|198:75,1,55,2|0,0:0|0:0,0:0:0:0:
224,114,38492,2,0,L|342:126,1,110,8|2,0:0|0:0,0:0:0:0:
429,51,39355,1,2,0:0:0:0:
491,154,39787,1,2,0:0:0:0:
401,235,40218,1,8,0:0:0:0:
401,235,40434,2,0,L|411:344,1,110,2|0,0:0|0:0,0:0:0:0:
350,344,41082,6,0,P|298:334|241:342,1,110,2|0,0:0|0:0,0:0:0:0:
238,220,41945,2,0,P|185:232|115:211,1,110,8|2,0:0|0:0,0:0:0:0:
67,117,42808,1,2,0:0:0:0:
137,18,43240,1,2,0:0:0:0:
245,74,43672,2,0,L|376:85,1,110,8|0,0:0|0:0,0:0:0:0:
467,38,44535,6,0,B|442:195|442:195|481:251,1,220,2|8,0:0|0:0,0:0:0:0:
375,311,45830,2,0,L|313:301,1,55,4|0,0:3|0:0,0:0:0:0:
263,282,46262,2,0,L|144:299,1,110,4|2,0:2|0:0,0:0:0:0:
73,207,47125,2,0,L|201:188,1,110,8|8,0:0|0:0,0:0:0:0:
207,72,47988,6,0,P|287:107|301:189,1,165,4|8,0:0|0:0,0:0:0:0:
301,237,48852,2,0,P|315:291|365:335,1,110,2|8,0:0|0:0,0:0:0:0:
422,229,49715,1,2,0:0:0:0:
377,116,50146,2,0,L|304:123,1,55,8|8,0:0|0:0,0:0:0:0:
267,147,50578,2,0,L|142:144,1,110,2|8,0:0|0:0,0:0:0:0:
55,84,51441,5,2,0:0:0:0:
70,204,51873,2,0,P|77:282|67:315,1,110,8|2,0:0|0:0,0:0:0:0:
177,257,52736,1,8,0:0:0:0:
274,329,53168,1,2,0:0:0:0:
337,225,53600,2,0,P|388:235|413:231,2,55,8|8|2,0:0|0:0|0:0,0:0:0:0:
268,124,54463,1,8,0:0:0:0:
160,68,54895,6,0,P|99:144|104:228,1,165,2|8,0:0|0:0,0:0:0:0:
106,268,55758,2,0,P|152:306|217:300,1,110,2|8,0:0|0:0,0:0:0:0:
302,242,56621,1,2,0:0:0:0:
357,265,56837,2,0,L|490:248,1,110,0|8,0:0|0:0,0:0:0:0:
444,194,57485,2,0,L|456:76,1,110,2|8,0:0|0:0,0:0:0:0:
336,110,58348,6,0,L|156:94,1,165,2|8,0:0|0:0,0:0:0:0:
126,135,59211,1,0,0:0:0:0:
55,233,59643,1,8,0:0:0:0:
144,317,60075,2,0,P|203:328|257:306,1,110,0|2,1:0|0:0,0:0:0:0:
289,266,60722,1,2,0:0:0:0:
304,207,60938,2,0,L|297:134,2,55,2|4|8,0:0|0:3|0:3,0:0:0:0:
395,290,61801,5,4,0:0:0:0:
460,187,62233,1,8,0:0:0:0:
407,157,62449,1,0,0:0:0:0:
358,121,62664,2,0,P|343:69|368:9,1,110,2|2,0:0|0:0,0:0:0:0:
243,47,63528,1,0,0:0:0:0:
243,47,63744,2,0,L|112:37,1,110,2|0,0:0|1:0,0:0:0:0:
73,31,64391,2,0,P|85:94|69:145,1,110,2|2,0:0|0:0,0:0:0:0:
21,246,65254,6,0,P|6:300|21:355,1,110,2|8,0:0|0:0,0:0:0:0:
77,369,65902,1,0,1:0:0:0:
138,370,66118,2,0,L|262:358,1,110,2|2,0:0|0:0,0:0:0:0:
347,296,66981,1,2,0:0:0:0:
256,215,67413,1,8,0:0:0:0:
337,125,67844,2,0,P|355:72|330:5,1,110,0|0,0:0|0:0,0:0:0:0:
283,5,68492,1,2,0:0:0:0:
234,41,68708,6,0,L|104:53,1,110,2|8,0:0|0:0,0:0:0:0:
84,96,69355,2,0,L|43:276,1,165,0|0,1:0|0:0,0:0:0:0:
159,210,70434,1,2,0:0:0:0:
228,308,70866,1,2,0:0:0:0:
328,241,71298,2,0,L|312:117,1,110,2|2,0:0|0:0,0:0:0:0:
385,34,72161,5,0,1:0:0:0:
471,119,72593,2,0,L|459:191,1,55,0|0,1:0|0:0,0:0:0:0:
451,232,73024,2,0,L|397:264,1,55,0|0,1:0|0:0,0:0:0:0:
349,286,73456,2,0,L|215:271,1,110,0|4,1:0|1:0,0:0:0:0:
144,119,74535,2,0,P|228:120|284:182,1,165,2|4,0:0|3:0,0:0:0:0:
347,276,75614,5,4,1:0:0:0:
117,353,76477,1,2,0:0:0:0:
119,110,77341,1,4,0:0:0:0:
204,195,77772,1,4,3:0:0:0:
258,86,78204,2,0,L|321:91,1,55,0|4,1:0|3:0,0:0:0:0:
365,119,78636,2,0,L|491:130,1,110,0|4,1:0|0:0,0:0:0:0:
388,214,79499,6,0,P|372:251|376:288,1,55,8|0,0:0|1:0,0:0:0:0:
377,325,79931,2,0,P|335:367|266:358,1,110,2|0,0:0|1:0,0:0:0:0:
175,320,80794,2,0,L|192:188,1,110,2|8,0:0|0:0,0:0:0:0:
140,174,81441,1,0,1:0:0:0:
96,132,81657,2,0,L|75:2,1,110,2|0,0:0|1:0,0:0:0:0:
167,105,82521,6,0,P|224:92|293:117,1,110,2|8,0:0|0:0,0:0:0:0:
332,93,83168,1,0,1:0:0:0:
375,51,83384,2,0,P|354:109|381:172,1,110,2|0,0:0|1:0,0:0:0:0:
422,261,84247,1,2,0:0:0:0:
321,331,84679,1,8,0:0:0:0:
268,300,84895,1,0,1:0:0:0:
218,267,85111,2,0,L|92:299,1,110,8|0,0:0|1:0,0:0:0:0:
48,190,85974,6,0,P|90:138|201:122,1,165,4|0,0:0|1:0,0:0:0:0:
240,134,86837,1,2,0:0:0:0:
347,79,87269,1,0,1:0:0:0:
416,177,87700,2,0,P|396:226|408:293,1,110,2|8,0:0|0:0,0:0:0:0:
355,319,88348,1,0,1:0:0:0:
297,301,88564,2,0,B|245:267|181:293,1,110,2|0,0:0|1:0,0:0:0:0:
82,235,89427,5,4,0:0:0:0:
163,145,89859,2,0,P|178:90|149:31,1,110,8|2,0:0|0:0,0:0:0:0:
272,85,90722,1,0,1:0:0:0:
329,65,90938,1,0,0:0:0:0:
383,38,91154,2,0,L|502:51,1,110,4|4,0:0|0:0,0:0:0:0:
505,170,92017,2,0,L|395:157,1,110,4|0,0:0|1:0,0:0:0:0:
274,158,92880,6,0,P|243:204|248:275,1,110,4|8,0:0|0:0,0:0:0:0:
232,317,93528,1,0,1:0:0:0:
176,341,93744,2,0,P|126:357|58:327,1,110,2|8,0:0|0:0,0:0:0:0:
23,229,94607,2,0,P|28:173|43:114,1,110,2|8,0:0|0:0,0:0:0:0:
88,82,95254,1,0,1:0:0:0:
148,77,95470,2,0,B|161:135|161:135|165:207,1,110,2|0,0:0|1:0,0:0:0:0:
230,83,96334,6,0,P|279:109|336:99,1,110,2|8,0:0|0:0,0:0:0:0:
370,146,96981,1,0,1:0:0:0:
372,206,97197,2,0,P|429:205|477:237,1,110,2|0,0:0|1:0,0:0:0:0:
366,289,98060,2,0,L|265:363,1,110,2|8,0:0|0:0,0:0:0:0:
217,341,98708,1,0,1:0:0:0:
174,298,98923,2,0,P|152:215|166:184,1,110,2|0,0:0|1:0,0:0:0:0:
207,83,99787,5,4,0:0:0:0:
320,86,100218,2,0,L|375:76,1,55,8|0,0:0|1:0,0:0:0:0:
434,69,100650,1,0,1:0:0:0:
477,182,101082,1,2,0:0:0:0:
256,192,101513,12,4,103240,0:0:0:0:
64,228,117053,6,0,P|72:176|176:100,1,165,4|8,0:0|0:0,0:0:0:0:
208,124,117916,2,0,P|260:136|320:120,1,110,0|8,1:0|0:0,0:0:0:0:
420,64,118780,1,0,1:0:0:0:
496,160,119211,2,0,L|480:220,2,55,2|8|0,0:0|0:0|1:0,0:0:0:0:
420,64,120075,1,8,0:0:0:0:
312,120,120506,6,0,P|256:132|200:120,1,110,0|2,1:0|0:0,0:0:0:0:
152,92,121154,1,8,0:0:0:0:
96,112,121370,2,0,L|104:236,1,110,0|8,1:0|0:0,0:0:0:0:
64,336,122233,2,0,P|117:344|180:316,1,110,0|2,1:0|0:0,0:0:0:0:
210,281,122880,1,2,0:0:0:0:
250,235,123096,1,0,1:0:0:0:
332,328,123528,1,8,0:0:0:0:
408,236,123959,6,0,L|412:112,1,110,0|2,1:0|0:0,0:0:0:0:
380,76,124607,1,8,0:0:0:0:
340,28,124823,2,0,P|288:48|224:16,1,110,0|8,1:0|0:0,0:0:0:0:
117,22,125686,1,0,1:0:0:0:
77,66,125902,2,0,L|85:230,1,165,2|0,0:0|1:0,0:0:0:0:
195,180,126981,1,8,0:0:0:0:
228,296,127413,6,0,P|288:308|348:280,1,110,0|2,1:0|0:0,0:0:0:0:
384,260,128060,1,8,0:0:0:0:
432,224,128276,2,0,L|424:88,1,110,0|2,1:0|0:0,0:0:0:0:
316,64,129139,2,0,B|256:56|256:56|216:24|216:24|144:16,1,165,0|0,1:0|1:0,0:0:0:0:
108,44,130003,2,0,P|88:100|112:160,1,110,2|4,0:0|3:0,0:0:0:0:
168,248,130866,5,4,0:0:0:0:
252,160,131298,2,0,L|320:188,1,55,2|0,0:0|1:0,0:0:0:0:
356,208,131729,2,0,P|412:220|464:208,2,110,0|0|0,1:0|1:0|1:0,0:0:0:0:
416,103,133024,2,0,L|371:71,1,55,0|0,0:0|1:0,0:0:0:0:
317,43,133456,2,0,P|256:55|236:112,1,110,8|0,0:0|0:0,0:0:0:0:
114,87,134319,6,0,P|78:163|126:247,1,165,0|0,1:0|1:0,0:0:0:0:
164,260,135182,2,0,L|284:244,1,110,0|0,1:0|1:0,0:0:0:0:
388,284,136046,2,0,L|408:172,1,110,0|8,1:0|0:0,0:0:0:0:
353,148,136693,2,0,L|334:81,1,55,0|2,1:0|0:0,0:0:0:0:
227,44,137341,1,2,0:0:0:0:
113,117,137772,6,0,P|89:167|127:283,2,165,0|0|0,1:0|1:0|1:0,0:0:0:0:
208,192,139499,1,0,1:0:0:0:
272,88,139931,1,2,0:0:0:0:
368,164,140362,2,0,P|420:176|480:160,1,110,2|0,0:0|1:0,0:0:0:0:
420,54,141226,5,0,1:0:0:0:
303,85,141657,1,0,1:0:0:0:
187,49,142089,1,0,1:0:0:0:
88,116,142521,1,0,1:0:0:0:
96,176,142736,1,0,1:0:0:0:
104,236,142952,1,0,1:0:0:0:
248,44,143816,6,0,L|380:64,1,110,0|0,1:0|1:0,0:0:0:0:
440,148,144679,2,0,P|467:229|432:308,1,165,4|0,0:0|2:0,0:0:0:0:
384,320,145542,2,0,L|316:328,1,55,0|8,2:0|0:0,0:0:0:0:
272,348,145974,2,0,L|140:336,1,110,8|0,0:0|3:0,0:0:0:0:
64,268,146837,1,8,0:3:0:0:
172,216,147269,2,0,P|188:160|168:108,1,110,0|12,1:0|0:3,0:0:0:0:
256,24,148132,5,4,0:1:0:0:
356,96,148564,2,0,L|424:108,1,55,8|8,0:1|1:3,0:0:0:0:
472,100,148995,2,0,L|480:232,1,110,4|8,0:3|1:3,0:0:0:0:
408,308,149859,2,0,P|360:324|288:296,1,110,4|8,0:3|0:1,0:0:0:0:
256,276,150506,1,8,1:3:0:0:
204,244,150722,2,0,P|151:228|100:245,1,110,4|0,0:3|0:0,0:0:0:0:
16,160,151585,6,0,B|52:120|52:120|64:60|64:60|112:12,1,165,4|8,0:3|1:3,0:0:0:0:
152,56,152449,2,0,P|184:68|268:52,1,110,4|8,0:3|1:2,0:0:0:0:
368,12,153312,1,4,0:3:0:0:
456,96,153744,2,0,L|448:172,1,55,2|8,3:0|1:3,0:0:0:0:
392,164,154175,2,0,L|376:296,1,110,4|8,0:3|1:3,0:0:0:0:
268,220,155039,5,4,0:3:0:0:
228,264,155254,2,0,P|188:288|68:256,1,165,2|4,0:0|0:3,0:0:0:0:
148,168,156334,1,8,1:3:0:0:
32,132,156765,2,0,P|48:76|24:16,1,110,4|8,0:3|0:1,0:0:0:0:
92,12,157413,1,8,1:3:0:0:
148,36,157628,2,0,L|268:24,1,110,4|8,0:3|1:3,0:0:0:0:
380,28,158492,6,0,L|364:156,1,110,4|0,0:0|1:0,0:0:0:0:
324,180,159139,2,0,L|336:304,1,110,4|0,0:0|1:0,0:0:0:0:
288,328,159787,2,0,P|236:344|180:328,1,110,2|4,0:0|0:0,0:0:0:0:
80,268,160650,1,0,1:0:0:0:
168,184,161082,2,0,L|140:112,1,55,0|0,1:0|1:0,0:0:0:0:
124,76,161513,1,4,0:3:0:0:
244,84,161945,6,0,B|303:104|323:75|343:46|402:62,1,165,4|2,0:0|0:3,0:0:0:0:
453,91,162808,2,0,P|441:142|453:200,1,110,2|2,0:0|0:3,0:0:0:0:
395,305,163672,1,2,0:0:0:0:
275,286,164103,2,0,P|231:289|202:280,1,55,2|0,0:3|0:0,0:0:0:0:
165,261,164535,2,0,L|145:143,1,110,2|2,0:0|0:0,0:0:0:0:
77,53,165398,6,0,P|152:45|232:111,1,165,4|2,0:0|0:0,0:0:0:0:
259,142,166262,2,0,P|305:151|381:136,1,110,4|4,0:3|0:3,0:0:0:0:
475,88,167125,2,0,B|473:119|473:119|486:165|486:165|480:209,1,110,2|2,0:0|0:3,0:0:0:0:
412,294,167988,2,0,P|356:286|299:297,1,110,4|8,0:0|0:0,0:0:0:0:
189,255,168852,6,0,P|174:175|225:100,1,165,4|2,0:0|0:0,0:0:0:0:
265,72,169715,2,0,L|342:86,1,55,0|2,1:0|0:0,0:0:0:0:
369,114,170146,2,0,L|439:105,1,55,0|0,0:0|1:0,0:0:0:0:
480,129,170578,1,0,1:0:0:0:
293,282,171441,5,0,1:0:0:0:
201,203,171873,2,0,P|150:190|88:210,1,110,0|4,1:0|0:0,0:0:0:0:
154,307,172736,2,0,B|204:329|256:319|287:285|287:285|385:315,1,220,2|0,0:0|1:0,0:0:0:0:
466,251,174031,6,0,L|484:177,1,55,0|0,1:0|0:0,1:0:0:0:
453,142,174463,2,0,L|469:69,1,55,0|0,1:0|0:0,1:0:0:0:
419,47,174895,2,0,P|385:43|353:51,1,55,0|0,1:0|0:0,0:0:0:0:
314,80,175326,2,0,P|260:92|203:77,1,110,0|0,1:0|1:0,0:0:0:0:
90,111,176190,2,0,L|105:174,1,55,8|0,0:0|1:0,0:0:0:0:
111,224,176621,2,0,P|122:286|103:346,1,110,0|0,1:0|1:0,0:0:0:0:
225,290,177485,6,0,L|336:332,1,110,2|8,0:0|0:0,0:0:0:0:
381,301,178132,1,0,1:0:0:0:
435,275,178348,1,2,0:0:0:0:
345,193,178780,2,0,L|353:114,1,55,0|0,1:0|1:0,0:0:0:0:
339,78,179211,6,0,L|210:102,1,110,4|8,0:0|0:0,0:0:0:0:
187,141,179859,2,0,L|23:126,1,165,8|8,1:2|1:2,0:0:0:0:
100,218,180938,1,0,1:0:0:0:
15,305,181370,2,0,L|29:370,2,55,8|2|0,0:0|0:0|1:0,0:0:0:0:
100,218,182233,1,0,1:0:0:0:
182,305,182664,6,0,P|253:329|345:296,1,165,0|0,1:0|1:0,0:0:0:0:
372,253,183528,2,0,B|369:217|369:217|379:181|379:181|376:129,1,110,2|0,0:0|1:0,0:0:0:0:
301,50,184391,1,0,1:0:0:0:
256,192,184607,12,6,186334,0:0:0:0:
