osu file format v14

[General]
AudioFilename: audio.mp3
AudioLeadIn: 0
PreviewTime: 59121
Countdown: 0
SampleSet: Soft
StackLeniency: 0.7
Mode: 0
LetterboxInBreaks: 0
WidescreenStoryboard: 1

[Editor]
DistanceSpacing: 1
BeatDivisor: 4
GridSize: 4
TimelineZoom: 1.5

[Metadata]
Title:Zettai Kibou Birthday
TitleUnicode:絶対希望バースデー
Artist:Nagito Komaeda(cv.Megumi Ogata)
ArtistUnicode:狛枝凪斗(cv.緒方恵美)
Creator:Chaoslitz
Version:Hope
Source:ダンガンロンパ3-The End of 希望ヶ峰学園- 絶望編
Tags:danganronpa dangan ronpa hope's peak academy side despair tv size ed ending
BeatmapID:1251792
BeatmapSetID:520039

[Difficulty]
HPDrainRate:6
CircleSize:4
OverallDifficulty:8
ApproachRate:9
SliderMultiplier:1.6
SliderTickRate:1

[Events]
//Background and Video events
0,0,"bg.jpg",0,0
//Break Periods
//Storyboard Layer 0 (Background)
//Storyboard Layer 1 (Fail)
//Storyboard Layer 2 (Pass)
//Storyboard Layer 3 (Foreground)
//Storyboard Sound Samples

[TimingPoints]
455,333.333333333333,4,2,0,40,1,0
1121,-300,4,2,0,40,0,0
1204,-300,4,2,0,10,0,0
2121,-300,4,2,1,40,0,0
2454,-133.333333333333,4,2,1,50,0,0
2788,-100,4,2,1,60,0,0
3121,-111.111111111111,4,2,1,70,0,0
13121,-66.6666666666667,4,2,1,70,0,0
13788,-125,4,2,1,60,0,0
23454,-142.857142857143,4,2,1,60,0,0
24454,-111.111111111111,4,2,1,60,0,0
25454,-111.111111111111,4,2,1,10,0,0
25621,-111.111111111111,4,2,1,60,0,0
35121,-142.857142857143,4,2,1,60,0,0
35621,-111.111111111111,4,2,1,60,0,0
36121,-142.857142857143,4,2,1,60,0,0
36621,-111.111111111111,4,2,1,60,0,0
37788,-142.857142857143,4,2,1,60,0,0
38288,-111.111111111111,4,2,1,60,0,0
38788,-142.857142857143,4,2,1,60,0,0
39288,-111.111111111111,4,2,1,60,0,0
40121,-142.857142857143,4,2,1,60,0,0
40454,-125,4,2,1,60,0,0
45788,-142.857142857143,4,2,1,50,0,0
49788,-100,4,2,1,60,0,0
51121,-125,4,2,1,70,0,0
59121,-100,4,2,1,80,0,1
61621,-125,4,2,1,80,0,1
64454,-100,4,2,1,80,0,1
66954,-125,4,2,1,80,0,1
69788,-100,4,2,1,80,0,1
72288,-125,4,2,1,80,0,1
78454,-111.111111111111,4,2,1,80,0,1
83121,-125,4,2,1,80,0,0
87121,-125,4,2,1,80,0,0
87454,-125,4,2,1,70,0,0
87788,-125,4,2,1,60,0,0
88121,-125,4,2,1,50,0,0
88454,-125,4,2,1,40,0,0
88788,-125,4,2,1,30,0,0
89121,-125,4,2,1,20,0,0
89454,-125,4,2,1,10,0,0
89788,-125,4,2,1,5,0,0

[Colours]
Combo1 : 196,84,211
Combo2 : 84,237,254
Combo3 : 33,231,92
Combo4 : 241,75,79
Combo5 : 84,134,252

[HitObjects]
256,37,1121,6,0,B|246:90|246:90|266:139|266:139|255:193,1,160
333,83,2454,1,8,0:0:0:0:
333,83,2538,1,0,0:0:0:0:
333,83,2621,2,8,L|362:78,1,30.0000011444092,8|8,0:1|0:1,0:1:0:0:
178,147,2788,6,0,P|121:157|71:126,1,120,4|0,0:3|0:0,0:0:0:0:
55,102,3121,6,0,P|51:149|46:186,1,71.9999978027344,4|0,0:0|0:0,0:0:0:0:
92,251,3454,2,0,P|98:296|101:335,1,71.9999978027344,2|0,0:3|0:0,0:0:0:0:
192,368,3788,2,0,P|260:356|286:292,1,143.999995605469,8|2,0:1|0:3,0:0:0:0:
256,192,4288,1,0,0:0:0:0:
386,260,4454,6,0,P|381:300|376:342,1,71.9999978027344,8|0,0:1|0:0,0:0:0:0:
286,292,4788,1,2,0:3:0:0:
469,370,4954,2,0,P|476:303|483:222,1,143.999995605469
342,150,5454,1,2,0:3:0:0:
256,192,5621,1,8,0:1:0:0:
170,150,5788,6,0,P|151:105|195:24,1,143.999995605469,8|2,0:1|0:3,0:0:0:0:
319,25,6288,2,0,P|360:82|342:150,1,143.999995605469
256,192,6788,2,0,P|251:229|262:266,1,71.9999978027344,2|0,0:3|0:0,0:0:0:0:
312,351,7121,6,0,L|463:338,1,143.999995605469,8|2,0:1|0:3,0:0:0:0:
508,255,7621,1,0,0:0:0:0:
448,177,7788,1,2,0:3:0:0:
416,159,7871,1,0,3:0:0:0:
381,155,7954,1,0,3:0:0:0:
346,164,8037,1,0,3:0:0:0:
318,186,8121,1,8,0:0:0:0:
290,208,8204,1,0,3:0:0:0:
255,217,8287,1,0,3:0:0:0:
220,213,8370,1,0,3:0:0:0:
189,196,8454,5,8,0:1:0:0:
238,44,8621,1,0,0:0:0:0:
238,44,8788,2,0,P|243:79|246:115,1,71.9999978027344,0|8,0:0|0:1,0:0:0:0:
189,196,9121,2,0,P|119:208|61:169,1,143.999995605469,0|8,3:0|0:1,0:0:0:0:
139,114,9621,1,0,0:0:0:0:
290,208,9788,6,0,P|287:243|283:279,1,71.9999978027344,2|0,0:3|0:0,0:0:0:0:
309,371,10121,1,0,0:0:0:0:
216,345,10288,2,0,P|159:325|92:370,1,143.999995605469,2|0,0:3|0:0,0:0:0:0:
0,273,10788,2,0,P|35:266|71:261,1,71.9999978027344,2|8,0:3|0:1,0:0:0:0:
189,196,11121,6,0,P|153:191|117:184,2,71.9999978027344,2|0|0,0:3|0:0|0:0,0:0:0:0:
261,260,11621,2,0,P|286:195|260:129,1,143.999995605469,2|0,0:3|0:0,0:0:0:0:
166,100,12121,1,2,0:3:0:0:
166,100,12288,1,0,0:0:0:0:
238,33,12454,5,0,3:0:0:0:
290,104,12621,1,8,0:1:0:0:
375,127,12788,1,0,3:0:0:0:
456,93,12954,1,0,0:0:0:0:
386,40,13121,5,2,3:3:0:0:
189,196,13343,1,2,3:3:0:0:
423,289,13566,1,2,3:3:0:0:
386,40,13788,6,0,P|382:71|377:103,1,64,4|0,0:0|0:0,0:0:0:0:
309,173,14121,1,8,0:1:0:0:
309,173,14288,2,0,P|314:204|318:236,1,64,2|0,0:0|0:0,0:0:0:0:
389,294,14621,2,0,P|335:326|274:315,1,128
201,259,15121,5,8,0:1:0:0:
188,351,15288,1,0,0:0:0:0:
115,294,15454,1,8,0:1:0:0:
274,315,15621,1,2,0:0:0:0:
191,195,15788,2,0,P|196:226|200:258,1,64,8|0,0:1|0:0,0:0:0:0:
274,315,16121,2,0,P|317:309|362:325,1,85.3333333333333,8|0,0:1|0:0,0:0:0:0:
378,357,16454,6,0,P|434:349|515:342,1,128,8|2,3:1|0:0,0:0:0:0:
483,259,16954,2,0,P|480:227|475:195,1,64,0|8,0:0|0:1,0:0:0:0:
403,145,17288,2,0,P|350:179|287:170,1,128
330,88,17788,5,8,0:1:0:0:
489,109,17955,1,2,0:0:0:0:
416,53,18121,1,8,0:1:0:0:
403,145,18288,1,0,0:0:0:0:
390,237,18454,2,0,P|421:232|453:228,1,64,8|0,0:1|0:0,0:0:0:0:
377,329,18788,2,0,P|329:323|275:317,1,96,8|0,0:1|0:0,0:0:0:0:
249,321,19121,6,0,P|208:271|223:202,1,128,8|0,0:1|0:0,0:0:0:0:
275,130,19621,1,0,0:0:0:0:
201,68,19788,2,0,P|169:71|137:75,2,64,8|0|0,0:1|0:0|0:0,0:0:0:0:
201,68,20288,1,0,0:0:0:0:
62,31,20454,6,0,P|52:61|52:92,1,64,2|0,0:0|0:0,0:0:0:0:
108,159,20788,1,8,0:1:0:0:
108,159,20954,2,0,P|117:208|69:274,1,128,2|0,0:0|0:0,0:0:0:0:
21,347,21454,2,0,P|52:351|83:359,1,64,8|0,0:1|0:0,0:0:0:0:
269,330,21788,6,0,P|208:341|156:308,1,128,8|2,3:1|0:0,0:0:0:0:
218,194,22288,2,0,P|220:225|224:257,1,64,0|8,0:0|0:1,0:0:0:0:
352,371,22621,2,0,P|357:328|359:297,1,64,0|8,0:0|0:1,0:0:0:0:
339,176,22954,1,0,0:0:0:0:
502,109,23121,6,0,L|512:204,1,96,8|0,0:1|0:0,0:0:0:0:
502,224,23454,6,0,P|463:240|422:236,1,83.9999974365235,4|0,0:3|0:0,0:0:0:0:
404,227,23788,1,4,0:3:0:0:
339,176,23954,1,8,0:1:0:0:
256,171,24121,1,2,3:0:0:0:
186,215,24288,1,8,0:3:0:0:
154,292,24454,6,0,P|158:327|161:363,1,71.9999978027344,4|0,0:0|0:0,0:0:0:0:
73,350,24788,1,2,0:0:0:0:
73,350,24954,2,0,P|69:315|66:279,1,71.9999978027344
23,182,25288,2,0,B|58:188|58:188|91:174,1,71.9999978027344,0|0,3:0|0:0,0:0:0:0:
144,98,25621,6,0,P|135:166|185:214,1,143.999995605469,8|0,0:1|0:0,0:0:0:0:
342,187,26121,1,2,0:3:0:0:
272,247,26288,2,0,P|276:277|280:318,2,71.9999978027344,0|0|0,3:0|0:0|3:0,0:0:0:0:
256,156,26788,1,2,0:3:0:0:
406,119,26954,1,8,0:1:0:0:
406,119,27038,1,8,0:1:0:0:
406,119,27121,6,0,B|434:162|434:162|420:254,1,143.999995605469,8|2,0:1|0:3,0:0:0:0:
393,345,27621,2,0,P|428:340|464:337,1,71.9999978027344,8|8,0:1|0:1,0:0:0:0:
328,276,27954,2,0,B|293:271|293:271|257:281,1,71.9999978027344,0|0,3:0|0:0,0:0:0:0:
111,370,28288,6,0,P|65:317|79:249,1,143.999995605469,0|8,3:0|0:1,0:0:0:0:
156,195,28788,2,0,P|164:230|169:265,1,71.9999978027344,2|0,0:3|0:0,0:0:0:0:
193,345,29121,1,0,3:0:0:0:
272,370,29288,1,0,3:0:0:0:
339,321,29455,1,4,0:3:0:0:
337,238,29621,1,8,0:1:0:0:
268,191,29788,6,0,P|224:136|239:57,1,143.999995605469,4|2,0:0|0:3,0:0:0:0:
322,37,30288,1,0,0:0:0:0:
322,37,30454,2,0,P|319:73|315:109,1,71.9999978027344,8|0,0:1|3:0,0:0:0:0:
389,157,30788,1,0,0:0:0:0:
512,179,30954,6,0,P|457:138|390:156,1,143.999995605469,0|0,3:0|0:0,0:0:0:0:
337,238,31454,2,0,P|340:272|343:309,1,71.9999978027344,2|0,0:3|0:0,0:0:0:0:
263,360,31788,2,0,P|216:358|172:286,1,107.999996704102,8|0,0:1|0:0,0:0:0:0:
174,290,32121,2,0,P|133:297|96:302,1,71.9999978027344,2|0,0:3|0:0,0:0:0:0:
43,374,32454,6,0,P|12:328|28:243,1,143.999995605469,8|0,0:1|3:0,0:0:0:0:
158,198,32954,1,0,0:0:0:0:
71,160,33121,1,8,0:1:0:0:
71,160,33288,1,8,0:1:0:0:
146,103,33454,1,0,0:0:0:0:
158,198,33621,6,0,P|204:218|286:182,1,143.999995605469,0|2,3:0|0:0,0:0:0:0:
342,105,34121,2,0,P|338:70|333:34,1,71.9999978027344,8|0,0:1|0:0,0:0:0:0:
251,80,34454,1,2,0:3:0:0:
422,54,34621,1,2,0:3:0:0:
380,192,34788,5,8,0:1:0:0:
377,224,34871,1,0,0:0:0:0:
373,256,34954,1,8,0:1:0:0:
370,288,35038,1,0,0:0:0:0:
365,321,35121,6,0,P|423:315|476:312,1,111.999996582031,4|0,0:0|0:0,0:0:0:0:
286,361,35621,2,0,P|240:318|150:329,1,143.999995605469,2|0,0:3|0:0,0:0:0:0:
96,377,36121,6,0,B|75:340|75:340|86:254,1,111.999996582031,8|0,0:1|0:0,0:0:0:0:
266,179,36621,2,0,P|208:218|142:198,1,143.999995605469,2|0,0:3|0:0,0:0:0:0:
70,116,37121,1,2,0:3:0:0:
70,116,37288,1,2,0:3:0:0:
123,22,37454,5,8,0:1:0:0:
146,14,37537,1,0,0:0:0:0:
171,14,37620,1,8,0:1:0:0:
195,22,37704,1,0,0:0:0:0:
216,38,37788,6,0,P|273:49|326:24,1,111.999996582031,4|0,0:0|0:0,0:0:0:0:
476,111,38288,2,0,P|408:96|348:133,1,143.999995605469,2|0,0:3|0:0,0:0:0:0:
269,201,38788,6,0,P|262:254|255:319,1,111.999996582031,8|0,0:1|0:0,0:0:0:0:
53,223,39288,2,0,P|121:210|178:262,1,143.999995605469,2|0,0:3|0:0,0:0:0:0:
336,352,39788,5,8,0:1:0:0:
359,359,39871,1,0,0:0:0:0:
384,359,39954,1,8,0:1:0:0:
408,351,40038,1,0,0:0:0:0:
429,335,40121,2,0,P|427:292|421:262,1,55.9999982910157,2|0,0:3|0:0,0:0:0:0:
447,107,40454,6,0,P|493:147|489:209,1,128,4|2,0:0|0:3,0:0:0:0:
424,279,40954,1,0,0:0:0:0:
355,130,41121,2,0,P|358:98|363:66,2,64,0|0|0,0:0|3:0|0:0,0:0:0:0:
424,279,41621,6,0,P|356:268|297:317,1,128,0|2,3:0|0:0,0:0:0:0:
221,335,42121,2,0,P|217:302|214:269,1,64,2|0,0:3|0:0,0:0:0:0:
299,204,42454,1,2,0:0:0:0:
308,298,42621,1,0,0:0:0:0:
130,374,42788,1,2,0:3:0:0:
121,280,42955,1,0,0:0:0:0:
204,183,43121,6,0,P|208:214|211:246,2,64,2|0|2,0:0|0:0|0:3,0:0:0:0:
140,110,43621,1,0,0:0:0:0:
140,110,43788,2,0,P|110:98|81:84,2,64,2|0|2,0:0|0:0|0:3,0:0:0:0:
235,91,44288,1,0,3:0:0:0:
327,160,44454,5,0,0:0:0:0:
441,174,44621,1,2,0:0:0:0:
455,59,44787,1,2,0:3:0:0:
341,45,44954,1,8,0:1:0:0:
337,151,45121,5,2,0:3:0:0:
432,163,45288,1,0,0:0:0:0:
444,68,45455,1,2,0:3:0:0:
349,56,45621,1,2,0:0:0:0:
261,94,45788,6,0,P|242:145|262:207,1,111.999996582031,4|0,0:0|0:0,0:0:0:0:
322,277,46288,1,8,0:1:0:0:
322,277,46454,2,0,P|266:282|210:288,1,111.999996582031,2|0,0:3|0:0,0:0:0:0:
133,326,46954,1,8,0:1:0:0:
47,257,47121,5,8,0:1:0:0:
53,364,47288,2,0,B|35:327|35:327|47:257,1,111.999996582031,2|0,0:3|0:0,0:0:0:0:
132,184,47788,2,0,L|139:239,1,55.9999982910157,8|0,0:1|0:0,0:0:0:0:
203,374,48121,2,0,L|286:365,1,83.9999974365235,8|0,0:1|0:0,0:0:0:0:
306,355,48454,6,0,P|324:308|306:251,1,111.999996582031,8|0,0:1|0:0,0:0:0:0:
224,203,48954,1,8,0:1:0:0:
266,105,49121,2,0,P|321:99|377:94,1,111.999996582031,2|0,0:3|0:0,0:0:0:0:
462,15,49621,1,0,0:0:0:0:
462,15,49788,6,0,B|456:59|456:59|464:80|464:80|456:131,2,106.666666666667,2|2|2,3:3|3:3|3:3,0:0:0:0:
394,174,50454,1,8,0:1:0:0:
394,174,50621,1,8,0:1:0:0:
487,282,50788,1,2,0:3:0:0:
457,270,50871,1,0,0:0:0:0:
425,269,50954,1,0,0:0:0:0:
395,279,51038,1,0,0:0:0:0:
370,299,51121,6,0,P|374:330|378:362,1,64,4|0,0:0|0:0,0:0:0:0:
290,248,51454,1,2,0:3:0:0:
305,159,51621,1,0,0:0:0:0:
220,191,51788,2,0,P|189:196|157:201,2,64,0|8|8,3:0|0:1|0:1,0:0:0:0:
275,337,52288,1,0,0:0:0:0:
275,337,52371,1,0,0:0:0:0:
275,337,52454,6,0,P|218:321|148:364,1,128,0|2,3:0|0:3,0:0:0:0:
62,306,52954,1,0,0:0:0:0:
62,306,53121,2,0,P|67:337|72:369,1,64,8|0,0:1|0:0,0:0:0:0:
220,191,53454,1,2,0:3:0:0:
132,236,53621,1,0,0:0:0:0:
36,210,53788,6,0,P|12:167|16:116,1,96,4|0,0:0|0:0,0:0:0:0:
25,99,54121,1,2,0:3:0:0:
120,42,54288,2,0,P|125:73|129:105,1,64,8|0,0:1|0:0,0:0:0:0:
229,127,54621,2,0,P|224:159|220:191,1,64,8|0,0:1|0:0,0:0:0:0:
137,290,54954,6,0,P|199:281|255:309,1,128,8|2,0:1|0:3,0:0:0:0:
347,369,55454,1,2,0:3:0:0:
347,369,55621,1,8,0:1:0:0:
432,312,55788,5,2,0:3:0:0:
434,286,55871,1,0,0:0:0:0:
436,261,55954,1,8,0:1:0:0:
439,235,56038,1,0,0:0:0:0:
453,217,56121,5,8,0:1:0:0:
455,194,56204,1,0,0:0:0:0:
457,172,56287,1,0,0:0:0:0:
459,150,56371,1,0,0:0:0:0:
472,131,56454,6,0,P|469:88|461:55,1,64,6|0,0:0|0:0,0:0:0:0:
347,12,56788,1,8,0:1:0:0:
347,12,56871,1,0,0:0:0:0:
347,12,56954,2,0,P|314:22|301:115,1,128,2|2,0:0|0:3,0:0:0:0:
368,184,57454,1,8,0:1:0:0:
336,186,57537,1,0,0:0:0:0:
304,189,57620,1,0,0:0:0:0:
272,191,57704,1,0,0:0:0:0:
240,194,57787,5,2,0:0:0:0:
76,167,57954,1,2,0:0:0:0:
49,331,58121,1,2,0:0:0:0:
213,358,58288,1,2,0:0:0:0:
145,263,58621,5,8,0:1:0:0:
145,263,58704,1,8,0:1:0:0:
145,263,58788,1,8,0:0:0:0:
317,336,59121,6,0,P|391:357|457:315,1,160,4|2,0:0|0:3,0:0:0:0:
506,216,59621,1,0,0:0:0:0:
365,167,59788,2,0,P|370:206|375:246,1,80,2|0,0:0|0:0,0:0:0:0:
456,129,60121,2,0,P|462:84|467:42,1,80,2|0,0:3|0:0,0:0:0:0:
365,167,60454,6,0,P|302:122|227:144,1,160,8|2,0:1|0:3,0:0:0:0:
168,209,60954,1,2,0:0:0:0:
92,162,61121,2,0,P|52:165|12:169,2,80,8|0|2,0:1|0:0|0:3,0:0:0:0:
150,94,61621,6,0,P|181:147|168:209,1,128,0|2,3:0|0:0,0:0:0:0:
89,254,62121,2,0,P|95:290|99:327,1,64,2|0,0:3|0:0,0:0:0:0:
281,279,62454,1,8,0:1:0:0:
281,279,62538,1,0,0:0:0:0:
281,279,62621,2,0,P|285:247|287:215,1,64,4|0,0:3|0:0,0:0:0:0:
218,343,62954,6,0,P|280:371|347:339,1,128,2|0,0:0|0:0,0:0:0:0:
441,278,63454,2,0,P|404:268|367:263,1,64,2|0,0:3|0:0,0:0:0:0:
287,215,63788,1,8,0:1:0:0:
287,215,63871,1,0,0:0:0:0:
287,215,63954,1,0,0:1:0:0:
421,173,64121,2,0,P|418:129|413:91,1,64,2|0,0:3|0:0,0:0:0:0:
472,40,64454,6,0,P|410:87|334:72,1,160,4|2,0:0|0:3,0:0:0:0:
256,20,64954,1,0,0:0:0:0:
172,120,65121,2,0,P|178:161|182:203,1,80,2|0,0:0|0:0,0:0:0:0:
278,294,65454,2,0,P|284:253|288:211,1,80,2|0,0:3|0:0,0:0:0:0:
172,120,65788,6,0,P|115:99|31:155,1,160,8|2,0:1|0:3,0:0:0:0:
1,237,66288,1,2,0:0:0:0:
59,318,66454,2,0,P|105:311|140:306,1,80,8|0,0:1|0:0,0:0:0:0:
138,306,66788,1,2,0:3:0:0:
343,345,66954,6,0,B|286:375|286:375|225:357,1,128,0|0,3:0|0:0,0:0:0:0:
266,220,67454,2,0,P|270:251|274:283,1,64,2|0,0:3|0:0,0:0:0:0:
432,363,67788,1,8,0:1:0:0:
432,363,67954,2,0,P|436:331|440:299,2,64,0|2|0,0:0|0:3|0:0,0:0:0:0:
356,237,68454,5,2,0:3:0:0:
338,97,68621,1,2,0:3:0:0:
478,80,68788,1,2,0:0:0:0:
495,219,68954,1,2,0:3:0:0:
484,212,69288,1,8,0:1:0:0:
473,205,69621,1,2,0:0:0:0:
356,237,69788,6,0,P|314:241|263:246,1,80,4|0,0:0|0:0,0:0:0:0:
250,358,70121,2,0,P|205:317|103:345,1,160,2|2,0:3|0:0,0:0:0:0:
21,345,70621,1,0,0:0:0:0:
57,261,70788,2,0,P|52:222|46:182,1,80,2|0,0:3|0:0,0:0:0:0:
126,87,71121,6,0,P|162:54|273:78,1,160,8|2,0:1|0:3,0:0:0:0:
280,195,71621,2,0,P|243:227|132:203,1,160,2|0,0:0|0:0,0:0:0:0:
203,141,72121,1,2,0:3:0:0:
375,176,72288,6,0,P|368:243|361:311,1,128,0|0,3:0|0:0,0:0:0:0:
294,372,72788,1,2,0:3:0:0:
213,320,72954,1,0,0:0:0:0:
117,356,73121,1,8,0:1:0:0:
79,345,73204,1,0,0:0:0:0:
52,315,73287,1,8,0:1:0:0:
44,277,73370,1,0,0:0:0:0:
56,239,73454,1,2,0:3:0:0:
144,177,73621,1,0,0:0:0:0:
46,74,73788,6,0,P|51:105|55:137,1,64,2|0,0:0|0:0,0:0:0:0:
144,177,74121,1,2,0:3:0:0:
220,119,74288,1,2,0:0:0:0:
220,119,74371,1,0,0:0:0:0:
220,119,74454,1,8,0:1:0:0:
252,239,74621,1,8,0:1:0:0:
354,193,74788,2,0,P|402:187|456:183,1,96,2|0,0:3|0:0,0:0:0:0:
481,187,75121,6,0,P|503:124|460:61,2,128,4|2|8,0:0|0:3|0:1,0:0:0:0:
366,216,75954,1,0,0:0:0:0:
443,268,76121,2,0,P|439:296|435:331,1,64,2|0,0:3|0:0,0:0:0:0:
310,377,76454,6,0,P|270:326|286:257,1,128,2|2,0:0|0:3,0:0:0:0:
366,216,76954,1,2,0:0:0:0:
366,216,77121,2,8,P|342:197|314:180,1,64,8|0,0:1|0:0,0:1:0:0:
250,106,77454,2,0,P|253:73|256:42,1,64,2|0,0:3|0:0,0:0:0:0:
219,198,77788,6,0,P|172:226|82:195,1,128,8|2,0:1|0:3,0:0:0:0:
14,251,78288,1,0,0:0:0:0:
71,325,78454,2,0,P|106:320|142:318,1,71.9999978027344,2|0,0:0|0:0,0:0:0:0:
232,364,78788,2,0,P|267:360|303:356,1,71.9999978027344,2|0,0:3|0:0,0:0:0:0:
498,348,79121,6,0,P|424:360|378:310,1,143.999995605469,2|2,0:0|0:3,0:0:0:0:
368,226,79621,1,8,0:1:0:0:
425,148,79788,1,2,0:3:0:0:
400,133,79871,1,0,0:0:0:0:
371,128,79954,1,0,0:0:0:0:
343,133,80037,1,0,0:0:0:0:
318,146,80121,1,8,0:1:0:0:
292,159,80205,1,0,0:0:0:0:
264,164,80288,1,0,0:0:0:0:
236,158,80371,1,0,0:0:0:0:
211,144,80454,6,0,P|215:100|219:68,1,71.9999978027344,6|0,0:0|0:0,0:0:0:0:
57,212,80788,1,2,0:3:0:0:
57,211,80954,2,0,P|125:199|180:242,1,143.999995605469,2|0,0:0|0:0,0:0:0:0:
205,363,81454,2,0,P|242:358|281:354,1,71.9999978027344,2|0,0:3|0:0,0:0:0:0:
364,294,81788,6,0,P|411:298|459:304,2,95.9999970703126,2|2|2,3:3|3:3|3:3,0:0:0:0:
266,282,82454,2,0,P|271:318|276:354,1,71.9999978027344,8|0,0:1|0:0,0:0:0:0:
364,294,82788,2,0,P|388:246|373:192,1,107.999996704102,2|0,0:3|0:0,0:0:0:0:
349,175,83121,6,0,P|315:178|281:181,1,64,4|0,0:0|0:0,0:0:0:0:
211,115,83454,2,0,P|177:112|141:108,1,64,2|0,0:3|0:0,0:0:0:0:
78,50,83788,2,0,B|98:93|98:93|87:172,1,128,2|2,0:0|0:3,0:0:0:0:
14,232,84288,1,0,0:0:0:0:
68,313,84454,6,0,P|100:309|135:305,1,64,8|0,0:1|0:0,0:0:0:0:
210,249,84788,1,2,0:3:0:0:
257,360,84954,2,0,P|314:322|380:338,1,128,2|8,0:0|0:1,0:0:0:0:
453,373,85454,2,0,P|457:342|460:310,1,64,2|0,0:3|0:0,0:0:0:0:
465,177,85788,5,2,0:3:0:0:
439,147,85871,1,0,0:0:0:0:
404,132,85954,1,0,0:0:0:0:
366,132,86037,1,0,0:0:0:0:
331,148,86121,1,2,0:3:0:0:
242,239,86288,1,8,0:1:0:0:
242,239,86454,5,8,0:1:0:0:
84,259,86621,1,2,0:0:0:0:
64,100,86788,1,0,3:0:0:0:
223,80,86954,1,6,0:0:0:0:
256,192,87121,12,0,89788,0:0:0:0:
