osu file format v14

[General]
AudioFilename: audio.mp3
AudioLeadIn: 0
PreviewTime: 59121
Countdown: 0
SampleSet: Soft
StackLeniency: 0.7
Mode: 0
LetterboxInBreaks: 0
WidescreenStoryboard: 1

[Editor]
DistanceSpacing: 0.2
BeatDivisor: 4
GridSize: 4
TimelineZoom: 1.1

[Metadata]
Title:Zettai Kibou Birthday
TitleUnicode:絶対希望バースデー
Artist:Nagito Komaeda(cv.Megumi Ogata)
ArtistUnicode:狛枝凪斗(cv.緒方恵美)
Creator:Chaoslitz
Version:Another
Source:ダンガンロンパ3-The End of 希望ヶ峰学園- 絶望編
Tags:danganronpa dangan ronpa hope's peak academy side despair tv size ed ending
BeatmapID:1251789
BeatmapSetID:520039

[Difficulty]
HPDrainRate:5
CircleSize:5
OverallDifficulty:7
ApproachRate:8.5
SliderMultiplier:1.5
SliderTickRate:1

[Events]
//Background and Video events
0,0,"bg.jpg",0,0
//Break Periods
//Storyboard Layer 0 (Background)
//Storyboard Layer 1 (Fail)
//Storyboard Layer 2 (Pass)
//Storyboard Layer 3 (Foreground)
//Storyboard Sound Samples

[TimingPoints]
455,333.333333333333,4,2,0,40,1,0
1121,-300,4,2,0,40,0,0
1204,-100,4,2,0,10,0,0
2121,-100,4,2,1,40,0,0
2454,-133.333333333333,4,2,1,50,0,0
2788,-83.3333333333333,4,2,1,60,0,0
3121,-111.111111111111,4,2,1,70,0,0
13788,-133.333333333333,4,2,1,60,0,0
23454,-200,4,2,1,60,0,0
24454,-133.333333333333,4,2,1,60,0,0
25454,-133.333333333333,4,2,1,10,0,0
25621,-133.333333333333,4,2,1,60,0,0
35121,-133.333333333333,4,2,1,60,0,0
35621,-133.333333333333,4,2,1,60,0,0
36121,-133.333333333333,4,2,1,60,0,0
36621,-133.333333333333,4,2,1,60,0,0
37788,-133.333333333333,4,2,1,60,0,0
38288,-133.333333333333,4,2,1,60,0,0
38788,-133.333333333333,4,2,1,60,0,0
39288,-133.333333333333,4,2,1,60,0,0
40121,-133.333333333333,4,2,1,60,0,0
40454,-133.333333333333,4,2,1,60,0,0
45788,-133.333333333333,4,2,1,50,0,0
49788,-133.333333333333,4,2,1,60,0,0
51121,-133.333333333333,4,2,1,70,0,0
59121,-111.111111111111,4,2,1,80,0,1
61621,-133.333333333333,4,2,1,80,0,1
64454,-111.111111111111,4,2,1,80,0,1
66954,-133.333333333333,4,2,1,80,0,1
69788,-111.111111111111,4,2,1,80,0,1
72288,-133.333333333333,4,2,1,80,0,1
78454,-125,4,2,1,80,0,1
83121,-133.333333333333,4,2,1,80,0,0
87121,-100,4,2,1,80,0,0
87454,-100,4,2,1,70,0,0
87788,-100,4,2,1,60,0,0
88121,-100,4,2,1,50,0,0
88454,-100,4,2,1,40,0,0
88788,-100,4,2,1,30,0,0
89121,-100,4,2,1,20,0,0
89454,-100,4,2,1,10,0,0
89788,-100,4,2,1,5,0,0

[Colours]
Combo1 : 196,84,211
Combo2 : 84,237,254
Combo3 : 33,231,92
Combo4 : 241,75,79
Combo5 : 84,134,252

[HitObjects]
15,260,1121,6,0,B|82:255|82:255|96:248|96:248|163:242,1,150,0|0,0:0|0:0,0:0:0:0:
126,327,2454,5,8,0:0:0:0:
126,327,2538,1,0,0:0:0:0:
126,327,2621,2,8,L|153:324,1,28.1250010728836,8|8,0:1|0:1,0:0:0:0:
224,372,2788,6,0,P|194:347|258:310,1,134.999995880127,4|0,0:3|0:0,0:0:0:0:
297,361,3121,5,4,0:0:0:0:
163,241,3454,2,0,B|143:212|143:212|156:106,2,134.999995880127,2|8|2,0:3|0:1|0:3,0:0:0:0:
218,191,4288,1,0,0:0:0:0:
256,292,4454,6,0,L|332:285,1,67.4999979400635,8|0,0:1|0:0,0:0:0:0:
397,326,4788,1,2,0:3:0:0:
397,326,4954,2,0,P|430:291|412:209,1,134.999995880127,0|0,0:0|0:0,0:0:0:0:
336,173,5454,1,2,0:3:0:0:
336,173,5621,1,8,0:1:0:0:
428,98,5788,6,0,B|372:102|372:102|351:94|351:94|294:98,1,134.999995880127,8|2,0:1|0:3,0:0:0:0:
238,42,6288,2,0,P|178:82|112:63,1,134.999995880127,0|0,0:0|0:0,0:0:0:0:
50,30,6788,2,0,P|47:63|43:101,1,67.4999979400635,2|0,0:3|0:0,0:0:0:0:
19,176,7121,6,0,P|29:215|133:223,1,134.999995880127,8|2,0:1|0:3,0:0:0:0:
177,189,7621,1,0,0:0:0:0:
246,221,7788,1,2,0:3:0:0:
263,242,7871,1,0,3:0:0:0:
269,268,7954,1,0,3:0:0:0:
264,294,8037,1,0,3:0:0:0:
248,316,8121,5,8,0:0:0:0:
235,318,8204,1,0,3:0:0:0:
221,320,8288,2,0,L|185:325,1,33.7499989700318,0|0,3:0|3:0,0:0:0:0:
124,367,8454,5,8,0:1:0:0:
124,367,8621,1,0,0:0:0:0:
39,338,8788,2,0,P|32:304|24:272,1,67.4999979400635,0|8,0:0|0:1,0:0:0:0:
20,188,9121,2,0,P|52:200|85:209,1,67.4999979400635,0|0,3:0|0:0,0:0:0:0:
159,246,9454,2,0,P|132:268|108:291,1,67.4999979400635,8|0,0:1|0:0,0:0:0:0:
155,164,9788,6,0,P|148:130|141:97,2,67.4999979400635,2|0|0,0:3|0:0|0:0,0:0:0:0:
229,203,10288,1,2,0:3:0:0:
229,203,10454,2,0,P|261:214|293:224,1,67.4999979400635,0|0,0:0|0:0,0:0:0:0:
159,246,10788,2,0,P|132:268|108:291,1,67.4999979400635,2|8,0:3|0:1,0:0:0:0:
222,307,11121,6,0,P|229:346|233:380,1,67.4999979400635,2|0,0:3|0:0,0:0:0:0:
233,373,11454,1,0,0:0:0:0:
363,272,11621,2,0,P|370:233|374:199,1,67.4999979400635,2|0,0:3|0:0,0:0:0:0:
373,205,11954,1,0,0:0:0:0:
218,136,12121,2,0,P|224:169|229:203,1,67.4999979400635,2|0,0:3|0:0,0:0:0:0:
367,101,12454,5,0,3:0:0:0:
367,101,12621,1,8,0:1:0:0:
295,57,12788,1,0,3:0:0:0:
295,57,12954,1,0,0:0:0:0:
439,145,13121,2,0,B|479:141|479:141|491:148|491:148|530:144,2,89.999997253418,2|2|2,3:3|3:3|3:3,0:0:0:0:
367,101,13788,6,0,P|356:156|381:205,1,112.500004291535,4|8,0:0|0:1,0:0:0:0:
439,261,14288,2,0,P|436:288|431:316,1,56.2500021457673,2|0,0:0|0:0,0:0:0:0:
354,335,14621,2,0,P|300:343|257:309,1,112.500004291535,0|0,0:0|0:0,0:0:0:0:
246,234,15121,5,8,0:1:0:0:
130,287,15288,2,0,P|157:283|185:280,2,56.2500021457673,0|8|2,0:0|0:1|0:0,0:0:0:0:
54,323,15788,2,0,P|47:298|48:269,1,56.2500021457673,8|0,0:1|0:0,0:0:0:0:
57,187,16121,2,0,P|84:193|135:167,1,75.000002861023,8|0,0:1|0:0,0:0:0:0:
131,153,16454,6,0,B|183:127|183:127|237:141,1,112.500004291535,8|2,3:1|0:0,0:0:0:0:
280,77,16954,2,0,L|274:21,1,56.2500021457673,0|8,0:0|0:1,0:0:0:0:
340,128,17288,2,0,B|288:154|288:154|235:140,1,112.500004291535,0|0,0:0|0:0,0:0:0:0:
293,191,17788,5,8,0:1:0:0:
409,95,17954,1,2,0:0:0:0:
403,171,18121,1,8,0:1:0:0:
396,247,18288,1,0,0:0:0:0:
443,305,18454,2,0,B|409:282|409:282|320:292,1,112.500004291535,8|8,0:1|0:1,0:0:0:0:
265,313,18954,2,0,L|260:352,1,28.1250010728836,0|0,0:0|0:0,0:0:0:0:
241,360,19121,6,0,P|198:324|204:270,1,112.500004291535,8|0,0:1|0:0,0:0:0:0:
274,238,19621,1,0,0:0:0:0:
211,171,19788,1,8,0:1:0:0:
211,171,19954,2,0,P|184:174|156:177,1,56.2500021457673,0|0,0:0|0:0,0:0:0:0:
76,219,20288,6,0,B|84:155|84:155|72:108,2,112.500004291535,0|0|2,0:0|0:0|0:0,0:0:0:0:
14,270,21121,1,0,0:0:0:0:
14,270,21288,2,0,P|21:316|23:342,1,56.2500021457673,0|8,0:0|0:1,0:0:0:0:
87,369,21621,1,0,0:0:0:0:
176,355,21788,6,0,P|211:313|204:259,1,112.500004291535,8|2,3:1|0:0,0:0:0:0:
153,195,22288,1,0,0:0:0:0:
195,123,22454,2,0,P|222:120|250:116,1,56.2500021457673,8|0,0:1|0:0,0:0:0:0:
319,190,22788,2,0,P|291:193|263:196,1,56.2500021457673,8|0,0:1|0:0,0:0:0:0:
332,92,23121,6,0,B|374:84|374:84|410:103,1,84.3750032186509,8|0,0:1|0:0,0:0:0:0:
420,108,23454,6,0,L|413:172,1,56.25,4|0,0:3|0:0,0:0:0:0:
410,177,23788,1,4,0:3:0:0:
463,226,23954,1,8,0:1:0:0:
455,298,24121,1,2,3:0:0:0:
393,337,24288,1,8,0:3:0:0:
324,310,24454,6,0,L|266:315,1,56.2500021457673,4|0,0:0|0:0,0:0:0:0:
214,263,24788,1,2,0:0:0:0:
153,303,24954,2,0,B|145:331|145:331|151:359,1,56.2500021457673,0|0,0:0|0:0,0:0:0:0:
92,235,25288,2,0,L|148:230,1,56.2500021457673,0|0,3:0|0:0,0:0:0:0:
267,314,25621,6,0,P|287:263|267:212,1,112.500004291535,8|0,0:1|0:0,0:0:0:0:
140,174,26121,2,0,P|145:203|149:250,1,56.2500021457673,2|0,0:3|3:0,0:0:0:0:
216,152,26454,1,0,0:0:0:0:
216,152,26621,2,0,P|221:123|225:76,1,56.2500021457673,0|2,3:0|0:3,0:0:0:0:
168,32,26954,1,8,0:1:0:0:
168,32,27038,1,8,0:1:0:0:
168,32,27121,6,0,P|132:18|63:51,1,112.500004291535,8|2,0:1|0:3,0:0:0:0:
28,115,27621,1,8,0:1:0:0:
28,115,27788,1,8,0:1:0:0:
126,171,27954,2,0,P|98:175|71:180,1,56.2500021457673,0|0,3:0|0:0,0:0:0:0:
3,264,28288,6,0,P|57:255|101:287,1,112.500004291535,0|8,3:0|0:1,0:0:0:0:
132,363,28788,1,2,0:3:0:0:
132,363,28954,1,0,0:0:0:0:
166,240,29121,1,0,3:0:0:0:
222,310,29288,2,0,L|228:370,2,56.2500021457673,0|4|8,3:0|0:3|0:1,0:0:0:0:
254,226,29788,6,0,P|310:217|355:247,1,112.500004291535,4|2,0:0|0:3,0:0:0:0:
426,293,30288,1,0,0:0:0:0:
426,293,30454,2,0,P|430:265|434:237,1,56.2500021457673,8|0,0:1|3:0,0:0:0:0:
406,162,30788,1,0,0:0:0:0:
485,97,30954,6,0,B|459:79|459:79|368:91,1,112.500004291535,0|0,3:0|0:0,0:0:0:0:
300,111,31454,2,0,L|304:54,1,56.2500021457673,2|0,0:3|0:0,0:0:0:0:
207,54,31788,2,0,L|212:111,1,56.2500021457673,8|0,0:1|0:0,0:0:0:0:
169,186,32121,2,0,P|143:195|115:196,1,56.2500021457673,2|0,0:3|0:0,0:0:0:0:
23,150,32454,6,0,B|40:188|40:188|32:259,1,112.500004291535,8|0,0:1|3:0,0:0:0:0:
75,329,32954,1,0,0:0:0:0:
75,329,33121,2,0,P|47:331|19:336,1,56.2500021457673,8|8,0:1|0:1,0:0:0:0:
132,273,33454,1,0,0:0:0:0:
254,360,33621,6,0,P|200:374|151:350,1,112.500004291535,0|2,3:0|0:0,0:0:0:0:
132,273,34121,2,0,L|141:199,1,56.2500021457673,8|0,0:1|0:0,0:0:0:0:
138,217,34454,1,2,0:3:0:0:
82,153,34621,1,2,0:3:0:0:
127,81,34788,1,8,0:1:0:0:
127,81,34871,1,0,0:0:0:0:
127,81,34954,2,0,L|155:78,1,28.1250010728836,8|0,0:1|0:0,0:0:0:0:
223,72,35121,6,0,B|200:103|200:103|210:27,1,112.500004291535,4|0,0:0|0:0,0:0:0:0:
288,27,35621,2,0,P|301:81|277:130,1,112.500004291535,2|0,0:3|0:0,0:0:0:0:
224,184,36121,6,0,P|279:178|335:172,1,112.500004291535,8|0,0:1|0:0,0:0:0:0:
418,203,36621,2,0,P|442:251|426:305,1,112.500004291535,2|0,0:3|0:0,0:0:0:0:
350,353,37121,1,2,0:3:0:0:
289,286,37288,1,2,0:3:0:0:
211,331,37454,1,8,0:1:0:0:
211,331,37538,1,0,0:0:0:0:
211,331,37621,2,0,L|174:335,1,28.1250010728836,8|0,0:1|0:0,0:0:0:0:
115,367,37788,6,0,B|110:319|110:319|117:303|117:303|111:256,1,112.500004291535,4|0,0:0|0:0,0:0:0:0:
52,205,38288,2,0,P|99:176|152:189,1,112.500004291535,2|0,0:3|0:0,0:0:0:0:
214,250,38788,6,0,B|235:218|235:218|224:144,1,112.500004291535,8|0,0:1|0:0,0:0:0:0:
179,81,39288,2,0,P|227:106|280:93,1,112.500004291535,2|0,0:3|0:0,0:0:0:0:
357,52,39788,1,8,0:1:0:0:
357,52,39871,1,0,0:0:0:0:
357,52,39954,2,0,L|361:85,1,28.1250010728836,8|0,0:1|0:0,0:0:0:0:
352,149,40121,2,0,P|379:144|407:140,1,56.2500021457673,2|0,0:3|0:0,0:0:0:0:
495,185,40454,6,0,B|508:217|508:217|500:307,1,112.500004291535,4|2,0:0|0:3,0:0:0:0:
448,360,40954,1,0,0:0:0:0:
376,313,41121,2,0,P|372:286|368:258,2,56.2500021457673,0|0|0,0:0|3:0|0:0,0:0:0:0:
302,354,41621,6,0,P|252:361|208:310,1,112.500004291535,0|2,3:0|0:0,0:0:0:0:
184,238,42121,2,0,P|189:211|193:183,1,56.2500021457673,2|0,0:3|0:0,0:0:0:0:
134,123,42454,1,2,0:0:0:0:
59,144,42621,1,0,0:0:0:0:
39,67,42788,1,2,0:3:0:0:
115,47,42954,1,0,0:0:0:0:
191,68,43121,6,0,P|218:71|246:74,2,56.2500021457673,2|0|2,0:0|0:0|0:3,0:0:0:0:
134,123,43621,1,0,0:0:0:0:
134,123,43788,2,0,P|106:126|78:129,2,56.2500021457673,2|0|2,0:0|0:0|0:3,0:0:0:0:
193,183,44288,1,0,3:0:0:0:
252,242,44454,6,0,P|250:270|246:302,1,56.2500021457673,0|2,0:0|0:0,0:0:0:0:
318,197,44787,1,2,0:3:0:0:
318,197,44954,2,0,P|315:165|312:136,1,56.2500021457673,8|2,0:1|0:3,0:0:0:0:
398,105,45288,2,0,P|394:136|392:166,2,56.2500021457673,0|2|2,0:0|0:3|0:0,0:0:0:0:
358,41,45788,6,0,P|412:31|458:61,1,112.500004291535,4|0,0:0|0:0,0:0:0:0:
503,133,46288,1,8,0:1:0:0:
503,133,46454,2,0,B|486:167|486:167|494:253,1,112.500004291535,2|0,0:3|0:0,0:0:0:0:
459,312,46954,1,8,0:1:0:0:
399,259,47121,5,8,0:1:0:0:
399,259,47288,2,0,P|350:246|294:289,1,112.500004291535,2|0,0:3|0:0,0:0:0:0:
267,348,47788,2,0,L|204:354,1,56.2500021457673,8|0,0:1|0:0,0:0:0:0:
150,302,48121,2,0,L|87:296,1,56.2500021457673,8|0,0:1|0:0,0:0:0:0:
27,338,48454,6,0,B|14:281|14:281|39:233,1,112.500004291535,8|0,0:1|0:0,0:0:0:0:
116,216,48954,1,8,0:1:0:0:
116,216,49121,2,0,B|141:168|141:168|128:111,1,112.500004291535,2|0,0:3|0:0,0:0:0:0:
75,55,49621,1,0,0:0:0:0:
202,98,49788,6,0,B|233:101|233:101|244:96|244:96|275:99,2,75.000002861023,2|2|2,3:3|3:3|3:3,0:0:0:0:
221,25,50454,1,8,0:1:0:0:
221,25,50621,1,8,0:1:0:0:
258,171,50788,2,0,L|254:198,3,28.1250010728836,2|0|0|0,0:3|0:0|0:0|0:0,0:0:0:0:
240,223,51121,6,0,L|317:216,1,56.2500021457673,4|0,0:0|0:0,0:0:0:0:
362,260,51454,1,2,0:3:0:0:
362,260,51621,1,0,0:0:0:0:
421,208,51788,2,0,P|424:180|427:152,2,56.2500021457673,0|8|8,3:0|0:1|0:1,0:0:0:0:
362,260,52288,6,0,B|353:334|353:334|371:374,1,112.500004291535,0|0,0:0|0:0,0:0:0:0:
433,323,52788,1,2,0:3:0:0:
433,323,52954,1,0,0:0:0:0:
362,260,53121,2,0,L|305:265,1,56.2500021457673,8|0,0:1|0:0,0:0:0:0:
246,317,53454,1,2,0:3:0:0:
246,317,53621,1,0,0:0:0:0:
186,369,53788,6,0,P|129:358|78:354,1,84.3750032186509,4|0,0:0|0:0,0:0:0:0:
76,366,54121,1,2,0:3:0:0:
8,322,54288,2,0,P|-13:267|8:208,1,112.500004291535,8|8,0:1|0:1,0:0:0:0:
163,206,54954,6,0,P|183:154|169:101,1,112.500004291535,8|2,0:1|0:3,0:0:0:0:
97,149,55454,2,0,P|70:145|41:140,1,56.2500021457673,2|8,0:3|0:1,0:0:0:0:
1,217,55788,2,0,L|37:223,3,28.1250010728836,2|0|8|0,0:3|0:0|0:1|0:0,0:0:0:0:
53,236,56121,1,8,0:1:0:0:
64,238,56204,1,0,0:0:0:0:
75,240,56287,1,0,0:0:0:0:
86,241,56371,1,0,0:0:0:0:
97,243,56454,6,0,P|93:270|90:298,1,56.2500021457673,6|0,0:0|0:0,0:0:0:0:
140,361,56788,1,8,0:1:0:0:
218,353,56954,2,0,P|259:318|257:263,1,112.500004291535,2|2,0:0|0:3,0:0:0:0:
214,196,57454,2,0,L|209:157,3,28.1250010728836,8|0|0|0,0:1|0:0|0:0|0:0,0:0:0:0:
199,141,57788,5,2,0:0:0:0:
213,41,57955,1,2,0:0:0:0:
314,55,58122,1,2,0:0:0:0:
299,155,58288,1,2,0:0:0:0:
302,159,58621,5,0,0:1:0:0:
305,163,58704,1,0,0:1:0:0:
308,167,58788,1,8,0:0:0:0:
452,201,59121,6,0,P|418:205|385:209,1,67.4999979400635,4|0,0:0|0:0,0:0:0:0:
309,240,59454,2,0,P|291:293|329:361,1,134.999995880127,2|2,0:3|0:0,0:0:0:0:
374,291,59954,1,0,0:0:0:0:
309,240,60121,2,0,P|276:244|241:246,1,67.4999979400635,2|0,0:3|0:0,0:0:0:0:
167,213,60454,6,0,B|103:195|103:195|42:226,1,134.999995880127,8|2,0:1|0:3,0:0:0:0:
51,307,60954,2,0,B|115:325|115:325|175:293,1,134.999995880127,2|0,0:0|0:0,0:0:0:0:
241,246,61454,1,2,0:3:0:0:
299,355,61621,6,0,P|347:368|411:321,1,112.500004291535,0|2,3:0|0:0,0:0:0:0:
445,270,62121,2,0,P|443:239|439:205,1,56.2500021457673,2|0,0:3|0:0,0:0:0:0:
366,185,62454,1,8,0:1:0:0:
366,185,62621,2,0,P|368:154|372:120,1,56.2500021457673,4|0,0:3|0:0,0:0:0:0:
434,60,62954,6,0,B|401:41|401:41|325:51,1,112.500004291535,2|0,0:0|0:0,0:0:0:0:
249,43,63454,2,0,P|254:80|258:103,1,56.2500021457673,2|0,0:3|0:0,0:0:0:0:
270,176,63788,1,8,0:1:0:0:
270,176,63954,1,0,0:1:0:0:
196,147,64121,1,2,0:3:0:0:
135,187,64288,1,0,0:0:0:0:
61,158,64454,6,0,P|58:122|51:78,1,67.4999979400635,4|0,0:0|0:0,0:0:0:0:
118,36,64788,2,0,B|167:31|167:31|199:47|199:47|249:42,1,134.999995880127,2|2,0:3|0:0,0:0:0:0:
329,50,65288,1,0,0:0:0:0:
409,59,65454,2,0,P|415:91|405:123,1,67.4999979400635,2|0,0:3|0:0,0:0:0:0:
336,167,65788,6,0,P|401:153|463:186,1,134.999995880127,8|2,0:1|0:3,0:0:0:0:
452,264,66288,2,0,P|386:277|324:244,1,134.999995880127,2|0,0:0|0:0,0:0:0:0:
262,199,66788,1,2,0:3:0:0:
173,303,66954,1,0,3:0:0:0:
173,303,67121,6,0,P|147:306|119:311,1,56.2500021457673,0|0,0:0|0:0,0:0:0:0:
68,375,67454,2,0,P|38:328|46:274,1,112.500004291535,2|8,0:3|0:1,0:0:0:0:
119,231,67954,2,0,P|124:184|125:156,2,56.2500021457673,0|2|0,0:0|0:3|0:0,0:0:0:0:
173,303,68454,5,2,0:3:0:0:
248,200,68620,1,2,0:3:0:0:
248,200,68788,1,2,0:0:0:0:
189,114,68954,5,2,0:3:0:0:
191,125,69288,1,8,0:1:0:0:
193,135,69621,1,2,0:0:0:0:
248,200,69788,6,0,P|244:233|241:267,1,67.4999979400635,4|0,0:0|0:0,0:0:0:0:
224,355,70121,2,0,P|162:373|107:335,1,134.999995880127,2|2,0:3|0:0,0:0:0:0:
45,283,70621,1,0,0:0:0:0:
93,216,70788,2,0,P|126:212|160:207,1,67.4999979400635,2|0,0:3|0:0,0:0:0:0:
193,134,71121,6,0,B|211:70|211:70|180:9,1,134.999995880127,8|2,0:1|0:3,0:0:0:0:
99,17,71621,2,0,B|81:82|81:82|113:142,1,134.999995880127,2|0,0:0|0:0,0:0:0:0:
159,207,72121,1,2,0:3:0:0:
296,120,72288,6,0,P|242:109|192:133,1,112.500004291535,0|0,3:0|0:0,0:0:0:0:
158,207,72788,2,0,P|163:234|166:262,1,56.2500021457673,2|0,0:3|0:0,0:0:0:0:
201,341,73121,1,8,0:1:0:0:
201,341,73204,1,0,0:0:0:0:
201,341,73288,2,0,P|251:334|277:330,1,56.2500021457673,8|2,0:1|0:3,0:0:0:0:
315,277,73621,1,0,0:0:0:0:
345,358,73788,6,0,P|372:360|399:352,1,56.2500021457673,2|0,0:0|0:0,0:0:0:0:
468,315,74121,1,2,0:3:0:0:
434,243,74288,1,2,0:0:0:0:
470,173,74454,1,8,0:1:0:0:
470,173,74621,1,8,0:1:0:0:
421,103,74788,2,0,P|380:108|331:112,1,84.3750032186509,2|0,0:3|0:0,0:0:0:0:
315,120,75121,6,0,P|295:70|319:20,2,112.500004291535,4|2|8,0:0|0:3|0:1,0:0:0:0:
373,182,75954,1,0,0:0:0:0:
310,229,76121,2,0,P|260:233|236:236,1,56.2500021457673,2|0,0:3|0:0,0:0:0:0:
186,274,76454,6,0,P|147:248|64:271,1,112.500004291535,2|2,0:0|0:3,0:0:0:0:
14,291,76954,1,2,0:0:0:0:
14,291,77121,2,8,P|8:263|5:235,1,56.2500021457673,8|0,0:1|0:0,0:0:0:0:
59,178,77454,1,2,0:3:0:0:
8,117,77621,1,0,0:0:0:0:
41,45,77788,6,0,P|97:40|154:33,1,112.500004291535,8|2,0:1|0:3,0:0:0:0:
152,33,78288,1,0,0:0:0:0:
235,45,78454,6,0,P|262:96|245:155,1,120,2|2,0:0|0:3,0:0:0:0:
168,182,78954,1,0,0:0:0:0:
218,249,79121,2,0,B|268:246|268:246|286:255|286:255|335:252,1,120,2|2,0:0|0:3,0:0:0:0:
408,281,79621,1,8,0:1:0:0:
473,238,79788,2,0,L|477:205,3,30,2|0|0|0,0:3|0:0|0:0|0:0,0:0:0:0:
468,185,80121,1,8,0:1:0:0:
476,107,80288,1,0,0:0:0:0:
476,107,80371,1,0,0:0:0:0:
476,107,80454,6,0,P|483:74|478:43,2,60,6|0|2,0:0|0:0|0:3,0:0:0:0:
405,140,80954,2,0,P|340:140|303:82,1,120,2|0,0:0|0:0,0:0:0:0:
321,22,81454,2,0,P|291:26|262:34,1,60,2|0,0:3|0:0,0:0:0:0:
195,78,81788,6,0,B|164:76|164:76|151:66|151:66|118:63,2,80,2|2|2,3:3|3:3|3:3,0:0:0:0:
242,152,82454,2,0,P|248:188|250:217,1,60,8|0,0:1|0:0,0:0:0:0:
191,280,82788,2,0,P|148:289|106:273,1,90,2|0,0:3|0:0,0:0:0:0:
90,258,83121,6,0,P|96:292|100:321,1,56.2500021457673,4|0,0:0|0:0,0:0:0:0:
155,207,83454,2,0,P|121:181|36:194,2,112.500004291535,2|2|2,0:3|0:0|0:3,0:0:0:0:
191,280,84288,1,0,0:0:0:0:
260,234,84454,2,0,B|288:199|288:199|279:112,1,112.500004291535,8|2,0:1|0:3,0:0:0:0:
260,55,84954,1,2,0:0:0:0:
260,55,85121,2,0,P|287:58|315:65,1,56.2500021457673,0|8,0:0|0:1,0:0:0:0:
381,107,85454,1,2,0:3:0:0:
431,46,85621,1,0,0:0:0:0:
431,46,85704,1,0,0:0:0:0:
431,46,85788,5,2,0:3:0:0:
449,67,85871,1,0,0:0:0:0:
459,93,85954,1,0,0:0:0:0:
458,121,86037,1,0,0:0:0:0:
448,147,86121,1,2,0:3:0:0:
361,197,86288,1,8,0:1:0:0:
361,197,86454,5,8,0:1:0:0:
345,337,86621,1,2,0:0:0:0:
485,353,86788,1,0,3:0:0:0:
501,213,86954,1,6,0:0:0:0:
256,192,87121,12,0,89788,0:0:0:0:
