osu file format v14

[General]
AudioFilename: audio.mp3
AudioLeadIn: 0
PreviewTime: 59121
Countdown: 0
SampleSet: Soft
StackLeniency: 0.7
Mode: 0
LetterboxInBreaks: 0
WidescreenStoryboard: 0

[Editor]
DistanceSpacing: 0.8
BeatDivisor: 3
GridSize: 4
TimelineZoom: 1.1

[Metadata]
Title:Zettai Kibou Birthday
TitleUnicode:絶対希望バースデー
Artist:Nagito Komaeda(cv.Megumi Ogata)
ArtistUnicode:狛枝凪斗(cv.緒方恵美)
Creator:Chaoslitz
Version:Normal
Source:ダンガンロンパ3-The End of 希望ヶ峰学園- 絶望編
Tags:danganronpa dangan ronpa hope's peak academy side despair tv size ed ending
BeatmapID:1251793
BeatmapSetID:520039

[Difficulty]
HPDrainRate:4
CircleSize:3.5
OverallDifficulty:4
ApproachRate:5
SliderMultiplier:1.1
SliderTickRate:1

[Events]
//Background and Video events
0,0,"bg.jpg",0,0
//Break Periods
//Storyboard Layer 0 (Background)
//Storyboard Layer 1 (Fail)
//Storyboard Layer 2 (Pass)
//Storyboard Layer 3 (Foreground)
//Storyboard Sound Samples

[TimingPoints]
455,333.333333333333,4,2,0,40,1,0
1121,-100,4,2,0,40,0,0
1204,-100,4,2,0,10,0,0
2121,-100,4,2,1,40,0,0
2454,-100,4,2,1,50,0,0
2788,-100,4,2,1,60,0,0
3121,-100,4,2,1,70,0,0
13121,-100,4,2,1,70,0,0
13454,-100,4,2,1,10,0,0
13566,-100,4,2,1,70,0,0
13788,-100,4,2,1,60,0,0
23454,-100,4,2,1,60,0,0
24454,-100,4,2,1,60,0,0
25454,-100,4,2,1,10,0,0
25621,-100,4,2,1,60,0,0
35121,-100,4,2,1,60,0,0
35621,-100,4,2,1,60,0,0
36121,-100,4,2,1,60,0,0
36621,-100,4,2,1,60,0,0
37788,-100,4,2,1,60,0,0
38288,-100,4,2,1,60,0,0
38788,-100,4,2,1,60,0,0
39288,-100,4,2,1,60,0,0
40121,-100,4,2,1,60,0,0
40454,-100,4,2,1,60,0,0
45788,-100,4,2,1,50,0,0
49788,-100,4,2,1,60,0,0
51121,-100,4,2,1,70,0,0
59121,-100,4,2,1,80,0,1
61621,-100,4,2,1,80,0,1
64454,-100,4,2,1,80,0,1
66954,-100,4,2,1,80,0,1
69788,-100,4,2,1,80,0,1
72288,-100,4,2,1,80,0,1
78454,-100,4,2,1,80,0,1
83121,-100,4,2,1,80,0,0
87121,-100,4,2,1,80,0,0
87454,-100,4,2,1,70,0,0
87788,-100,4,2,1,60,0,0
88121,-100,4,2,1,50,0,0
88454,-100,4,2,1,40,0,0
88788,-100,4,2,1,30,0,0
89121,-100,4,2,1,20,0,0
89454,-100,4,2,1,10,0,0
89788,-100,4,2,1,5,0,0

[Colours]
Combo1 : 196,84,211
Combo2 : 84,237,254
Combo3 : 33,231,92
Combo4 : 241,75,79
Combo5 : 84,134,252

[HitObjects]
34,95,1121,6,0,P|178:91|153:233,1,330,0|0,0:0|0:0,0:0:0:0:
66,239,2454,2,0,L|-2:244,2,55,8|8|4,0:0|0:1|0:3,0:0:0:0:
114,312,3121,5,4,0:0:0:0:
201,307,3454,1,2,0:3:0:0:
270,357,3788,2,0,L|381:350,1,110,8|2,0:1|0:3,0:0:0:0:
468,360,4454,2,0,P|476:288|484:236,1,110,8|2,0:1|0:3,0:0:0:0:
494,208,4954,2,0,P|454:161|384:169,1,110,0|0,0:0|0:0,0:0:0:0:
367,173,5454,1,2,0:3:0:0:
304,235,5788,6,0,L|193:228,1,110,8|2,0:1|0:3,0:0:0:0:
150,215,6288,2,0,P|123:169|124:115,1,110,0|0,0:0|0:0,0:0:0:0:
145,75,6788,1,2,0:3:0:0:
221,31,7121,2,0,L|332:24,1,110,8|2,0:1|0:3,0:0:0:0:
370,44,7621,1,0,0:0:0:0:
370,44,7788,2,0,L|362:109,2,55,2|0|8,0:3|3:0|0:0,0:0:0:0:
455,25,8454,5,8,0:1:0:0:
488,106,8788,1,0,0:0:0:0:
425,168,9121,2,0,P|420:224|415:277,1,110,0|8,3:0|0:1,0:0:0:0:
453,356,9788,2,0,P|380:357|332:298,1,110,2|0,0:3|0:0,0:0:0:0:
323,303,10288,2,0,P|275:276|222:283,1,110,2|0,0:3|0:0,0:0:0:0:
185,308,10788,1,2,0:3:0:0:
110,354,11121,6,0,B|99:287|99:287|131:215,1,110,2|0,0:3|0:0,0:0:0:0:
154,226,11621,2,0,B|171:187|171:187|160:120,1,110,2|0,0:3|0:0,0:0:0:0:
128,90,12121,1,2,0:3:0:0:
202,42,12454,2,0,L|316:34,1,110,0|0,3:0|3:0,0:0:0:0:
402,39,13121,6,0,P|439:99|406:161,1,146.666666666667,2|2,3:3|3:3,0:0:0:0:
355,169,13788,5,4,0:0:0:0:
399,244,14121,2,0,P|403:327|321:351,1,165,8|0,0:1|0:0,0:0:0:0:
259,316,14954,2,0,P|184:322|82:332,1,165,0|8,0:0|0:1,0:0:0:0:
59,357,15621,2,0,P|67:302|71:247,1,110,2|0,0:0|0:0,0:0:0:0:
62,204,16121,1,8,0:1:0:0:
77,117,16454,6,0,P|127:94|180:106,1,110,8|2,3:1|0:0,0:0:0:0:
220,123,16954,2,0,P|272:134|322:112,1,110,0|0,0:0|0:0,0:0:0:0:
388,53,17621,1,0,0:0:0:0:
388,53,17788,2,0,B|412:93|412:93|401:178,1,110,8|8,0:1|0:1,0:0:0:0:
336,219,18454,2,0,L|346:332,1,110,8|8,0:1|0:1,0:0:0:0:
273,378,19121,5,8,0:1:0:0:
193,340,19454,2,0,L|132:346,2,55,0|0|8,0:0|0:0|0:1,0:0:0:0:
260,283,20121,2,0,L|255:225,1,55,0|0,0:0|0:0,0:0:0:0:
223,146,20621,2,0,P|229:91|233:36,2,110,0|2|0,0:0|0:0|0:0,0:0:0:0:
151,198,21621,1,0,0:0:0:0:
151,198,21788,6,0,L|42:208,1,110,8|2,3:1|0:0,0:0:0:0:
1,226,22288,2,0,P|-10:287|13:333,1,110,0|0,0:0|0:0,0:0:0:0:
89,364,22954,2,0,L|143:358,1,55,0|8,0:0|0:1,0:0:0:0:
231,370,23454,1,4,0:3:0:0:
305,322,23788,2,0,L|310:268,2,55,4|8|2,0:3|0:1|3:0,0:0:0:0:
333,355,24288,1,8,0:3:0:0:
333,355,24454,6,0,P|387:365|437:345,1,110,4|2,0:0|0:0,0:0:0:0:
467,313,24954,2,0,L|477:194,1,110,0|0,0:0|3:0,0:0:0:0:
415,139,25621,2,0,P|361:129|311:149,1,110,8|0,0:1|0:0,0:0:0:0:
281,182,26121,1,2,0:3:0:0:
281,182,26288,2,0,L|271:63,1,110,0|0,3:0|3:0,0:0:0:0:
264,28,26788,2,0,P|291:24|318:19,2,55,2|8|8,0:3|0:1|0:1,0:0:0:0:
184,65,27454,5,2,0:3:0:0:
184,65,27621,2,0,P|129:58|74:53,1,110,8|0,0:1|3:0,0:0:0:0:
6,109,28288,2,0,P|-2:161|27:212,1,110,0|8,3:0|0:1,0:0:0:0:
60,234,28788,1,2,0:3:0:0:
157,240,29121,1,0,3:0:0:0:
157,240,29288,2,0,L|148:302,2,55,0|4|8,3:0|0:3|0:1,0:0:0:0:
192,213,29788,6,0,P|248:191|302:209,1,110,4|2,0:0|0:3,0:0:0:0:
332,225,30288,2,0,L|344:334,1,110,0|0,0:0|3:0,0:0:0:0:
373,366,30788,2,0,P|401:361|428:358,1,55,0|0,0:0|3:0,0:0:0:0:
504,312,31288,1,0,0:0:0:0:
504,312,31454,2,0,P|524:266|507:200,1,110,2|8,0:3|0:1,0:0:0:0:
469,201,31954,2,0,P|476:135|481:84,1,110,0|0,0:0|0:0,0:0:0:0:
485,47,32454,6,0,P|436:76|371:60,1,110,8|0,0:1|3:0,0:0:0:0:
351,40,32954,1,0,0:0:0:0:
351,40,33121,2,0,P|322:44|293:48,1,55,8|8,0:1|0:1,0:0:0:0:
262,75,33454,2,0,P|233:79|204:83,1,55,0|0,0:0|3:0,0:0:0:0:
136,30,33954,2,0,P|118:79|139:139,1,110,2|0,0:0|0:0,0:0:0:0:
149,174,34454,1,2,0:3:0:0:
149,174,34621,2,0,P|177:171|206:166,2,55,2|8|8,0:3|0:1|0:1,0:0:0:0:
114,201,35121,6,0,P|93:250|106:306,1,110,4|0,0:0|0:0,0:0:0:0:
127,341,35621,1,2,0:3:0:0:
247,286,36121,2,0,L|369:292,1,110,8|0,0:1|0:0,0:0:0:0:
396,311,36621,1,2,0:3:0:0:
457,200,37121,2,0,L|518:192,2,55,2|2|8,0:3|0:3|0:1,0:0:0:0:
367,196,37788,6,0,P|337:152|336:98,1,110,4|0,0:0|0:0,0:0:0:0:
352,57,38288,1,2,0:3:0:0:
221,34,38788,2,0,L|108:45,1,110,8|0,0:1|0:0,0:0:0:0:
67,51,39288,1,2,0:3:0:0:
13,174,39788,2,0,P|17:209|19:237,2,55,8|8|2,0:1|0:1|0:3,0:0:0:0:
92,136,40454,6,0,P|135:137|176:205,1,110,4|2,0:0|0:3,0:0:0:0:
177,229,40954,1,0,0:0:0:0:
177,229,41121,2,0,P|172:278|168:300,1,55,0|0,0:0|3:0,0:0:0:0:
128,360,41621,2,0,P|182:365|237:373,1,110,0|2,3:0|0:0,0:0:0:0:
274,349,42121,2,0,P|328:343|383:339,2,110,2|2|2,0:3|0:0|0:3,0:0:0:0:
262,261,43121,6,0,P|267:204|271:148,1,110,2|2,0:0|0:3,0:0:0:0:
262,106,43621,2,0,P|316:116|367:96,1,110,0|0,0:0|0:0,0:0:0:0:
430,37,44288,2,0,P|479:56|486:118,1,110,0|2,3:0|0:0,0:0:0:0:
470,149,44788,2,0,P|464:187|461:224,1,55,2|8,0:3|0:1,0:0:0:0:
429,233,45121,1,2,0:3:0:0:
429,233,45288,2,0,P|433:260|435:287,2,55,0|2|2,0:0|0:3|0:0,0:0:0:0:
386,221,45788,6,0,P|333:209|280:232,1,110,4|0,0:0|0:0,0:0:0:0:
255,263,46288,2,0,L|192:256,1,55,8|2,0:1|0:3,0:0:0:0:
127,307,46788,2,0,P|89:313|62:316,1,55,0|8,0:0|0:1,0:0:0:0:
35,338,47121,1,8,0:1:0:0:
35,338,47288,2,0,P|42:283|47:228,1,110,2|0,0:3|0:0,0:0:0:0:
29,188,47788,1,8,0:1:0:0:
88,123,48121,1,8,0:1:0:0:
48,44,48454,6,0,P|103:39|158:32,1,110,8|0,0:1|0:0,0:0:0:0:
201,40,48954,1,8,0:1:0:0:
201,40,49121,2,0,P|221:91|203:145,1,110,2|0,0:3|0:0,0:0:0:0:
140,202,49788,6,0,P|129:273|206:311,1,146.666666666667,2|2,3:3|3:3,0:0:0:0:
234,321,50454,2,0,L|226:380,2,55,8|8|2,0:1|0:1|0:3,0:0:0:0:
261,237,51121,5,4,0:0:0:0:
313,307,51454,2,0,P|356:300|383:298,1,55,2|0,0:3|0:0,0:0:0:0:
407,317,51788,2,0,P|460:297|462:232,1,110,0|8,3:0|0:1,0:0:0:0:
441,215,52288,2,0,B|449:106|449:106|420:48,1,165,0|2,0:0|0:3,0:0:0:0:
339,31,53121,1,8,0:1:0:0:
253,50,53454,2,0,L|248:104,1,55,2|0,0:3|0:0,0:0:0:0:
261,147,53788,6,0,P|211:153|147:164,1,110,4|2,0:0|0:3,0:0:0:0:
111,180,54288,2,0,P|81:135|94:71,2,110,8|8|8,0:1|0:1|0:1,0:0:0:0:
169,246,55288,1,2,0:3:0:0:
169,246,55454,2,0,P|163:287|156:311,1,55,2|8,0:3|0:1,0:0:0:0:
134,336,55788,2,0,P|187:326|237:347,1,110,2|8,0:3|0:1,0:0:0:0:
323,366,56454,6,0,P|376:360|442:352,1,110,6|8,0:0|0:1,0:0:0:0:
475,362,56954,2,0,P|507:319|510:264,1,110,2|2,0:0|0:3,0:0:0:0:
490,226,57454,1,8,0:1:0:0:
416,177,57788,2,0,L|354:183,1,55,2|2,0:0|0:0,0:0:0:0:
325,208,58121,2,0,L|263:202,1,55,2|2,0:0|0:0,0:0:0:0:
203,145,58621,1,8,0:1:0:0:
203,145,58788,1,8,0:0:0:0:
141,207,59121,5,4,0:0:0:0:
55,186,59454,2,0,P|52:138|49:119,1,55,2|0,0:3|0:0,0:0:0:0:
48,86,59788,2,0,P|81:36|146:43,1,110,2|2,0:0|0:3,0:0:0:0:
211,53,60454,2,0,P|266:48|321:41,1,110,8|2,0:1|0:3,0:0:0:0:
362,48,60954,2,0,P|404:82|409:135,1,110,2|0,0:0|0:0,0:0:0:0:
332,179,61621,6,0,L|346:291,1,110,0|2,3:0|0:0,0:0:0:0:
343,332,62121,2,0,P|297:337|268:337,1,55,2|0,0:3|0:0,0:0:0:0:
251,361,62454,2,0,P|206:352|177:349,1,55,8|4,0:1|0:3,0:0:0:0:
109,341,62954,6,0,P|86:296|99:231,1,110,2|0,0:0|0:0,0:0:0:0:
129,211,63454,2,0,P|156:207|183:204,1,55,2|0,0:3|0:0,0:0:0:0:
221,226,63788,2,0,P|249:228|276:230,1,55,8|0,0:1|0:1,0:0:0:0:
317,216,64121,2,0,P|327:190|328:162,1,55,2|0,0:3|0:0,0:0:0:0:
313,121,64454,5,4,0:0:0:0:
377,60,64788,2,0,P|422:55|447:50,1,55,2|0,0:3|0:0,0:0:0:0:
473,41,65121,2,0,P|506:82|496:135,1,110,2|2,0:0|0:3,0:0:0:0:
439,202,65788,2,0,P|426:243|447:311,1,110,8|2,0:1|0:3,0:0:0:0:
476,335,66288,2,0,P|421:338|366:344,1,110,2|0,0:0|0:0,0:0:0:0:
279,360,66954,6,0,L|166:349,1,110,0|0,3:0|0:0,0:0:0:0:
126,360,67454,1,2,0:3:0:0:
90,270,67788,1,8,0:1:0:0:
90,270,67954,2,0,P|42:277|16:280,2,55,0|2|0,0:0|0:3|0:0,0:0:0:0:
99,226,68454,2,0,L|107:160,1,55,2|2,0:3|0:3,0:0:0:0:
136,139,68788,2,0,L|128:73,1,55,2|2,0:0|0:3,0:0:0:0:
192,22,69288,1,8,0:1:0:0:
275,50,69621,1,2,0:0:0:0:
274,50,69788,6,0,P|329:45|384:37,1,110,4|2,0:0|0:3,0:0:0:0:
468,57,70454,2,0,P|484:109|462:159,1,110,2|2,0:0|0:3,0:0:0:0:
383,199,71121,2,0,P|328:191|273:186,1,110,8|2,0:1|0:3,0:0:0:0:
230,194,71621,2,0,P|205:251|226:310,1,110,2|0,0:0|0:0,0:0:0:0:
266,367,72288,6,0,P|320:362|375:354,1,110,0|0,3:0|0:0,0:0:0:0:
418,346,72788,1,2,0:3:0:0:
398,260,73121,2,0,P|370:264|338:268,2,55,8|8|2,0:1|0:1|0:3,0:0:0:0:
441,263,73621,1,0,0:0:0:0:
441,263,73788,2,0,P|445:218|450:189,1,55,2|0,0:0|0:0,0:0:0:0:
468,170,74121,2,0,P|468:142|462:115,1,55,2|2,0:3|0:0,0:0:0:0:
441,76,74454,1,8,0:1:0:0:
362,35,74788,2,0,L|297:42,1,55,2|0,0:3|0:0,0:0:0:0:
272,67,75121,5,4,0:0:0:0:
187,42,75454,2,0,P|112:49|66:52,1,110,2|8,0:3|0:1,0:0:0:0:
23,120,76121,1,2,0:3:0:0:
63,200,76454,2,0,P|69:246|37:305,1,110,2|2,0:0|0:3,0:0:0:0:
5,326,76954,2,0,P|59:331|114:339,1,110,2|0,0:0|0:0,0:0:0:0:
147,368,77454,2,0,P|179:363|216:359,1,55,2|0,0:3|0:0,0:0:0:0:
245,355,77788,5,8,0:1:0:0:
326,322,78121,2,0,P|330:294|332:267,1,55,2|0,0:3|0:0,0:0:0:0:
320,224,78454,2,0,P|373:199|428:209,1,110,2|2,0:0|0:3,0:0:0:0:
498,250,79121,2,0,P|505:195|509:140,1,110,2|2,0:0|0:3,0:0:0:0:
509,96,79621,2,0,P|471:72|399:84,1,110,8|0,0:1|0:0,0:0:0:0:
375,107,80121,2,0,L|311:94,1,55,8|0,0:1|0:0,0:0:0:0:
299,57,80454,6,0,P|247:64|189:71,1,110,6|2,0:0|0:3,0:0:0:0:
147,81,80954,1,2,0:0:0:0:
147,81,81121,2,0,P|157:125|161:153,2,55,0|0|2,0:0|0:0|0:3,0:0:0:0:
67,42,81788,6,0,P|3:67|4:136,1,146.666666666667,2|2,3:3|3:3,0:0:0:0:
128,215,82788,1,2,0:3:0:0:
47,250,83121,5,4,0:0:0:0:
118,303,83454,1,2,0:3:0:0:
201,273,83788,2,0,P|255:267|310:263,1,110,2|2,0:0|0:3,0:0:0:0:
388,302,84454,2,0,P|432:271|433:218,1,110,8|2,0:1|0:3,0:0:0:0:
399,190,84954,2,0,L|411:77,1,110,2|8,0:0|0:1,0:0:0:0:
415,36,85454,1,2,0:3:0:0:
330,61,85788,6,0,P|275:67|220:71,1,110,2|2,0:3|0:3,0:0:0:0:
176,74,86288,2,0,P|187:118|189:144,1,55,8|8,0:1|0:1,0:0:0:0:
204,167,86621,2,0,P|199:195|195:222,2,55,2|0|6,0:0|3:0|0:0,0:0:0:0:
256,192,87121,12,0,89788,0:0:0:0:
