osu file format v14

[General]
AudioFilename: audio.mp3
AudioLeadIn: 0
PreviewTime: 59121
Countdown: 0
SampleSet: Soft
StackLeniency: 0.7
Mode: 0
LetterboxInBreaks: 0
WidescreenStoryboard: 0

[Editor]
DistanceSpacing: 1.3
BeatDivisor: 6
GridSize: 4
TimelineZoom: 1.1

[Metadata]
Title:Zettai Kibou Birthday
TitleUnicode:絶対希望バースデー
Artist:Nagito Komaeda(cv.Megumi Ogata)
ArtistUnicode:狛枝凪斗(cv.緒方恵美)
Creator:Chaoslitz
Version:Hard
Source:ダンガンロンパ3-The End of 希望ヶ峰学園- 絶望編
Tags:danganronpa dangan ronpa hope's peak academy side despair tv size ed ending
BeatmapID:1251791
BeatmapSetID:520039

[Difficulty]
HPDrainRate:5
CircleSize:4
OverallDifficulty:6
ApproachRate:7.5
SliderMultiplier:1.3
SliderTickRate:1

[Events]
//Background and Video events
0,0,"bg.jpg",0,0
//Break Periods
//Storyboard Layer 0 (Background)
//Storyboard Layer 1 (Fail)
//Storyboard Layer 2 (Pass)
//Storyboard Layer 3 (Foreground)
//Storyboard Sound Samples

[TimingPoints]
455,333.333333333333,4,2,0,40,1,0
1121,-133.333333333333,4,2,0,40,0,0
1204,-100,4,2,0,10,0,0
2121,-100,4,2,1,40,0,0
2454,-100,4,2,1,50,0,0
2788,-100,4,2,1,60,0,0
3121,-100,4,2,1,70,0,0
13121,-100,4,2,1,70,0,0
13788,-100,4,2,1,60,0,0
23454,-100,4,2,1,60,0,0
24454,-100,4,2,1,60,0,0
25454,-100,4,2,1,10,0,0
25621,-100,4,2,1,60,0,0
35121,-100,4,2,1,60,0,0
35621,-100,4,2,1,60,0,0
36121,-100,4,2,1,60,0,0
36621,-100,4,2,1,60,0,0
37788,-100,4,2,1,60,0,0
38288,-100,4,2,1,60,0,0
38788,-100,4,2,1,60,0,0
39288,-100,4,2,1,60,0,0
40121,-100,4,2,1,60,0,0
40454,-100,4,2,1,60,0,0
45788,-100,4,2,1,50,0,0
49788,-100,4,2,1,60,0,0
51121,-100,4,2,1,70,0,0
59121,-100,4,2,1,80,0,1
61621,-100,4,2,1,80,0,1
64454,-100,4,2,1,80,0,1
66954,-100,4,2,1,80,0,1
69788,-100,4,2,1,80,0,1
72288,-100,4,2,1,80,0,1
78454,-100,4,2,1,80,0,1
83121,-100,4,2,1,80,0,0
87121,-100,4,2,1,80,0,0
87454,-100,4,2,1,70,0,0
87788,-100,4,2,1,60,0,0
88121,-100,4,2,1,50,0,0
88454,-100,4,2,1,40,0,0
88788,-100,4,2,1,30,0,0
89121,-100,4,2,1,20,0,0
89454,-100,4,2,1,10,0,0
89788,-100,4,2,1,5,0,0

[Colours]
Combo1 : 196,84,211
Combo2 : 84,237,254
Combo3 : 33,231,92
Combo4 : 241,75,79
Combo5 : 84,134,252

[HitObjects]
101,346,1121,6,0,P|9:308|124:275,1,292.50001115799,0|0,0:0|0:0,0:0:0:0:
176,327,2454,6,8,L|211:336,3,32.5,8|0|8|8,0:0|0:0|0:1|0:1,0:0:0:0:
230,349,2788,2,0,P|276:342|331:336,1,97.5,4|0,0:3|0:0,0:0:0:0:
362,333,3121,5,4,0:0:0:0:
487,219,3454,2,0,P|494:284|500:349,2,130,2|8|2,0:3|0:1|0:3,0:0:0:0:
438,149,4288,1,0,0:0:0:0:
364,190,4454,6,0,P|330:196|296:203,2,65,8|0|2,0:1|0:0|0:3,0:0:0:0:
438,149,4954,2,0,P|457:94|408:31,1,130,0|0,0:0|0:0,0:0:0:0:
337,25,5454,2,0,P|333:59|328:89,1,65,2|8,0:3|0:1,0:0:0:0:
251,126,5788,6,0,P|191:142|131:112,1,130,8|2,0:1|0:3,0:0:0:0:
84,42,6288,2,0,P|94:104|61:159,1,130,0|0,0:0|0:0,0:0:0:0:
0,217,6788,2,0,P|8:252|12:285,1,65,2|0,0:3|0:0,0:0:0:0:
53,354,7121,6,0,P|114:369|169:337,1,130,8|2,0:1|0:3,0:0:0:0:
207,262,7621,1,0,0:0:0:0:
273,313,7788,2,0,L|319:307,3,32.5,2|0|0|0,0:3|3:0|3:0|3:0,0:0:0:0:
335,320,8121,2,0,L|381:314,3,32.5,8|0|0|0,0:0|3:0|3:0|3:0,0:0:0:0:
395,330,8454,6,0,P|427:325|459:323,1,65,8|0,0:1|0:0,0:0:0:0:
500,248,8788,2,0,P|467:245|435:241,1,65,0|8,0:0|0:1,0:0:0:0:
365,190,9121,2,0,P|364:158|372:127,1,65,0|0,3:0|0:0,0:0:0:0:
432,66,9454,1,8,0:1:0:0:
432,66,9621,1,0,0:0:0:0:
363,16,9788,6,0,L|294:25,1,65,2|0,0:3|0:0,0:0:0:0:
298,24,10121,1,0,0:0:0:0:
236,82,10288,1,2,0:3:0:0:
182,16,10454,1,0,0:0:0:0:
182,16,10621,1,0,0:0:0:0:
123,77,10788,2,0,P|90:82|54:86,1,65,2|8,0:3|0:1,0:0:0:0:
8,153,11121,6,0,P|6:184|17:216,1,65,2|0,0:3|0:0,0:0:0:0:
90,174,11454,1,0,0:0:0:0:
117,254,11621,1,2,0:3:0:0:
117,254,11788,2,0,P|113:295|110:322,1,65,0|0,0:0|0:0,0:0:0:0:
182,362,12121,2,0,P|222:357|260:354,1,65,2|0,0:3|0:0,0:0:0:0:
329,371,12454,5,0,3:0:0:0:
301,291,12621,2,0,P|305:258|307:226,2,65,8|0|0,0:1|3:0|0:0,0:0:0:0:
384,301,13121,6,0,P|426:294|469:289,2,86.6666666666667,2|2|2,3:3|3:3|3:3,0:0:0:0:
315,211,13788,6,0,P|284:156|305:79,1,130,4|8,0:0|0:1,0:0:0:0:
365,49,14288,2,0,L|235:34,1,130,2|0,0:0|0:0,0:0:0:0:
157,66,14788,2,0,P|115:75|88:78,1,65,0|0,0:0|0:0,0:0:0:0:
24,127,15121,5,8,0:1:0:0:
52,206,15288,2,0,P|47:243|39:280,1,65,0|8,0:0|0:1,0:0:0:0:
42,353,15621,2,0,P|104:368|159:336,1,130,2|0,0:0|0:0,0:0:0:0:
146,252,16121,2,0,P|190:255|229:285,1,86.6666666666667,8|0,0:1|0:0,0:0:0:0:
241,317,16454,6,0,P|305:310|370:305,1,130,8|2,3:1|0:0,0:0:0:0:
437,357,16954,2,0,P|455:311|422:237,1,130,0|0,0:0|0:0,0:0:0:0:
341,226,17454,2,0,P|337:187|332:153,1,65,0|0,0:0|0:0,0:0:0:0:
303,81,17788,5,8,0:1:0:0:
359,19,17954,2,0,P|402:14|441:8,2,65,2|8|0,0:0|0:1|0:0,0:0:0:0:
303,81,18454,2,0,P|270:76|237:73,1,65,8|0,0:1|0:0,0:0:0:0:
165,29,18788,2,0,P|120:47|73:40,1,97.5,8|0,0:1|0:0,0:0:0:0:
48,19,19121,6,0,P|57:83|64:147,1,130,8|0,0:1|0:0,0:0:0:0:
8,211,19621,1,0,0:0:0:0:
89,233,19788,2,0,P|121:227|153:223,2,65,8|0|0,0:1|0:0|0:0,0:0:0:0:
32,296,20288,2,0,P|60:364|135:357,2,130,0|0|2,0:0|0:0|0:0,0:0:0:0:
82,129,21288,2,0,P|148:122|211:114,1,130,0|0,0:0|0:0,0:0:0:0:
252,42,21788,6,0,P|263:106|270:171,1,130,8|2,3:1|0:0,0:0:0:0:
212,228,22288,1,0,0:0:0:0:
279,278,22454,2,0,P|312:275|343:270,1,65,8|0,0:1|0:0,0:0:0:0:
423,294,22788,2,0,P|427:262|419:231,1,65,8|0,0:1|0:0,0:0:0:0:
343,269,23121,6,0,P|347:330|395:375,2,130,8|4|4,0:1|0:3|0:3,0:0:0:0:
419,231,23954,1,8,0:1:0:0:
362,167,24121,2,0,P|359:135|354:103,1,65,2|8,3:0|0:3,0:0:0:0:
295,40,24454,6,0,P|234:23|180:73,1,130,4|2,0:0|0:0,0:0:0:0:
149,137,24954,1,0,0:0:0:0:
75,94,25121,2,0,P|42:98|10:102,2,65,0|0|0,0:0|3:0|0:0,0:0:0:0:
149,137,25621,6,0,P|174:194|149:253,1,130,8|0,0:1|0:0,0:0:0:0:
70,284,26121,1,2,0:3:0:0:
136,337,26288,2,0,L|216:328,1,65,0|0,3:0|0:0,0:0:0:0:
274,371,26621,1,0,3:0:0:0:
274,371,26788,2,0,P|283:340|280:308,1,65,2|8,0:3|0:1,0:0:0:0:
265,278,27038,1,8,0:1:0:0:
265,278,27121,6,0,P|326:295|378:260,1,130,8|2,0:1|0:3,0:0:0:0:
416,184,27621,1,8,0:1:0:0:
416,184,27788,1,8,0:1:0:0:
343,141,27954,2,0,P|347:96|348:65,1,65,0|0,3:0|0:0,0:0:0:0:
274,31,28288,6,0,P|209:35|144:40,1,130,0|8,3:0|0:1,0:0:0:0:
81,98,28788,1,2,0:3:0:0:
65,180,28954,1,0,0:0:0:0:
100,256,29121,1,0,3:0:0:0:
173,296,29288,2,0,P|209:291|240:288,2,65,0|4|8,3:0|0:3|0:1,0:0:0:0:
130,369,29788,6,0,P|92:318|100:256,1,130,4|2,0:0|0:3,0:0:0:0:
171,212,30288,1,0,0:0:0:0:
171,212,30454,2,0,P|164:160|158:131,1,65,8|0,0:1|3:0,0:0:0:0:
145,63,30788,1,0,0:0:0:0:
223,93,30954,6,0,P|287:108|360:55,1,130,0|0,3:0|0:0,0:0:0:0:
411,32,31454,2,0,P|449:38|486:42,1,65,2|0,0:3|0:0,0:0:0:0:
505,120,31788,2,0,P|472:123|440:126,1,65,8|0,0:1|0:0,0:0:0:0:
368,173,32121,2,0,P|376:210|380:249,1,65,2|0,0:3|0:0,0:0:0:0:
448,285,32454,6,0,P|395:319|332:307,1,130,8|0,0:1|3:0,0:0:0:0:
292,232,32954,1,0,0:0:0:0:
292,232,33121,2,0,P|259:236|227:239,1,65,8|8,0:1|0:1,0:0:0:0:
157,191,33454,1,0,0:0:0:0:
83,233,33621,6,0,P|67:294|100:348,1,130,0|2,3:0|0:0,0:0:0:0:
181,372,34121,1,8,0:1:0:0:
248,320,34288,1,0,0:0:0:0:
324,355,34454,1,2,0:3:0:0:
324,355,34621,2,0,P|356:350|388:346,2,65,2|8|8,0:3|0:1|0:1,0:0:0:0:
248,320,35121,6,0,P|253:254|258:190,1,130,4|0,0:0|0:0,0:0:0:0:
270,106,35621,2,0,P|223:77|150:100,1,130,2|0,0:3|0:0,0:0:0:0:
116,173,36121,2,0,P|60:203|0:183,1,130,8|0,0:1|0:0,0:0:0:0:
53,117,36621,6,0,P|47:73|42:48,2,65,2|0|0,0:3|0:0|0:0,0:0:0:0:
116,173,37121,1,2,0:3:0:0:
116,173,37288,1,2,0:3:0:0:
179,229,37454,2,0,L|174:270,3,32.5,8|0|8|0,0:1|0:0|0:1|0:0,0:0:0:0:
153,287,37788,6,0,P|216:275|274:305,1,130,4|0,0:0|0:0,0:0:0:0:
315,376,38288,2,0,L|446:363,1,130,2|0,0:3|0:0,0:0:0:0:
504,302,38788,2,0,P|521:241|500:181,1,130,8|0,0:1|0:0,0:0:0:0:
418,155,39288,6,0,L|323:164,2,65,2|0|0,0:3|0:0|0:0,0:0:0:0:
479,96,39788,2,0,L|519:100,2,32.5,8|0|8,0:1|0:0|0:1,0:0:0:0:
397,74,40121,2,0,L|302:83,1,65,2|0,0:3|0:0,0:0:0:0:
258,121,40454,6,0,P|203:137|133:80,1,130,4|2,0:0|0:3,0:0:0:0:
105,26,40954,1,0,0:0:0:0:
33,72,41121,1,0,0:0:0:0:
33,72,41288,2,0,L|42:154,1,65,0|0,3:0|0:0,0:0:0:0:
108,187,41621,6,0,L|97:340,1,130,0|2,3:0|0:0,0:0:0:0:
169,363,42121,2,0,P|202:366|233:358,1,65,2|0,0:3|0:0,0:0:0:0:
299,306,42454,1,2,0:0:0:0:
299,306,42621,1,0,0:0:0:0:
351,372,42788,2,0,P|387:367|418:364,1,65,2|0,0:3|0:0,0:0:0:0:
490,326,43121,6,0,P|511:265|487:206,1,130,2|2,0:0|0:3,0:0:0:0:
403,197,43621,2,0,P|408:160|410:127,1,65,0|2,0:0|0:0,0:0:0:0:
369,57,43954,2,0,P|337:47|305:50,1,65,0|2,0:0|0:3,0:0:0:0:
237,103,44288,6,0,P|173:110|108:116,1,130,0|2,3:0|0:0,0:0:0:0:
27,92,44788,1,2,0:3:0:0:
27,92,44954,1,8,0:1:0:0:
46,174,45121,1,2,0:3:0:0:
65,256,45288,2,0,P|60:288|56:320,2,65,0|2|2,0:0|0:3|0:0,0:0:0:0:
136,211,45788,6,0,P|197:198|251:234,1,130,4|0,0:0|0:0,0:0:0:0:
234,316,46288,1,8,0:1:0:0:
234,316,46454,2,0,P|298:307|363:301,1,130,2|0,0:3|0:0,0:0:0:0:
434,256,46954,1,8,0:1:0:0:
483,324,47121,5,8,0:1:0:0:
483,324,47288,2,0,P|508:294|500:206,1,130,2|0,0:3|0:0,0:0:0:0:
425,169,47788,2,0,P|392:174|360:178,1,65,8|0,0:1|0:0,0:0:0:0:
276,161,48121,2,0,P|266:131|267:98,1,65,8|0,0:1|0:0,0:0:0:0:
318,32,48454,6,0,P|251:17|190:68,1,130,8|0,0:1|0:0,0:0:0:0:
157,118,48954,1,8,0:1:0:0:
157,118,49121,2,0,P|102:149|40:133,1,130,2|0,0:3|0:0,0:0:0:0:
91,66,49621,1,0,0:0:0:0:
157,118,49788,6,0,P|150:172|146:230,2,86.6666666666667,2|2|2,3:3|3:3|3:3,0:0:0:0:
241,43,50454,2,0,P|247:75|252:108,1,65,8|8,0:1|0:1,0:0:0:0:
276,189,50788,2,0,L|322:182,3,32.5,2|0|0|0,0:3|0:0|0:0|0:0,0:0:0:0:
338,196,51121,6,0,L|328:331,1,130,4|2,0:0|0:3,0:0:0:0:
402,366,51621,1,0,0:0:0:0:
482,340,51788,2,0,P|493:307|486:258,1,65,0|8,3:0|0:1,0:0:0:0:
437,212,52121,1,8,0:1:0:0:
510,170,52288,6,0,P|475:135|377:155,1,130,0|0,0:0|0:0,0:0:0:0:
338,196,52788,1,2,0:3:0:0:
338,196,52954,1,0,0:0:0:0:
272,254,53121,2,0,P|239:259|207:261,1,65,8|0,0:1|0:0,0:0:0:0:
161,332,53454,2,0,P|128:326|96:322,1,65,2|0,0:3|0:0,0:0:0:0:
22,278,53788,6,0,P|0:215|20:153,1,130,4|2,0:0|0:3,0:0:0:0:
62,86,54288,2,0,L|195:73,1,130,8|8,0:1|0:1,0:0:0:0:
331,167,54954,2,0,L|201:179,1,130,8|2,0:1|0:3,0:0:0:0:
139,236,55454,1,2,0:3:0:0:
149,320,55621,1,8,0:1:0:0:
223,360,55788,2,0,L|276:355,3,32.5,2|0|8|0,0:3|0:0|0:1|0:0,0:0:0:0:
286,346,56121,2,0,L|339:341,3,32.5,8|0|0|0,0:1|0:0|0:0|0:0,0:0:0:0:
347,327,56454,6,0,P|410:345|476:291,1,130,6|8,0:0|0:1,0:0:0:0:
501,239,56954,1,2,0:0:0:0:
435,185,57121,2,0,P|440:138|442:104,1,65,0|2,0:0|0:3,0:0:0:0:
409,41,57454,2,0,L|367:47,3,32.5,8|0|0|0,0:1|0:0|0:0|0:0,0:0:0:0:
350,64,57788,5,2,0:0:0:0:
350,64,57954,1,2,0:0:0:0:
270,34,58121,1,2,0:0:0:0:
270,34,58287,1,2,0:0:0:0:
118,109,58621,2,0,L|123:146,2,32.5,8|8|8,0:1|0:1|0:0,0:0:0:0:
53,265,59121,6,0,P|99:255|168:306,1,130,4|2,0:0|0:3,0:0:0:0:
217,365,59621,1,0,0:0:0:0:
217,365,59788,2,0,P|258:359|311:354,1,65,2|0,0:0|0:0,0:0:0:0:
349,306,60121,2,0,P|401:301|429:298,1,65,2|0,0:3|0:0,0:0:0:0:
486,339,60454,6,0,P|450:288|457:225,1,130,8|2,0:1|0:3,0:0:0:0:
495,149,60954,2,0,P|457:183|358:164,1,130,2|0,0:0|0:0,0:0:0:0:
339,107,61454,1,2,0:3:0:0:
277,165,61621,6,0,L|139:175,1,130,0|2,3:0|0:0,0:0:0:0:
74,216,62121,2,0,P|80:253|85:287,1,65,2|0,0:3|0:0,0:0:0:0:
126,353,62454,1,8,0:1:0:0:
126,353,62621,2,0,P|170:363|205:354,1,65,4|0,0:3|0:0,0:0:0:0:
247,298,62954,6,0,P|296:285|372:333,1,130,2|0,0:0|0:0,0:0:0:0:
435,364,63454,2,0,P|442:328|446:284,1,65,2|0,0:3|0:0,0:0:0:0:
389,235,63788,1,8,0:1:0:0:
389,235,63954,1,0,0:1:0:0:
472,219,64121,2,0,P|469:174|464:141,1,65,2|0,0:3|0:0,0:0:0:0:
476,70,64454,6,0,P|441:38|355:48,1,130,4|2,0:0|0:3,0:0:0:0:
300,100,64954,1,0,0:0:0:0:
300,100,65121,2,0,P|258:102|205:108,1,65,2|0,0:0|0:0,0:0:0:0:
165,57,65454,2,0,P|132:60|100:64,1,65,2|0,0:3|0:0,0:0:0:0:
33,116,65788,6,0,P|15:158|41:234,1,130,8|2,0:1|0:3,0:0:0:0:
114,276,66288,1,2,0:0:0:0:
186,232,66454,2,0,P|182:199|177:167,2,65,8|0|2,0:1|0:0|0:3,0:0:0:0:
114,276,66954,6,0,P|161:314|247:290,1,130,0|0,3:0|0:0,0:0:0:0:
295,257,67454,2,0,P|305:298|307:334,1,65,2|0,0:3|0:0,0:0:0:0:
391,308,67788,1,8,0:1:0:0:
391,308,67954,2,0,P|386:340|383:372,2,65,0|2|0,0:0|0:3|0:0,0:0:0:0:
474,295,68454,5,2,0:3:0:0:
461,211,68621,1,2,0:3:0:0:
378,225,68788,1,2,0:0:0:0:
391,308,68954,2,0,P|330:293|296:230,2,130,2|8|2,0:3|0:1|0:0,0:0:0:0:
378,225,69788,6,0,P|383:150|388:88,1,130,4|2,0:0|0:3,0:0:0:0:
329,33,70288,1,0,0:0:0:0:
258,78,70454,2,0,L|180:85,1,65,2|0,0:0|0:0,0:0:0:0:
126,31,70788,2,0,L|48:38,1,65,2|0,0:3|0:0,0:0:0:0:
0,95,71121,6,0,P|-9:159|30:211,1,130,8|2,0:1|0:3,0:0:0:0:
74,138,71621,2,0,P|81:199|87:287,1,130,2|0,0:0|0:0,0:0:0:0:
18,322,72121,1,2,0:3:0:0:
90,365,72288,6,0,P|141:338|229:360,1,130,0|0,3:0|0:0,0:0:0:0:
291,373,72788,2,0,P|297:319|301:286,1,65,2|0,0:3|0:0,0:0:0:0:
248,239,73121,1,8,0:1:0:0:
248,239,73288,2,0,P|242:185|238:152,1,65,8|2,0:1|0:3,0:0:0:0:
178,117,73621,1,0,0:0:0:0:
225,47,73788,6,0,P|264:46|304:60,1,65,2|0,0:0|0:0,0:0:0:0:
340,120,74121,2,0,P|372:118|404:114,1,65,2|2,0:3|0:0,0:0:0:0:
457,48,74454,2,0,P|488:105|471:165,1,130,8|2,0:1|0:3,0:0:0:0:
393,200,74954,1,0,0:0:0:0:
462,251,75121,6,0,P|472:302|406:344,2,130,4|2|8,0:0|0:3|0:1,0:0:0:0:
393,200,75954,1,0,0:0:0:0:
393,200,76121,2,0,P|361:205|329:208,1,65,2|0,0:3|0:0,0:0:0:0:
270,268,76454,6,0,L|140:259,1,130,2|2,0:0|0:3,0:0:0:0:
79,317,76954,2,0,P|56:256|81:197,1,130,2|0,0:0|0:0,0:0:0:0:
165,179,77454,1,2,0:3:0:0:
108,115,77621,1,0,0:0:0:0:
150,41,77788,6,0,P|194:36|226:31,1,65,8|0,0:1|0:0,0:0:0:0:
298,23,78121,2,0,P|292:70|286:106,1,65,2|0,0:3|0:0,0:0:0:0:
305,170,78454,2,0,P|368:152|437:198,1,130,2|2,0:0|0:3,0:0:0:0:
461,254,78954,1,0,0:0:0:0:
440,336,79121,6,0,P|375:343|301:348,1,130,2|2,0:0|0:3,0:0:0:0:
226,361,79621,2,0,P|191:304|210:230,1,130,8|0,0:1|0:0,0:0:0:0:
269,195,80121,2,0,L|274:157,3,32.5,8|0|0|0,0:1|0:0|0:0|0:0,0:0:0:0:
267,130,80454,6,0,P|234:135|203:138,1,65,6|0,0:0|0:0,0:0:0:0:
135,85,80788,1,2,0:3:0:0:
58,119,80954,2,0,P|28:165|54:248,1,130,2|0,0:0|0:0,0:0:0:0:
85,307,81454,2,0,P|117:304|149:298,1,65,2|0,0:3|0:0,0:0:0:0:
222,255,81788,6,0,P|233:311|210:359,2,86.6666666666667,2|2|2,3:3|3:3|3:3,0:0:0:0:
128,192,82454,2,0,P|133:137|134:104,1,65,8|0,0:1|0:0,0:0:0:0:
177,54,82788,2,0,P|223:47|273:76,1,97.5,2|0,0:3|0:0,0:0:0:0:
287,95,83121,6,0,P|351:87|416:80,1,130,4|2,0:0|0:3,0:0:0:0:
482,133,83621,1,0,0:0:0:0:
466,216,83788,2,0,P|424:254|336:226,1,130,2|2,0:0|0:3,0:0:0:0:
299,181,84288,1,0,0:0:0:0:
217,203,84454,6,0,P|223:267|229:356,1,130,8|2,0:1|0:3,0:0:0:0:
148,361,84954,1,2,0:0:0:0:
148,361,85121,2,0,P|107:351|74:349,1,65,0|8,0:0|0:1,0:0:0:0:
15,300,85454,2,0,P|7:261|20:221,1,65,2|0,0:3|0:0,0:0:0:0:
57,165,85788,6,0,L|98:160,3,32.5,2|0|0|0,0:3|0:0|0:0|0:0,0:0:0:0:
117,177,86121,1,2,0:3:0:0:
186,128,86288,2,0,L|193:60,1,65,8|8,0:1|0:1,0:0:0:0:
271,33,86621,1,2,0:0:0:0:
345,74,86788,1,0,3:0:0:0:
423,43,86954,1,6,0:0:0:0:
256,192,87121,12,0,89788,0:0:0:0:
