osu file format v14

[General]
AudioFilename: audio.mp3
AudioLeadIn: 0
PreviewTime: 59121
Countdown: 0
SampleSet: Soft
StackLeniency: 0.7
Mode: 0
LetterboxInBreaks: 0
WidescreenStoryboard: 0

[Editor]
DistanceSpacing: 1
BeatDivisor: 4
GridSize: 4
TimelineZoom: 1.1

[Metadata]
Title:Zettai Kibou Birthday
TitleUnicode:絶対希望バースデー
Artist:Nagito Komaeda(cv.Megumi Ogata)
ArtistUnicode:狛枝凪斗(cv.緒方恵美)
Creator:Chaoslitz
Version:Easy
Source:ダンガンロンパ3-The End of 希望ヶ峰学園- 絶望編
Tags:danganronpa dangan ronpa hope's peak academy side despair tv size ed ending
BeatmapID:1251790
BeatmapSetID:520039

[Difficulty]
HPDrainRate:2
CircleSize:3
OverallDifficulty:3
ApproachRate:3
SliderMultiplier:0.899999999999999
SliderTickRate:1

[Events]
//Background and Video events
0,0,"bg.jpg",0,0
//Break Periods
//Storyboard Layer 0 (Background)
//Storyboard Layer 1 (Fail)
//Storyboard Layer 2 (Pass)
//Storyboard Layer 3 (Foreground)
//Storyboard Sound Samples

[TimingPoints]
455,333.333333333333,4,2,0,40,1,0
1121,-100,4,2,0,40,0,0
1204,-100,4,2,0,10,0,0
2121,-100,4,2,1,40,0,0
2454,-100,4,2,1,50,0,0
2788,-100,4,2,1,60,0,0
3121,-100,4,2,1,70,0,0
13121,-100,4,2,1,70,0,0
13788,-100,4,2,1,60,0,0
23454,-100,4,2,1,60,0,0
24454,-100,4,2,1,60,0,0
25454,-100,4,2,1,10,0,0
25621,-100,4,2,1,60,0,0
35121,-100,4,2,1,60,0,0
35621,-100,4,2,1,60,0,0
36121,-100,4,2,1,60,0,0
36621,-100,4,2,1,60,0,0
37788,-100,4,2,1,60,0,0
38288,-100,4,2,1,60,0,0
38788,-100,4,2,1,60,0,0
39288,-100,4,2,1,60,0,0
40121,-100,4,2,1,60,0,0
40454,-100,4,2,1,60,0,0
45788,-100,4,2,1,50,0,0
49788,-100,4,2,1,60,0,0
51121,-100,4,2,1,70,0,0
59121,-100,4,2,1,80,0,1
61621,-100,4,2,1,80,0,1
64454,-100,4,2,1,80,0,1
66954,-100,4,2,1,80,0,1
69788,-100,4,2,1,80,0,1
72288,-100,4,2,1,80,0,1
78454,-100,4,2,1,80,0,1
83121,-100,4,2,1,80,0,0
87121,-100,4,2,1,80,0,0
87454,-100,4,2,1,70,0,0
87788,-100,4,2,1,60,0,0
88121,-100,4,2,1,50,0,0
88454,-100,4,2,1,40,0,0
88788,-100,4,2,1,30,0,0
89121,-100,4,2,1,20,0,0
89454,-100,4,2,1,10,0,0
89788,-100,4,2,1,5,0,0

[Colours]
Combo1 : 196,84,211
Combo2 : 84,237,254
Combo3 : 33,231,92
Combo4 : 241,75,79
Combo5 : 84,134,252

[HitObjects]
112,319,1121,6,0,P|7:247|41:125,1,270,0|0,0:0|0:0,0:0:0:0:
125,91,2454,2,0,B|171:97|171:97|213:85,1,89.9999999999999,8|4,0:0|0:3,0:0:0:0:
292,38,3121,5,4,0:0:0:0:
364,91,3454,2,0,L|353:184,1,89.9999999999999,2|8,0:3|0:1,0:0:0:0:
286,240,4121,1,2,0:3:0:0:
338,314,4454,2,0,L|475:304,2,135,8|0|2,0:1|0:0|0:3,0:0:0:0:
286,240,5788,6,0,P|219:227|154:264,2,135,8|0|2,0:1|0:0|0:3,0:0:0:0:
338,314,7121,2,0,L|357:141,2,135,8|0|8,0:1|0:0|0:0,0:0:0:0:
264,365,8454,5,8,0:1:0:0:
181,326,8788,2,0,P|137:322|92:316,1,89.9999999999999,0|0,0:0|3:0,0:0:0:0:
30,248,9454,1,8,0:1:0:0:
96,187,9788,2,0,P|167:184|213:228,2,135,2|2|2,0:3|0:3|0:3,0:0:0:0:
30,248,11121,6,0,B|44:206|44:206|35:103,1,135,2|2,0:3|0:3,0:0:0:0:
132,20,12121,1,2,0:3:0:0:
189,89,12454,2,0,B|318:127|318:32|451:76,1,270,0|0,3:0|0:0,0:0:0:0:
507,147,13788,6,0,P|501:219|409:242,1,180,4|0,0:0|0:0,0:0:0:0:
348,174,14788,1,0,0:0:0:0:
264,207,15121,2,0,L|126:214,2,135,8|2|8,0:1|0:0|0:1,0:0:0:0:
348,174,16454,6,0,B|358:85|358:85|335:31,2,135,8|0|0,3:1|0:0|0:0,0:0:0:0:
264,207,17788,1,8,0:1:0:0:
315,280,18121,1,8,0:1:0:0:
259,350,18454,2,0,L|169:354,1,89.9999999999999,8|8,0:1|0:1,0:0:0:0:
86,319,19121,5,8,0:1:0:0:
134,243,19454,2,0,L|126:135,2,89.9999999999999,0|8|0,0:0|0:1|0:0,0:0:0:0:
86,319,20454,2,0,B|51:283|51:283|44:184,2,135,2|2|8,0:0|0:0|0:1,0:0:0:0:
169,354,21788,6,0,P|237:339|299:374,2,135,8|0|8,3:1|0:0|0:1,0:0:0:0:
86,319,23121,2,0,L|96:218,1,89.9999999999999,8|4,0:1|0:3,0:0:0:0:
181,204,23788,2,0,L|173:101,1,89.9999999999999,4|2,0:3|3:0,0:0:0:0:
143,29,24454,5,4,0:0:0:0:
232,42,24788,2,0,L|386:31,1,135,2|0,0:0|3:0,0:0:0:0:
451,60,25621,2,0,P|470:127|403:185,1,135,8|2,0:1|0:3,0:0:0:0:
347,201,26454,2,0,L|250:194,1,89.9999999999999,0|2,0:0|0:3,0:0:0:0:
185,140,27121,6,0,L|46:151,1,135,8|8,0:1|0:1,0:0:0:0:
5,228,27954,1,0,3:0:0:0:
43,309,28288,2,0,P|87:336|174:319,1,135,0|2,3:0|0:3,0:0:0:0:
249,283,29121,2,0,L|256:194,1,89.9999999999999,0|4,3:0|0:3,0:0:0:0:
327,137,29788,6,0,P|271:103|202:121,2,135,4|0|0,0:0|0:0|0:0,0:0:0:0:
389,201,31121,1,0,0:0:0:0:
458,144,31454,2,0,L|450:55,2,89.9999999999999,2|8|2,0:3|0:1|0:3,0:0:0:0:
389,201,32454,6,0,B|397:293|397:293|371:355,1,135,8|0,0:1|0:0,0:0:0:0:
294,359,33288,2,0,L|176:367,1,89.9999999999999,8|0,0:1|3:0,0:0:0:0:
114,371,33954,1,2,0:0:0:0:
35,326,34288,2,0,P|2:268|14:203,1,135,0|8,0:0|0:1,0:0:0:0:
66,129,35121,6,0,P|135:103|206:127,1,135,4|2,0:0|0:3,0:0:0:0:
308,185,36121,2,0,P|372:199|434:173,1,135,8|2,0:1|0:3,0:0:0:0:
400,41,37121,2,0,P|354:36|311:52,1,89.9999999999999,2|8,0:3|0:1,0:0:0:0:
242,106,37788,6,0,L|107:97,1,135,4|2,0:0|0:3,0:0:0:0:
34,210,38788,2,0,L|169:219,1,135,8|2,0:1|0:3,0:0:0:0:
301,195,39788,2,0,P|294:239|288:284,1,89.9999999999999,8|2,0:1|0:3,0:0:0:0:
335,360,40454,6,0,P|381:372|429:364,1,89.9999999999999,4|2,0:0|0:3,0:0:0:0:
496,315,41121,2,0,L|486:172,1,135,0|0,0:0|3:0,0:0:0:0:
477,45,42121,2,0,P|433:32|386:42,1,89.9999999999999,2|2,0:3|0:0,0:0:0:0:
313,87,42788,1,2,0:3:0:0:
235,133,43121,6,0,P|158:151|102:115,1,135,2|0,0:0|0:0,0:0:0:0:
84,40,43954,1,0,0:0:0:0:
0,79,44288,2,0,L|15:229,1,135,0|2,3:0|0:3,0:0:0:0:
96,248,45121,1,2,0:3:0:0:
65,332,45454,1,2,0:3:0:0:
147,367,45788,6,0,P|214:360|281:355,1,135,4|8,0:0|0:1,0:0:0:0:
417,368,46788,2,0,P|459:315|427:223,1,135,0|2,0:0|0:3,0:0:0:0:
322,209,47788,2,0,L|332:119,1,89.9999999999999,8|8,0:1|0:1,0:0:0:0:
318,30,48454,6,0,L|466:43,2,135,8|8|0,0:1|0:1|0:0,0:0:0:0:
245,83,49788,2,0,P|172:36|88:61,1,180,2|8,3:3|0:1,0:0:0:0:
12,110,50788,1,2,0:3:0:0:
84,163,51121,5,4,0:0:0:0:
17,223,51454,2,0,P|26:276|36:357,1,135,2|8,0:3|0:1,0:0:0:0:
125,369,52288,2,0,P|206:355|226:296,1,135,0|2,0:0|0:3,0:0:0:0:
168,240,53121,1,8,0:1:0:0:
221,167,53454,1,2,0:3:0:0:
190,82,53788,6,0,P|262:76|342:67,1,135,4|8,0:0|0:1,0:0:0:0:
409,40,54621,1,8,0:1:0:0:
487,83,54954,2,0,B|495:173|495:173|473:235,1,135,8|2,0:1|0:3,0:0:0:0:
390,227,55788,2,0,P|345:209|300:215,1,89.9999999999999,2|8,0:3|0:1,0:0:0:0:
219,243,56454,6,0,L|231:382,2,135,6|2|8,0:0|0:0|0:1,0:0:0:0:
185,159,57788,2,0,P|115:140|56:179,1,135,2|2,0:0|0:0,0:0:0:0:
0,288,58788,1,8,0:0:0:0:
57,356,59121,5,4,0:0:0:0:
138,316,59454,2,0,L|129:214,2,89.9999999999999,2|2|2,0:3|0:0|0:3,0:0:0:0:
220,353,60454,2,0,P|294:358|336:306,1,135,8|2,0:1|0:0,0:0:0:0:
309,231,61288,1,0,0:0:0:0:
337,145,61621,6,0,P|405:128|470:170,1,135,0|2,3:0|0:3,0:0:0:0:
505,234,62454,2,0,L|490:385,2,135,8|2|2,0:1|0:0|0:3,0:0:0:0:
459,156,63788,2,0,L|469:65,1,89.9999999999999,8|2,0:1|0:3,0:0:0:0:
388,25,64454,5,4,0:0:0:0:
304,58,64788,2,0,L|205:49,2,89.9999999999999,2|2|2,0:3|0:0|0:3,0:0:0:0:
373,115,65788,2,0,P|365:168|354:262,1,135,8|2,0:1|0:0,0:0:0:0:
370,337,66621,1,0,0:0:0:0:
281,350,66954,6,0,P|213:367|146:330,1,135,0|2,3:0|0:3,0:0:0:0:
74,304,67788,1,8,0:1:0:0:
136,239,68121,1,2,0:3:0:0:
60,190,68454,2,0,P|51:123|43:55,1,135,2|2,0:3|0:3,0:0:0:0:
125,18,69288,2,0,P|177:13|235:80,1,135,8|4,0:1|0:0,0:0:0:0:
319,44,70121,6,0,P|364:39|409:31,2,89.9999999999999,2|2|2,0:3|0:0|0:3,0:0:0:0:
294,131,71121,2,0,P|282:197|316:253,1,135,8|2,0:1|0:0,0:0:0:0:
385,311,71954,1,0,0:0:0:0:
306,354,72288,6,0,L|131:366,1,135,0|2,3:0|0:3,0:0:0:0:
86,332,73121,2,0,P|53:271|77:195,2,135,8|0|2,0:1|0:0|0:3,0:0:0:0:
171,363,74454,1,8,0:1:0:0:
235,299,74788,1,2,0:3:0:0:
184,224,75121,5,4,0:0:0:0:
239,152,75454,2,0,L|335:159,2,89.9999999999999,2|8|2,0:3|0:1|0:3,0:0:0:0:
165,100,76454,2,0,L|30:111,2,135,2|2|2,0:0|0:0|0:3,0:0:0:0:
246,66,77788,6,0,P|253:109|238:151,1,89.9999999999999,8|2,0:1|0:3,0:0:0:0:
158,192,78454,2,0,P|162:236|167:281,1,89.9999999999999,2|2,0:0|0:3,0:0:0:0:
232,343,79121,2,0,P|301:360|365:330,1,135,2|8,0:0|0:1,0:0:0:0:
465,253,80121,1,8,0:1:0:0:
396,195,80454,6,0,P|404:109|406:71,1,89.9999999999999,6|2,0:0|0:3,0:0:0:0:
360,27,81121,2,0,P|317:17|264:36,1,89.9999999999999,0|2,0:0|0:3,0:0:0:0:
235,111,81788,2,0,P|168:120|100:126,1,135,2|0,3:3|0:0,0:0:0:0:
4,221,82788,1,2,0:3:0:0:
43,301,83121,5,4,0:0:0:0:
123,263,83454,2,0,P|168:262|208:282,1,89.9999999999999,2|2,0:3|0:0,0:0:0:0:
266,352,84121,1,2,0:3:0:0:
345,309,84454,2,0,L|489:318,2,135,8|2|2,0:1|0:0|0:3,0:0:0:0:
287,239,85788,6,0,P|294:176|304:99,1,135,2|8,0:3|0:1,0:0:0:0:
366,40,86621,2,0,P|413:37|460:60,1,89.9999999999999,2|6,0:0|0:0,0:0:0:0:
256,192,87121,12,0,89788,0:0:0:0:
