osu file format v14

[General]
AudioFilename: audio.mp3
AudioLeadIn: 0
PreviewTime: 6830
Countdown: 0
SampleSet: Soft
StackLeniency: 0.7
Mode: 0
LetterboxInBreaks: 0
WidescreenStoryboard: 1

[Editor]
DistanceSpacing: 0.8
BeatDivisor: 4
GridSize: 4
TimelineZoom: 1.3

[Metadata]
Title:Zelda-hime no Thema
TitleUnicode:ゼルダ姫のテーマ
Artist:Nagata Kenta
ArtistUnicode:永田権太
Creator:HakuYT
Version:Normal
Source:ゼルダの伝説 風のタクト
Tags:Instrumental The Legend of Zelda: The Wind Waker Original Soundtrack Nintendo video game OST windwaker Princess Zelda's Theme Lullaby wiwit
BeatmapID:3128365
BeatmapSetID:1529288

[Difficulty]
HPDrainRate:4
CircleSize:3.8
OverallDifficulty:4.5
ApproachRate:5
SliderMultiplier:1.2
SliderTickRate:1

[Events]
//Background and Video events
0,0,"2536226.jpg",0,0
//Break Periods
//Storyboard Layer 0 (Background)
//Storyboard Layer 1 (Fail)
//Storyboard Layer 2 (Pass)
//Storyboard Layer 3 (Foreground)
//Storyboard Layer 4 (Overlay)
//Storyboard Sound Samples

[TimingPoints]
361,491.803278688525,3,2,1,30,1,0
361,-133.333333333333,3,2,1,30,0,0
1898,545.454545454546,3,2,1,30,1,0
1898,-133.333333333333,3,2,1,30,0,0
6830,545.454545454546,3,2,2,35,1,0
7375,-100,3,2,3,35,0,0
7920,-100,3,2,4,35,0,0
7921,-100,3,2,4,35,0,0
8466,-100,3,2,5,35,0,0
9011,-100,3,2,6,35,0,0
9012,-100,3,2,6,35,0,0
9420,-100,3,2,6,5,0,0
9557,-100,3,2,7,35,0,0
9693,-100,3,2,7,5,0,0
9830,-100,3,2,8,35,0,0
9966,-100,3,2,8,5,0,0
10102,-100,3,2,9,35,0,0
10103,-100,3,2,9,35,0,0
10374,-100,3,2,10,35,0,0
10375,-100,3,2,10,35,0,0
10648,-100,3,2,3,35,0,0
11193,-100,3,2,4,35,0,0
11194,-100,3,2,4,35,0,0
11739,-100,3,2,5,35,0,0
12284,-181.818181818182,3,2,6,35,0,0
12285,-181.818181818182,3,2,6,35,0,0
13238,-181.818181818182,3,2,6,5,0,0
13239,-100,3,2,6,5,0,0
13375,-100,3,2,11,35,0,0
13920,-100,3,2,12,35,0,0
13921,-100,3,2,12,35,0,0
14329,-100,3,2,12,5,0,0
14330,-100,3,2,12,5,0,0
14466,-100,3,2,4,35,0,0
15011,-100,3,2,13,35,0,0
15012,-100,3,2,13,35,0,0
15557,-100,3,2,14,35,0,0
16102,-100,3,2,15,35,0,0
16103,-100,3,2,15,35,0,0
16648,-100,3,2,16,35,0,0
17193,-100,3,2,14,35,0,0
17194,-100,3,2,14,35,0,0
17602,-100,3,2,14,5,0,0
17739,-100,3,2,17,35,0,0
17875,-100,3,2,17,5,0,0
18011,-100,3,2,18,35,0,0
18012,-100,3,2,18,35,0,0
18147,-100,3,2,18,5,0,0
18148,-100,3,2,18,5,0,0
18284,-100,3,2,19,35,0,0
18285,-100,3,2,19,35,0,0
18830,-100,3,2,6,35,0,0
20084,545.454545454546,3,2,2,35,1,0
20084,-95.2380952380952,3,2,2,35,0,0
20629,-95.2380952380952,3,2,3,35,0,0
21038,-95.2380952380952,3,2,3,5,0,0
21174,-95.2380952380952,3,2,4,35,0,0
21175,-95.2380952380952,3,2,4,35,0,0
21720,-95.2380952380952,3,2,5,35,0,0
22265,-95.2380952380952,3,2,6,35,0,0
22266,-95.2380952380952,3,2,6,35,0,0
22674,-95.2380952380952,3,2,6,5,0,0
22811,-95.2380952380952,3,2,7,35,0,0
22947,-95.2380952380952,3,2,7,5,0,0
23084,-95.2380952380952,3,2,8,35,0,0
23220,-95.2380952380952,3,2,8,5,0,0
23356,-95.2380952380952,3,2,2,35,0,0
23357,-95.2380952380952,3,2,2,35,0,0
23902,-95.2380952380952,3,2,3,35,0,0
24311,-95.2380952380952,3,2,3,5,0,0
24447,-95.2380952380952,3,2,4,35,0,0
24448,-95.2380952380952,3,2,4,35,0,0
24993,-95.2380952380952,3,2,5,35,0,0
25538,-95.2380952380952,3,2,6,35,0,0
25539,-95.2380952380952,3,2,6,35,0,0
26629,-95.2380952380952,3,2,11,35,0,0
27174,-95.2380952380952,3,2,12,35,0,0
27175,-95.2380952380952,3,2,12,35,0,0
27583,-95.2380952380952,3,2,12,5,0,0
27720,-95.2380952380952,3,2,4,35,0,0
28265,-95.2380952380952,3,2,13,35,0,0
28266,-95.2380952380952,3,2,13,35,0,0
28811,-95.2380952380952,3,2,14,35,0,0
29220,-95.2380952380952,3,2,14,5,0,0
29356,-95.2380952380952,3,2,15,35,0,0
29357,-95.2380952380952,3,2,15,35,0,0
29765,-95.2380952380952,3,2,15,5,0,0
29902,-95.2380952380952,3,2,20,35,0,0
30447,-95.2380952380952,3,2,14,35,0,0
30448,-95.2380952380952,3,2,14,35,0,0
31706,618.556701030928,3,2,21,35,1,0
32084,-100,3,2,21,35,0,0
32324,-100,3,2,6,35,0,0
33598,545.454545454546,3,2,22,40,1,1
33598,-90.9090909090909,3,2,22,40,0,1
33870,-100,3,2,23,40,0,1
33871,-90.9090909090909,3,2,23,40,0,1
34143,-90.9090909090909,3,2,24,40,0,1
34416,-90.9090909090909,3,2,25,40,0,1
34688,-90.9090909090909,3,2,26,40,0,1
34689,-90.9090909090909,3,2,26,40,0,1
34961,-90.9090909090909,3,2,27,40,0,1
34962,-90.9090909090909,3,2,27,40,0,1
35234,-90.9090909090909,3,2,28,40,0,1
35506,-90.9090909090909,3,2,29,40,0,1
35507,-90.9090909090909,3,2,29,40,0,1
35779,-90.9090909090909,3,2,30,40,0,1
35780,-90.9090909090909,3,2,30,40,0,1
36052,-90.9090909090909,3,2,31,40,0,1
36053,-90.9090909090909,3,2,31,40,0,1
36325,-90.9090909090909,3,2,32,40,0,1
36598,-90.9090909090909,3,2,33,40,0,1
36870,-90.9090909090909,3,2,34,40,0,1
36871,-90.9090909090909,3,2,34,40,0,1
37143,-90.9090909090909,3,2,35,40,0,1
37416,-90.9090909090909,3,2,36,40,0,1
37689,-90.9090909090909,3,2,37,40,0,1
37961,-90.9090909090909,3,2,27,40,0,1
37962,-90.9090909090909,3,2,27,40,0,1
38234,-90.9090909090909,3,2,38,40,0,1
38507,-90.9090909090909,3,2,39,40,0,1
38779,-90.9090909090909,3,2,40,40,0,1
38780,-90.9090909090909,3,2,40,40,0,1
39052,-90.9090909090909,3,2,41,40,0,1
39053,-90.9090909090909,3,2,41,40,0,1
39324,-90.9090909090909,3,2,42,40,0,1
39325,-90.9090909090909,3,2,42,40,0,1
39598,-90.9090909090909,3,2,33,40,0,1
39870,-90.9090909090909,3,2,43,40,0,1
39871,-90.9090909090909,3,2,43,40,0,1
40143,-90.9090909090909,3,2,44,40,0,1
40416,-90.9090909090909,3,2,23,40,0,1
40688,-90.9090909090909,3,2,24,40,0,1
40689,-90.9090909090909,3,2,24,40,0,1
40961,-90.9090909090909,3,2,25,40,0,1
40962,-90.9090909090909,3,2,25,40,0,1
41234,-90.9090909090909,3,2,26,40,0,1
41507,-90.9090909090909,3,2,27,40,0,1
41779,-90.9090909090909,3,2,45,40,0,1
41780,-90.9090909090909,3,2,45,40,0,1
42052,-90.9090909090909,3,2,29,40,0,1
42053,-90.9090909090909,3,2,29,40,0,1
42325,-90.9090909090909,3,2,46,40,0,1
42597,-90.9090909090909,3,2,31,40,0,1
42598,-90.9090909090909,3,2,31,40,0,1
42870,-90.9090909090909,3,2,47,40,0,1
42871,-90.9090909090909,3,2,47,40,0,1
43142,-90.9090909090909,3,2,33,40,0,1
43143,-90.9090909090909,3,2,33,40,0,1
43416,545.454545454546,3,2,1,40,1,9
43981,600,3,2,1,30,1,8
44581,638.297872340426,3,2,1,30,1,8
45219,461.538461538462,3,2,1,30,1,0
45449,400,3,2,1,30,1,8
45649,451.127819548872,3,2,1,30,1,8
45874,447.761194029851,3,2,1,30,1,8
46097,444.444444444444,3,2,1,30,1,8
46541,375,3,2,1,30,1,0

[Colours]
Combo1 : 255,255,191
Combo2 : 191,255,191
Combo3 : 191,220,255
Combo4 : 192,192,192

[HitObjects]
51,46,361,6,0,L|59:104,1,45.0000017166138,2|0,2:2|2:2,0:0:0:0:
62,135,852,1,0,2:2:0:0:
174,265,1898,2,0,L|162:323,1,45.0000017166138,2|0,2:2|2:2,0:0:0:0:
154,353,2443,1,0,2:2:0:0:
270,215,3534,6,0,P|233:194|220:190,1,45.0000017166138,2|0,2:2|2:2,0:0:0:0:
191,170,4079,1,0,2:2:0:0:
325,50,5170,2,0,P|362:71|375:75,1,45.0000017166138,2|0,2:2|2:2,0:0:0:0:
404,95,5715,1,0,2:2:0:0:
480,281,6830,6,0,L|403:291,1,60,2|0,2:2|2:2,0:0:0:0:
378,294,7375,1,2,2:2:0:0:
285,270,7920,1,2,2:2:0:0:
219,349,8466,2,0,L|142:339,1,60,2|0,2:2|2:2,0:0:0:0:
117,336,9011,1,2,2:2:0:0:
31,292,9557,2,0,L|20:209,1,60,2|2,2:2|2:2,0:0:0:0:
45,190,10102,6,0,L|56:107,1,60,2|2,2:2|2:2,0:0:0:0:
59,82,10648,1,2,2:2:0:0:
140,31,11193,1,2,2:2:0:0:
193,110,11739,2,0,L|266:99,1,60,2|0,2:2|2:2,0:0:0:0:
293,90,12284,1,2,2:2:0:0:
473,302,13375,6,0,L|390:291,1,60,2|0,2:2|2:2,0:0:0:0:
368,278,13920,2,0,P|332:226|371:167,1,120,2|2,2:2|2:2,0:0:0:0:
430,122,15011,2,0,L|414:54,1,60,2|0,2:2|2:2,0:0:0:0:
377,34,15557,2,0,B|333:16|333:16|240:46,1,120,2|2,2:2|2:2,0:0:0:0:
202,112,16648,6,0,L|127:102,1,60,2|0,2:2|2:2,0:0:0:0:
95,96,17193,1,2,2:2:0:0:
24,161,17739,2,0,L|16:225,1,60,2|2,2:2|2:2,0:0:0:0:
45,258,18284,2,0,L|53:322,1,60,2|0,2:2|2:2,0:0:0:0:
61,364,18830,1,2,2:2:0:0:
281,343,20084,6,0,L|366:357,1,62.9999980773926,2|0,2:2|2:2,0:0:0:0:
393,357,20629,2,0,B|415:316|415:316|390:230,1,125.999996154785,2|2,2:2|2:2,0:0:0:0:
343,151,21720,2,0,L|351:79,1,62.9999980773926,2|0,2:2|2:2,0:0:0:0:
355,38,22265,1,2,2:2:0:0:
255,22,22811,2,0,L|192:15,1,62.9999980773926,2|2,2:2|2:2,0:0:0:0:
159,53,23356,6,0,L|96:60,1,62.9999980773926,2|0,2:2|2:2,0:0:0:0:
53,86,23902,2,0,P|31:142|78:198,1,125.999996154785,2|2,2:2|2:2,0:0:0:0:
158,230,24993,2,0,L|169:307,1,62.9999980773926,2|0,2:2|2:2,0:0:0:0:
175,342,25538,1,2,2:2:0:0:
296,182,26629,6,0,L|224:165,1,62.9999980773926,2|0,2:2|2:2,0:0:0:0:
189,145,27174,2,0,L|170:19,1,125.999996154785,2|2,2:2|2:2,0:0:0:0:
69,29,28265,2,0,P|48:71|53:101,1,62.9999980773926,2|0,2:2|2:2,0:0:0:0:
60,135,28811,2,0,P|82:186|49:275,1,125.999996154785,2|2,2:2|2:2,0:0:0:0:
26,345,29902,6,0,L|104:360,1,62.9999980773926,2|0,2:2|2:2,0:0:0:0:
136,369,30447,2,0,L|266:357,1,125.999996154785,2|0,2:2|0:0,0:0:0:0:
369,331,31706,2,0,L|431:343,1,60,2|0,2:2|2:2,0:0:0:0:
474,352,32324,1,2,2:2:0:0:
375,125,33598,6,0,L|299:133,1,66.0000020141602,2|2,2:2|2:2,0:0:0:0:
258,116,34143,2,0,L|182:124,1,66.0000020141602,2|2,2:2|2:2,0:0:0:0:
139,128,34688,1,2,2:2:0:0:
86,135,34961,1,2,2:2:0:0:
34,145,35234,2,0,L|20:65,1,66.0000020141602,2|2,2:2|2:2,0:0:0:0:
49,34,35779,2,0,P|110:9|189:41,1,132.00000402832,2|2,2:2|2:2,0:0:0:0:
275,45,36870,6,0,L|358:37,1,66.0000020141602,2|2,2:2|2:2,0:0:0:0:
392,25,37416,2,0,L|475:33,1,66.0000020141602,2|2,2:2|2:2,0:0:0:0:
477,80,37961,2,0,P|488:115|485:152,1,66.0000020141602,2|2,2:2|2:2,0:0:0:0:
477,196,38507,1,2,2:2:0:0:
440,234,38779,1,2,2:2:0:0:
387,237,39052,2,0,L|252:220,1,132.00000402832,2|2,2:2|2:2,0:0:0:0:
157,258,40143,6,0,L|144:344,1,66.0000020141602,2|2,2:2|2:2,0:0:0:0:
174,368,40688,2,0,P|212:385|239:383,1,66.0000020141602,2|2,2:2|2:2,0:0:0:0:
281,357,41234,2,0,P|319:340|346:342,1,66.0000020141602,2|2,2:2|2:2,0:0:0:0:
393,354,41779,1,2,2:2:0:0:
444,365,42052,1,2,2:2:0:0:
493,345,42325,1,2,2:2:0:0:
438,254,42870,1,2,2:2:0:0:
482,170,43416,6,0,L|488:96,1,60,2|0,2:2|2:2,0:0:0:0:
469,70,43981,2,0,P|441:49|408:42,1,60,0|0,2:2|2:2,0:0:0:0:
372,46,44581,1,0,2:2:0:0:
339,81,44900,1,0,2:2:0:0:
297,100,45219,2,0,L|233:89,1,60,2|0,2:2|2:2,0:0:0:0:
202,65,45649,2,0,L|138:76,1,60,0|0,2:2|2:2,0:0:0:0:
107,97,46097,2,0,L|94:169,1,60,0|0,2:2|2:2,0:0:0:0:
88,198,46541,2,0,L|99:270,1,60,2|0,2:2|2:2,0:0:0:0:
108,301,46916,1,0,2:2:0:0:
108,301,47103,1,0,2:2:0:0:
