osu file format v14

[General]
AudioFilename: audio.mp3
AudioLeadIn: 0
PreviewTime: 18157
Countdown: 0
SampleSet: Soft
StackLeniency: 0.7
Mode: 2
LetterboxInBreaks: 0
WidescreenStoryboard: 1

[Editor]
Bookmarks: 18657
DistanceSpacing: 1
BeatDivisor: 3
GridSize: 4
TimelineZoom: 1

[Metadata]
Title:Title
TitleUnicode:タイトル
Artist:Nagata Kenta
ArtistUnicode:永田権太
Creator:Secre
Version:ZiRoX's Salad
Source:ゼルダの伝説 風のタクト
Tags:chickenbible zirox Instrumental The Legend of Zelda: The Wind Waker Original Soundtrack Nintendo video game OST windwaker Zelda's Theme HD densetsu kaze no takuto
BeatmapID:3528253
BeatmapSetID:1725903

[Difficulty]
HPDrainRate:3
CircleSize:3
OverallDifficulty:5
ApproachRate:5
SliderMultiplier:1.9
SliderTickRate:1

[Events]
//Background and Video events
0,0,"zelda windwaker.jpg",0,0
//Break Periods
//Storyboard Layer 0 (Background)
//Storyboard Layer 1 (Fail)
//Storyboard Layer 2 (Pass)
//Storyboard Layer 3 (Foreground)
//Storyboard Layer 4 (Overlay)
//Storyboard Sound Samples

[TimingPoints]
657,500,3,2,0,30,1,0
6657,-100,3,2,0,45,0,0
18657,-100,3,2,0,60,0,0
30156,504.201680672269,3,2,0,60,1,0
30660,500,3,2,0,50,1,0
42159,503.14465408805,3,2,0,50,1,0
42662,501.043841336117,3,2,0,60,1,0
54186,495.867768595041,3,2,0,60,1,0
54680,500,3,2,0,30,1,0

[Colours]
Combo1 : 102,153,247
Combo2 : 244,55,55
Combo3 : 236,243,95

[HitObjects]
190,217,657,5,2,0:0:0:0:
190,217,1657,1,0,0:0:0:0:
350,217,2157,1,2,0:0:0:0:
350,217,3157,1,0,0:0:0:0:
190,217,3657,5,2,0:0:0:0:
190,217,4657,1,0,0:0:0:0:
350,217,5157,1,2,0:0:0:0:
350,217,6157,1,0,0:0:0:0:
56,236,6657,5,6,0:0:0:0:
176,240,6990,2,0,L|240:240,1,63.3333333333333,0|2,0:0|0:0,0:0:0:0:
360,240,7490,2,0,L|432:240,1,63.3333333333333,0|2,0:0|0:0,0:0:0:0:
244,96,8157,5,0,0:0:0:0:
360,88,8490,2,0,L|360:160,1,63.3333333333333
176,160,9157,2,0,L|104:160,1,63.3333333333333
112,160,9490,1,0,0:0:0:0:
175,160,9656,5,2,0:0:0:0:
296,240,9990,2,0,L|296:168,1,63.3333333333333
176,160,10490,2,0,L|176:88,1,63.3333333333333
56,104,10990,2,0,L|56:32,1,63.3333333333333,0|2,0:0|0:0,0:0:0:0:
232,40,11657,5,2,0:0:0:0:
292,40,11823,1,0,0:0:0:0:
352,40,11990,1,0,0:0:0:0:
412,40,12157,1,0,0:0:0:0:
128,96,12657,5,6,0:0:0:0:
248,112,12990,2,0,L|248:184,1,63.3333333333333,0|2,0:0|0:0,0:0:0:0:
128,212,13490,2,0,L|128:288,1,63.3333333333333,0|2,0:0|0:0,0:0:0:0:
312,280,14157,5,0,0:0:0:0:
192,244,14490,2,0,L|192:180,1,63.3333333333333
368,224,15157,2,0,L|440:224,1,63.3333333333333
432,224,15490,1,0,0:0:0:0:
369,224,15656,5,2,0:0:0:0:
248,192,15990,2,0,L|248:260,1,63.3333333333333,0|2,0:0|0:0,0:0:0:0:
92,252,16657,2,0,L|20:252,1,63.3333333333333,2|2,0:0|0:0,0:0:0:0:
28,252,16990,1,2,0:0:0:0:
91,252,17156,5,2,0:0:0:0:
272,252,17657,1,0,0:0:0:0:
91,252,18157,1,2,0:0:0:0:
392,252,18657,5,6,0:0:0:0:
272,256,18990,2,0,L|200:256,1,63.3333333333333,0|2,0:0|0:0,0:0:0:0:
88,256,19490,2,0,L|24:256,1,63.3333333333333,0|2,0:0|0:0,0:0:0:0:
304,80,20157,5,0,0:0:0:0:
164,80,20490,2,0,L|164:152,1,63.3333333333333
292,256,20990,2,0,L|360:256,1,63.3333333333333
80,264,21657,5,2,0:0:0:0:
204,264,21990,2,0,L|204:184,1,63.3333333333333
324,268,22490,2,0,L|324:196,1,63.3333333333333
68,144,23157,5,2,0:0:0:0:
192,144,23490,2,0,L|264:144,1,63.3333333333333,0|2,0:0|0:0,0:0:0:0:
84,240,24157,1,0,0:0:0:0:
368,248,24657,5,6,0:0:0:0:
248,256,24990,2,0,L|248:328,1,63.3333333333333,0|2,0:0|0:0,0:0:0:0:
368,248,25490,2,0,L|368:180,1,63.3333333333333
96,196,26157,5,0,0:0:0:0:
240,40,26490,2,0,L|308:40,1,63.3333333333333
188,188,26990,2,0,L|188:268,1,63.3333333333333,0|2,0:0|0:0,0:0:0:0:
468,248,27657,5,2,0:0:0:0:
348,248,27990,2,0,L|348:160,1,63.3333333333333,0|2,0:0|0:0,0:0:0:0:
468,156,28490,2,0,L|468:72,1,63.3333333333333,0|2,0:0|0:0,0:0:0:0:
136,70,29157,6,0,L|137:285,1,190,2|0,0:0|0:0,0:0:0:0:
432,248,30156,1,0,0:0:0:0:
136,176,30660,5,6,0:0:0:0:
156,124,30826,1,0,0:0:0:0:
200,88,30993,1,0,0:0:0:0:
252,76,31160,1,0,0:0:0:0:
368,64,31493,2,0,L|368:-8,1,63.3333333333333
80,40,32160,5,2,0:0:0:0:
264,40,32660,1,2,0:0:0:0:
80,40,33160,1,2,0:0:0:0:
376,108,33660,6,0,L|376:36,1,63.3333333333333,2|0,0:0|0:0,0:0:0:0:
320,44,33993,1,0,0:0:0:0:
257,44,34159,1,2,0:0:0:0:
136,48,34493,2,0,L|136:120,1,63.3333333333333,0|2,0:0|0:0,0:0:0:0:
256,124,34993,1,0,0:0:0:0:
316,124,35161,5,0,0:0:0:0:
376,144,35326,1,0,0:0:0:0:
420,188,35493,1,0,0:0:0:0:
432,248,35660,1,0,0:0:0:0:
324,264,35994,2,0,L|324:340,1,63.3333333333333
40,312,36660,5,2,0:0:0:0:
39,253,36826,1,0,0:0:0:0:
63,197,36993,1,0,0:0:0:0:
122,179,37159,1,0,0:0:0:0:
432,40,37660,5,2,0:0:0:0:
248,40,38160,1,2,0:0:0:0:
432,40,38660,1,2,0:0:0:0:
304,44,38993,2,0,L|236:44,1,63.3333333333333,0|2,0:0|0:0,0:0:0:0:
488,72,39660,5,2,0:0:0:0:
489,131,39826,1,0,0:0:0:0:
465,187,39993,1,0,0:0:0:0:
406,205,40159,1,2,0:0:0:0:
232,208,40660,1,2,0:0:0:0:
416,204,41160,5,2,0:0:0:0:
232,208,41660,1,0,0:0:0:0:
176,208,41826,1,0,0:0:0:0:
136,256,41993,1,0,0:0:0:0:
132,308,42159,1,2,0:0:0:0:
418,233,42662,5,6,0:0:0:0:
388,178,42829,1,0,0:0:0:0:
336,142,42996,1,0,0:0:0:0:
274,135,43163,1,2,0:0:0:0:
156,136,43497,2,0,L|156:68,1,63.3333333333333
436,76,44165,5,2,0:0:0:0:
256,76,44666,1,2,0:0:0:0:
76,76,45167,1,2,0:0:0:0:
364,76,45668,5,2,0:0:0:0:
385,134,45834,1,0,0:0:0:0:
357,189,46001,1,0,0:0:0:0:
298,206,46169,1,2,0:0:0:0:
168,208,46503,2,0,L|168:272,1,63.3333333333333,0|2,0:0|0:0,0:0:0:0:
340,276,47171,5,2,0:0:0:0:
392,232,47339,1,0,0:0:0:0:
392,172,47505,1,0,0:0:0:0:
336,136,47672,1,0,0:0:0:0:
216,128,48005,2,0,L|136:128,1,63.3333333333333
452,192,48674,5,2,0:0:0:0:
480,252,48840,1,0,0:0:0:0:
456,312,49007,1,0,0:0:0:0:
400,352,49175,1,0,0:0:0:0:
76,76,49676,5,2,0:0:0:0:
260,76,50177,1,2,0:0:0:0:
76,76,50678,1,2,0:0:0:0:
260,76,51012,2,0,L|332:76,1,63.3333333333333,0|2,0:0|0:0,0:0:0:0:
52,192,51680,5,2,0:0:0:0:
24,252,51846,1,0,0:0:0:0:
48,312,52013,1,0,0:0:0:0:
104,352,52181,1,0,0:0:0:0:
292,352,52682,1,2,0:0:0:0:
32,352,53183,6,0,L|32:152,1,190,2|0,0:0|0:0,0:0:0:0:
148,336,54018,2,0,L|148:264,1,63.3333333333333
412,336,54680,5,6,0:0:0:0:
132,336,56180,5,2,0:0:0:0:
412,336,57680,5,2,0:0:0:0:
132,336,59180,5,2,0:0:0:0:
412,336,60180,5,0,0:0:0:0:
256,192,60680,12,0,63680,0:0:0:0:
