osu file format v14

[General]
AudioFilename: audio.mp3
AudioLeadIn: 0
PreviewTime: 18157
Countdown: 0
SampleSet: Soft
StackLeniency: 0.7
Mode: 2
LetterboxInBreaks: 0
WidescreenStoryboard: 1

[Editor]
DistanceSpacing: 1
BeatDivisor: 3
GridSize: 8
TimelineZoom: 1

[Metadata]
Title:Title
TitleUnicode:タイトル
Artist:Nagata Kenta
ArtistUnicode:永田権太
Creator:Secre
Version:Platter
Source:ゼルダの伝説 風のタクト
Tags:chickenbible zirox Instrumental The Legend of Zelda: The Wind Waker Original Soundtrack Nintendo video game OST windwaker Zelda's Theme HD densetsu kaze no takuto
BeatmapID:3528252
BeatmapSetID:1725903

[Difficulty]
HPDrainRate:3.5
CircleSize:3.1
OverallDifficulty:6
ApproachRate:6
SliderMultiplier:2
SliderTickRate:1

[Events]
//Background and Video events
0,0,"zelda windwaker.jpg",0,0
//Break Periods
//Storyboard Layer 0 (Background)
//Storyboard Layer 1 (Fail)
//Storyboard Layer 2 (Pass)
//Storyboard Layer 3 (Foreground)
//Storyboard Layer 4 (Overlay)
//Storyboard Sound Samples

[TimingPoints]
657,500,3,2,0,30,1,0
6657,-100,3,2,0,45,0,0
18657,-100,3,2,0,60,0,0
30156,504.201680672269,3,2,0,60,1,0
30660,500,3,2,0,50,1,0
42159,503.14465408805,3,2,0,50,1,0
42662,501.043841336117,3,2,0,60,1,0
54186,495.867768595041,3,2,0,60,1,0
54680,500,3,2,0,30,1,0

[Colours]
Combo1 : 102,153,247
Combo2 : 244,55,55
Combo3 : 236,243,95

[HitObjects]
328,249,657,6,0,P|395:226|312:167,1,200,2|0,0:0|0:0,0:0:0:0:
267,159,1323,1,0,0:0:0:0:
199,159,1490,1,0,0:0:0:0:
267,159,1657,1,0,0:0:0:0:
93,167,2157,5,2,0:0:0:0:
248,175,2657,1,0,0:0:0:0:
402,179,3157,1,0,0:0:0:0:
86,264,3657,6,0,L|85:51,1,200,2|0,0:0|0:0,0:0:0:0:
151,52,4323,1,0,0:0:0:0:
217,51,4490,1,0,0:0:0:0:
151,52,4657,1,0,0:0:0:0:
324,110,5157,5,2,0:0:0:0:
155,109,5657,1,0,0:0:0:0:
458,94,6157,2,0,L|463:246,1,133.333333333333
212,93,6657,6,0,P|132:99|87:218,1,200,6|2,0:0|0:0,0:0:0:0:
204,191,7490,2,0,L|287:188,1,66.6666666666667,0|2,0:0|0:0,0:0:0:0:
146,108,7990,6,0,L|141:27,1,66.6666666666667
371,49,8490,2,0,L|370:137,1,66.6666666666667
206,66,8990,1,0,0:0:0:0:
136,71,9157,2,0,L|66:77,2,66.6666666666667
281,71,9657,6,0,P|392:88|448:188,1,200,2|0,0:0|0:0,0:0:0:0:
245,182,10657,2,0,L|89:181,1,133.333333333333
245,182,11157,6,0,L|428:180,1,133.333333333333,2|0,0:0|0:0,0:0:0:0:
245,182,11657,2,0,L|147:181,2,66.6666666666667,2|0|0,0:0|0:0|0:0,0:0:0:0:
394,194,12157,2,0,L|396:23,1,133.333333333333
151,157,12657,6,0,P|82:142|158:93,1,200,6|2,0:0|0:0,0:0:0:0:
282,113,13490,2,0,L|291:43,1,66.6666666666667,0|2,0:0|0:0,0:0:0:0:
166,58,13990,6,0,L|157:-25,1,66.6666666666667
384,32,14490,2,0,L|390:107,1,66.6666666666667
178,181,14990,1,0,0:0:0:0:
243,161,15157,2,0,L|269:85,2,66.6666666666667
104,227,15657,6,0,P|56:172|126:158,1,133.333333333333,2|0,0:0|0:0,0:0:0:0:
159,133,16157,2,0,L|317:134,1,133.333333333333,2|0,0:0|0:0,0:0:0:0:
159,133,16657,2,0,L|56:135,2,66.6666666666667,2|2|2,0:0|0:0|0:0,0:0:0:0:
303,192,17157,6,0,L|309:26,1,133.333333333333,2|0,0:0|0:0,0:0:0:0:
233,52,17657,2,0,L|226:231,1,133.333333333333
365,226,18157,2,0,L|501:225,1,133.333333333333,2|0,0:0|0:0,0:0:0:0:
210,248,18657,6,0,P|163:194|210:172,1,133.333333333333,6|0,0:0|0:0,0:0:0:0:
267,175,19157,2,0,L|270:25,1,133.333333333333,2|0,0:0|0:0,0:0:0:0:
204,34,19657,1,2,0:0:0:0:
417,87,19990,6,0,L|427:170,1,66.6666666666667
207,103,20490,2,0,L|196:189,1,66.6666666666667
418,183,20990,1,0,0:0:0:0:
477,146,21157,2,0,L|509:76,2,66.6666666666667
333,122,21657,6,0,L|145:121,1,133.333333333333,2|0,0:0|0:0,0:0:0:0:
267,131,22157,2,0,L|266:278,1,133.333333333333
195,267,22657,2,0,L|41:263,1,133.333333333333
195,267,23157,6,0,L|372:269,1,133.333333333333,2|0,0:0|0:0,0:0:0:0:
195,267,23657,2,0,L|99:271,2,66.6666666666667,2|0|0,0:0|0:0|0:0,0:0:0:0:
335,245,24157,2,0,L|340:72,1,133.333333333333
80,170,24657,6,0,P|40:110|111:93,1,133.333333333333,6|0,0:0|0:0,0:0:0:0:
143,82,25157,2,0,L|318:84,1,133.333333333333,2|0,0:0|0:0,0:0:0:0:
206,167,25657,2,0,L|207:3,1,133.333333333333
345,41,26157,6,0,L|491:41,1,133.333333333333
345,41,26657,2,0,L|163:42,1,133.333333333333
345,41,27157,2,0,L|450:38,2,66.6666666666667,2|0|0,0:0|0:0|0:0,0:0:0:0:
203,212,27657,6,0,L|205:72,1,133.333333333333,2|0,0:0|0:0,0:0:0:0:
278,118,28157,2,0,L|276:-20,1,133.333333333333,2|0,0:0|0:0,0:0:0:0:
414,107,28657,2,0,L|508:110,2,66.6666666666667,2|2|2,0:0|0:0|0:0,0:0:0:0:
275,118,29157,6,0,L|55:119,1,200,2|0,0:0|0:0,0:0:0:0:
75,118,30157,1,0,0:0:0:0:
75,118,30492,1,0,0:0:0:0:
333,114,30660,5,6,0:0:0:0:
392,132,30826,1,0,0:0:0:0:
396,194,30993,1,0,0:0:0:0:
338,218,31160,1,0,0:0:0:0:
150,169,31660,1,0,0:0:0:0:
469,174,32160,5,2,0:0:0:0:
318,119,32660,1,2,0:0:0:0:
168,82,33160,1,2,0:0:0:0:
461,74,33660,6,0,L|478:155,2,66.6666666666667,2|0|0,0:0|0:0|0:0,0:0:0:0:
327,66,34160,2,0,L|237:109,2,66.6666666666667,2|0|0,0:0|0:0|0:0,0:0:0:0:
401,51,34660,1,2,0:0:0:0:
226,193,35160,5,0,0:0:0:0:
161,182,35326,1,0,0:0:0:0:
138,125,35493,1,0,0:0:0:0:
179,76,35659,1,0,0:0:0:0:
239,52,35826,1,0,0:0:0:0:
314,62,35993,1,0,0:0:0:0:
390,95,36160,1,0,0:0:0:0:
390,95,36493,1,0,0:0:0:0:
143,133,36660,6,0,L|62:134,2,66.6666666666667,2|0|0,0:0|0:0|0:0,0:0:0:0:
284,134,37160,1,0,0:0:0:0:
284,134,37493,1,0,0:0:0:0:
146,128,37660,1,2,0:0:0:0:
295,87,38160,5,2,0:0:0:0:
446,83,38660,1,2,0:0:0:0:
446,83,38993,1,0,0:0:0:0:
295,87,39160,2,0,L|214:134,2,66.6666666666667,2|0|0,0:0|0:0|0:0,0:0:0:0:
425,109,39660,6,0,L|504:109,2,66.6666666666667,2|0|0,0:0|0:0|0:0,0:0:0:0:
285,209,40160,1,2,0:0:0:0:
218,209,40326,1,0,0:0:0:0:
151,209,40493,1,0,0:0:0:0:
294,211,40660,2,0,L|366:150,2,66.6666666666667,2|2|2,0:0|0:0|0:0,0:0:0:0:
151,273,41160,6,0,P|84:258|164:199,1,200,2|0,0:0|0:0,0:0:0:0:
206,185,41826,1,0,0:0:0:0:
273,191,41993,1,0,0:0:0:0:
136,222,42159,1,2,0:0:0:0:
136,222,42494,1,0,0:0:0:0:
433,206,42662,6,0,L|481:155,2,66.6666666666667,6|0|0,0:0|0:0|0:0,0:0:0:0:
372,204,43163,1,2,0:0:0:0:
246,181,43497,2,0,L|243:106,1,66.6666666666667
311,103,43831,2,0,L|314:12,1,66.6666666666667
174,33,44165,5,2,0:0:0:0:
326,41,44666,1,2,0:0:0:0:
167,122,45167,1,2,0:0:0:0:
167,122,45501,1,0,0:0:0:0:
310,135,45668,6,0,L|396:167,2,66.6666666666667,2|0|0,0:0|0:0|0:0,0:0:0:0:
167,122,46169,2,0,L|73:122,2,66.6666666666667,2|0|0,0:0|0:0|0:0,0:0:0:0:
313,117,46670,1,2,0:0:0:0:
313,117,47004,1,0,0:0:0:0:
172,231,47171,5,2,0:0:0:0:
127,182,47338,1,0,0:0:0:0:
116,118,47505,1,0,0:0:0:0:
142,57,47672,1,0,0:0:0:0:
197,22,47839,1,0,0:0:0:0:
263,22,48006,1,0,0:0:0:0:
318,58,48173,1,0,0:0:0:0:
318,58,48507,1,0,0:0:0:0:
77,160,48674,6,0,L|37:88,2,66.6666666666667,2|0|0,0:0|0:0|0:0,0:0:0:0:
225,156,49175,1,0,0:0:0:0:
225,156,49509,1,0,0:0:0:0:
85,165,49676,2,0,L|54:94,2,66.6666666666667,2|0|0,0:0|0:0|0:0,0:0:0:0:
225,156,50177,6,0,L|324:154,2,66.6666666666667,2|0|0,0:0|0:0|0:0,0:0:0:0:
80,142,50678,1,2,0:0:0:0:
80,142,51012,1,0,0:0:0:0:
225,149,51179,1,2,0:0:0:0:
291,149,51346,1,0,0:0:0:0:
358,149,51513,1,0,0:0:0:0:
225,149,51680,5,2,0:0:0:0:
158,150,51847,1,0,0:0:0:0:
91,151,52014,1,0,0:0:0:0:
342,215,52181,2,0,L|436:215,2,66.6666666666667,2|2|2,0:0|0:0|0:0,0:0:0:0:
202,125,52682,2,0,L|117:123,2,66.6666666666667,2|0|0,0:0|0:0|0:0,0:0:0:0:
343,150,53183,6,0,L|344:309,1,133.333333333333,2|0,0:0|0:0,0:0:0:0:
274,305,53684,2,0,L|274:140,1,133.333333333333
136,186,54186,2,0,L|133:28,1,133.333333333333
385,73,54680,5,6,0:0:0:0:
163,159,56180,5,2,0:0:0:0:
466,191,57680,5,2,0:0:0:0:
229,152,59180,5,2,0:0:0:0:
373,168,60180,2,0,L|374:30,1,133.333333333333
236,33,60680,5,6,0:0:0:0:
256,192,60846,12,0,63680,0:0:0:0:
