osu file format v14

[General]
AudioFilename: audio.mp3
AudioLeadIn: 0
PreviewTime: 18157
Countdown: 0
SampleSet: Soft
StackLeniency: 0.7
Mode: 2
LetterboxInBreaks: 0
WidescreenStoryboard: 0

[Editor]
DistanceSpacing: 1
BeatDivisor: 3
GridSize: 8
TimelineZoom: 1

[Metadata]
Title:Title
TitleUnicode:タイトル
Artist:Nagata Kenta
ArtistUnicode:永田権太
Creator:Secre
Version:Cup
Source:ゼルダの伝説 風のタクト
Tags:chickenbible zirox Instrumental The Legend of Zelda: The Wind Waker Original Soundtrack Nintendo video game OST windwaker Zelda's Theme HD densetsu kaze no takuto
BeatmapID:3527170
BeatmapSetID:1725903

[Difficulty]
HPDrainRate:2
CircleSize:2
OverallDifficulty:4
ApproachRate:4
SliderMultiplier:1.8
SliderTickRate:1

[Events]
//Background and Video events
0,0,"zelda windwaker.jpg",0,0
//Break Periods
//Storyboard Layer 0 (Background)
//Storyboard Layer 1 (Fail)
//Storyboard Layer 2 (Pass)
//Storyboard Layer 3 (Foreground)
//Storyboard Layer 4 (Overlay)
//Storyboard Sound Samples

[TimingPoints]
657,500,3,2,0,30,1,0
6657,-100,3,2,0,45,0,0
18657,-100,3,2,0,60,0,0
30156,504.201680672269,3,2,0,60,1,0
30660,500,3,2,0,50,1,0
42159,503.14465408805,3,2,0,50,1,0
42662,501.043841336117,3,2,0,60,1,0
54186,495.867768595041,3,2,0,60,1,0
54680,500,3,2,0,30,1,0

[Colours]
Combo1 : 102,153,247
Combo2 : 244,55,55
Combo3 : 236,243,95

[HitObjects]
336,216,657,5,2,0:0:0:0:
144,208,2157,1,2,0:0:0:0:
392,144,3657,5,2,0:0:0:0:
192,120,5157,1,2,0:0:0:0:
376,88,6157,2,0,L|375:214,1,120
310,229,6657,5,6,0:0:0:0:
149,158,7157,1,2,0:0:0:0:
288,120,7657,1,2,0:0:0:0:
440,102,8157,5,0,0:0:0:0:
302,120,8657,1,0,0:0:0:0:
166,89,9157,2,0,L|99:113,2,60
229,76,9657,5,2,0:0:0:0:
369,112,10157,1,0,0:0:0:0:
217,164,10657,1,0,0:0:0:0:
400,192,11157,5,2,0:0:0:0:
211,143,11657,1,2,0:0:0:0:
208,83,11823,1,0,0:0:0:0:
205,23,11990,1,0,0:0:0:0:
267,15,12157,1,0,0:0:0:0:
450,83,12657,5,6,0:0:0:0:
304,52,13157,1,2,0:0:0:0:
145,52,13657,1,2,0:0:0:0:
251,121,14157,5,0,0:0:0:0:
381,157,14657,1,0,0:0:0:0:
238,119,15157,2,0,L|207:57,2,60
299,142,15657,5,2,0:0:0:0:
138,186,16157,1,2,0:0:0:0:
318,194,16657,2,0,L|347:129,2,60,2|2|2,0:0|0:0|0:0,0:0:0:0:
256,182,17157,5,2,0:0:0:0:
256,182,17657,1,0,0:0:0:0:
111,156,18157,2,0,L|106:18,1,120,2|0,0:0|0:0,0:0:0:0:
162,19,18657,5,6,0:0:0:0:
318,127,19157,1,2,0:0:0:0:
222,79,19490,2,0,L|216:11,1,60,0|2,0:0|0:0,0:0:0:0:
384,45,20157,5,0,0:0:0:0:
236,53,20657,1,0,0:0:0:0:
400,74,21157,2,0,L|430:139,2,60
335,64,21657,5,2,0:0:0:0:
218,142,21990,2,0,L|212:59,1,60
322,68,22490,2,0,L|328:-3,1,60
163,32,23157,5,2,0:0:0:0:
329,47,23657,2,0,L|356:106,2,60,2|0|0,0:0|0:0|0:0,0:0:0:0:
269,37,24157,1,0,0:0:0:0:
155,153,24490,6,0,L|239:152,1,60,0|6,0:0|0:0,0:0:0:0:
399,169,25157,1,2,0:0:0:0:
280,96,25490,2,0,L|212:97,1,60
364,170,26157,5,0,0:0:0:0:
244,221,26490,2,0,L|156:222,1,60
347,137,27157,2,0,L|394:98,2,60,2|0|0,0:0|0:0|0:0,0:0:0:0:
283,175,27657,5,2,0:0:0:0:
185,134,27990,2,0,L|187:47,1,60,0|2,0:0|0:0,0:0:0:0:
48,78,28657,2,0,L|25:23,2,60,2|2|2,0:0|0:0|0:0,0:0:0:0:
136,70,29157,6,0,L|354:69,1,180,2|0,0:0|0:0,0:0:0:0:
209,158,30156,1,0,0:0:0:0:
136,248,30492,1,0,0:0:0:0:
199,250,30660,6,0,L|256:207,2,60,6|0|0,0:0|0:0|0:0,0:0:0:0:
136,248,31160,1,0,0:0:0:0:
280,250,31660,1,0,0:0:0:0:
99,184,32160,6,0,L|93:96,1,60,2|0,0:0|0:0,0:0:0:0:
208,111,32660,2,0,L|219:18,1,60,2|0,0:0|0:0,0:0:0:0:
335,50,33160,1,2,0:0:0:0:
184,147,33660,6,0,L|107:179,2,60,2|0|0,0:0|0:0|0:0,0:0:0:0:
246,142,34160,1,2,0:0:0:0:
366,141,34493,2,0,L|371:67,1,60,0|2,0:0|0:0,0:0:0:0:
211,53,35160,5,0,0:0:0:0:
352,56,35660,1,0,0:0:0:0:
176,127,36160,1,0,0:0:0:0:
367,110,36660,6,0,L|407:48,2,60,2|0|0,0:0|0:0|0:0,0:0:0:0:
306,137,37160,1,0,0:0:0:0:
138,158,37660,2,0,L|100:103,2,60,2|0|0,0:0|0:0|0:0,0:0:0:0:
201,170,38160,5,2,0:0:0:0:
326,158,38493,2,0,L|329:94,1,60,0|2,0:0|0:0,0:0:0:0:
176,77,39160,1,2,0:0:0:0:
364,74,39660,5,2,0:0:0:0:
168,130,40160,2,0,L|101:175,2,60,2|0|0,0:0|0:0|0:0,0:0:0:0:
226,113,40660,2,0,L|259:34,2,60,2|2|2,0:0|0:0|0:0,0:0:0:0:
156,144,41160,5,2,0:0:0:0:
156,144,41660,1,0,0:0:0:0:
216,144,41826,1,0,0:0:0:0:
277,149,41993,1,0,0:0:0:0:
338,151,42159,1,2,0:0:0:0:
338,151,42662,5,6,0:0:0:0:
286,150,42829,1,0,0:0:0:0:
224,146,42996,1,0,0:0:0:0:
286,150,43163,1,2,0:0:0:0:
441,166,43664,2,0,L|447:98,1,60
321,64,44165,5,2,0:0:0:0:
143,79,44666,1,2,0:0:0:0:
333,71,45167,1,2,0:0:0:0:
130,87,45668,6,0,L|67:118,2,60,2|0|0,0:0|0:0|0:0,0:0:0:0:
193,74,46169,1,2,0:0:0:0:
318,78,46503,2,0,L|326:150,1,60,0|2,0:0|0:0,0:0:0:0:
158,184,47171,5,2,0:0:0:0:
303,187,47672,1,0,0:0:0:0:
456,194,48173,1,0,0:0:0:0:
275,144,48674,6,0,L|238:87,2,60,2|0|0,0:0|0:0|0:0,0:0:0:0:
336,182,49175,1,0,0:0:0:0:
484,193,49676,2,0,L|490:104,2,60,2|0|0,0:0|0:0|0:0,0:0:0:0:
423,204,50177,5,2,0:0:0:0:
305,125,50511,2,0,L|233:127,1,60,0|2,0:0|0:0,0:0:0:0:
107,143,51179,1,2,0:0:0:0:
273,159,51680,5,2,0:0:0:0:
460,172,52181,1,2,0:0:0:0:
304,98,52682,1,2,0:0:0:0:
119,126,53183,6,0,L|117:325,1,180,2|0,0:0|0:0,0:0:0:0:
233,231,54018,1,0,0:0:0:0:
296,229,54186,1,0,0:0:0:0:
115,151,54680,5,6,0:0:0:0:
359,155,56180,5,2,0:0:0:0:
52,96,57680,5,2,0:0:0:0:
309,70,59180,5,2,0:0:0:0:
227,135,60180,5,0,0:0:0:0:
256,192,60680,12,0,63680,0:0:0:0:
