osu file format v14

[General]
AudioFilename: audio.mp3
AudioLeadIn: 0
PreviewTime: 8876
Countdown: 1
SampleSet: None
StackLeniency: 0.7
Mode: 0
LetterboxInBreaks: 0
WidescreenStoryboard: 0

[Editor]
Bookmarks: 1043,3876,9043,10876,12043,16876,28543,49043
DistanceSpacing: 1
BeatDivisor: 1
GridSize: 32
TimelineZoom: 2.4

[Metadata]
Title:Rainy Day
TitleUnicode:Rainy Day
Artist:Nagata Kenta
ArtistUnicode:永田 権太
Creator:Veridian
Version:Rain
Source:どうぶつの森
Tags:Animal Crossing VGM BGM OST Theme Track Game Cube Forest Weather
BeatmapID:1782994
BeatmapSetID:853142

[Difficulty]
HPDrainRate:5
CircleSize:6
OverallDifficulty:5
ApproachRate:6
SliderMultiplier:0.5
SliderTickRate:3

[Events]
//Background and Video events
0,0,"day_126__animal_crossing___spring__35_minutes__by_cryptid_creations-d5z7ahy.png",0,0
//Break Periods
2,41043,47603
//Storyboard Layer 0 (Background)
//Storyboard Layer 1 (Fail)
//Storyboard Layer 2 (Pass)
//Storyboard Layer 3 (Foreground)
//Storyboard Sound Samples

[TimingPoints]
1043,500,4,2,1,40,1,0
9043,-50,4,2,1,40,0,0
9209,-50,4,2,1,5,0,0
9376,-50,4,2,1,40,0,0
9709,-50,4,2,1,5,0,0
9876,-50,4,2,1,40,0,0
10376,-50,4,2,1,5,0,0
10543,-50,4,2,1,40,0,0
10876,-176.991150442478,4,2,1,40,0,0
12376,-100,4,2,1,40,0,0
12876,-50,4,2,1,40,0,0
13043,-50,4,2,1,5,0,0
13210,-50,4,2,1,40,0,0
13709,-50,4,2,1,5,0,0
13876,-50,4,2,1,40,0,0
14376,-50,4,2,1,5,0,0
14543,-50,4,2,1,40,0,0
14876,-175.438596491228,4,2,1,40,0,0
17043,-100,4,2,1,40,0,0
25043,-50,4,2,1,40,0,0
25209,-50,4,2,1,5,0,0
25376,-50,4,2,1,40,0,0
25709,-50,4,2,1,5,0,0
25876,-50,4,2,1,40,0,0
26376,-50,4,2,1,5,0,0
26543,-50,4,2,1,40,0,0
26709,-50,4,2,1,5,0,0
26876,-100,4,2,1,40,0,0
29043,-50,4,2,1,40,0,0
29209,-50,4,2,1,5,0,0
29376,-50,4,2,1,40,0,0
29709,-50,4,2,1,5,0,0
29876,-50,4,2,1,40,0,0
30376,-50,4,2,1,5,0,0
30543,-50,4,2,1,40,0,0
30709,-50,4,2,1,5,0,0
30876,-100,4,2,1,40,0,0
33043,-50,4,2,1,40,0,0
33209,-50,4,2,1,5,0,0
33376,-50,4,2,1,40,0,0
33709,-50,4,2,1,5,0,0
33876,-50,4,2,1,40,0,0
34376,-50,4,2,1,5,0,0
34543,-50,4,2,1,40,0,0
34709,-50,4,2,1,5,0,0
34876,-50,4,2,1,40,0,0
35876,-66.6666666666667,4,2,1,40,0,0
36876,-100,4,2,1,40,0,0
57043,-50,4,2,1,40,0,0
57209,-50,4,2,1,5,0,0
57376,-50,4,2,1,40,0,0
57709,-50,4,2,1,5,0,0
57876,-50,4,2,1,40,0,0
58376,-50,4,2,1,5,0,0
58543,-50,4,2,1,40,0,0
58876,-175.438596491228,4,2,1,40,0,0
60376,-100,4,2,1,40,0,0
60876,-50,4,2,1,40,0,0
61043,-50,4,2,1,5,0,0
61210,-50,4,2,1,40,0,0
61709,-50,4,2,1,5,0,0
61876,-50,4,2,1,40,0,0
62376,-50,4,2,1,5,0,0
62543,-50,4,2,1,40,0,0
62876,-175.438596491228,4,2,1,40,0,0
65042,-100,4,2,1,40,0,0
73043,-50,4,2,1,40,0,0
73209,-50,4,2,1,5,0,0
73376,-50,4,2,1,40,0,0
73709,-50,4,2,1,5,0,0
73876,-50,4,2,1,40,0,0
74376,-50,4,2,1,5,0,0
74543,-50,4,2,1,40,0,0
74709,-50,4,2,1,5,0,0
74876,-100,4,2,1,40,0,0
77043,-50,4,2,1,40,0,0
77209,-50,4,2,1,5,0,0
77376,-50,4,2,1,40,0,0
77709,-50,4,2,1,5,0,0
77876,-50,4,2,1,40,0,0
78376,-50,4,2,1,5,0,0
78543,-50,4,2,1,40,0,0
78709,-50,4,2,1,5,0,0
78876,-100,4,2,1,40,0,0
81043,-50,4,2,1,40,0,0
81209,-50,4,2,1,5,0,0
81376,-50,4,2,1,40,0,0
81709,-50,4,2,1,5,0,0
81876,-50,4,2,1,40,0,0
82376,-50,4,2,1,5,0,0
82543,-50,4,2,1,40,0,0
82709,-50,4,2,1,5,0,0
82876,-50,4,2,1,40,0,0
83876,-66.6666666666667,4,2,1,40,0,0
84876,-100,4,2,1,40,0,0
97043,-100,4,2,1,5,0,0

[Colours]
Combo1 : 217,158,138
Combo2 : 77,102,78
Combo3 : 245,214,118
Combo4 : 64,72,100
SliderTrackOverride : 175,188,187
SliderBorder : 226,226,226

[HitObjects]
384,56,1043,6,0,L|376:92,1,33.3333333333333,8|4,0:3|0:3,0:3:0:0:
404,144,1543,1,0,1:3:0:0:
308,192,1876,2,0,L|324:124,1,66.6666666666666,8|0,0:3|1:3,0:3:0:0:
128,56,3043,2,0,L|136:92,1,33.3333333333333,8|4,0:3|0:3,0:3:0:0:
108,144,3543,1,0,1:3:0:0:
204,192,3876,2,0,L|188:124,1,66.6666666666666,4|0,0:3|1:3,0:3:0:0:
128,328,5043,2,0,L|136:292,1,33.3333333333333,8|4,0:3|0:3,0:3:0:0:
108,240,5543,1,0,1:3:0:0:
204,192,5876,2,0,L|188:260,1,66.6666666666666,8|0,0:3|1:3,0:3:0:0:
384,328,7043,2,0,L|376:292,1,33.3333333333333,8|4,0:3|0:3,0:3:0:0:
404,240,7543,1,0,1:3:0:0:
308,192,7876,2,0,L|324:260,1,66.6666666666666,4|0,0:3|1:3,0:3:0:0:
464,136,9043,6,0,P|468:120|452:88,1,33.3333333333333,2|0,0:1|0:0,0:0:0:0:
420,180,9543,2,0,P|431:191|467:193,1,33.3333333333333,2|0,1:1|0:0,0:0:0:0:
400,120,10043,2,0,P|372:135|360:189,1,66.6666666666666,2|0,0:1|0:0,0:0:0:0:
256,16,10543,1,2,1:2:0:0:
112,120,10876,2,0,P|140:135|154:165,1,65.9062491954804,2|0,0:3|0:0,0:0:0:0:
96,180,12376,1,0,0:0:0:0:
140,224,12543,1,2,1:1:0:0:
32,196,12876,22,0,P|28:180|44:148,1,33.3333333333333,2|0,0:1|0:0,0:0:0:0:
76,240,13543,2,0,P|64:251|28:253,1,33.3333333333333,2|0,1:1|0:0,0:0:0:0:
96,180,14043,2,0,P|124:195|136:249,1,66.6666666666666,2|0,0:1|0:0,0:0:0:0:
256,76,14543,1,2,1:2:0:0:
416,180,14876,2,0,P|388:195|376:234,1,66.4999991882324,2|0,0:3|0:0,0:0:0:0:
440,240,16376,1,2,0:1:0:0:
396,284,16543,1,0,1:1:0:0:
456,300,16876,1,2,0:1:0:0:
324,308,17043,38,0,L|332:260,1,33.3333333333333,8|4,0:3|0:3,0:3:0:0:
340,212,17543,1,0,1:3:0:0:
256,308,17876,2,0,L|269:232,1,66.6666666666667,8|0,0:3|1:3,0:3:0:0:
188,76,19043,2,0,L|180:124,1,33.3333333333333,8|4,0:3|0:3,0:3:0:0:
172,172,19543,1,0,1:3:0:0:
256,76,19876,2,0,L|243:154,1,66.6666666666667,4|0,0:3|1:3,0:3:0:0:
140,260,21043,2,0,L|188:268,1,33.3333333333333,8|4,0:3|0:3,0:3:0:0:
236,276,21543,1,0,1:3:0:0:
140,192,21876,2,0,L|219:205,1,66.6666666666667,8|0,0:3|1:3,0:3:0:0:
372,124,23043,2,0,L|324:116,1,33.3333333333333,8|4,0:3|0:3,0:3:0:0:
276,108,23543,1,0,1:3:0:0:
372,192,23876,2,0,L|294:178,1,66.6666666666667,4|0,0:3|1:3,0:3:0:0:
292,328,25043,6,0,P|310:331|346:313,1,33.3333333333333,2|0,0:1|0:0,0:0:0:0:
350,351,25376,1,0,0:0:0:0:
434,291,25543,2,0,P|416:288|382:308,1,33.3333333333333,2|0,1:3|0:0,0:0:0:0:
488,336,25876,2,0,P|504:304|472:234,1,100,2|0,0:1|0:0,0:0:0:0:
435,213,26543,2,0,P|431:193|449:161,1,33.3333333333333,2|0,1:3|0:0,0:0:0:0:
488,112,26876,2,0,P|425:149|340:97,1,166.666666666667,2|0,0:1|1:0,0:0:0:0:
219,55,29043,22,0,P|203:52|187:55,1,33.3333333333333,2|0,0:1|0:0,0:0:0:0:
162,33,29376,1,0,0:0:0:0:
78,93,29543,2,0,P|94:96|110:92,1,33.3333333333333,2|0,1:3|0:0,0:0:0:0:
23,48,29876,2,0,P|6:93|25:138,1,100,2|0,0:1|0:0,0:0:0:0:
77,171,30543,2,0,P|81:187|78:203,1,33.3333333333333,0|0,1:0|0:0,0:0:0:0:
23,272,30876,2,0,P|94:234|167:274,1,166.666666666667,2|0,0:3|1:0,0:0:0:0:
240,284,33043,22,0,P|243:268|240:252,1,33.3333333333333,2|0,0:1|0:0,0:0:0:0:
262,227,33376,1,0,0:0:0:0:
202,143,33543,2,0,P|199:159|203:181,1,33.3333333333333,2|0,1:3|0:0,0:0:0:0:
156,90,33876,2,0,P|201:71|247:88,1,100,2|0,0:1|0:0,0:0:0:0:
292,140,34543,21,2,1:3:0:0:
512,0,34876,1,2,0:0:0:0:
512,168,35543,1,2,1:2:0:0:
388,89,35876,1,2,0:1:0:0:
388,248,36543,1,2,1:3:0:0:
450,208,36876,1,2,0:1:0:0:
128,32,49043,6,0,L|120:68,1,33.3333333333333,8|4,0:3|0:3,0:3:0:0:
105,124,49543,1,0,1:3:0:0:
196,88,49876,2,0,L|212:163,1,66.6666666666667,8|0,0:3|1:3,0:3:0:0:
384,32,51043,2,0,L|392:68,1,33.3333333333333,8|4,0:3|0:3,0:3:0:0:
407,124,51543,1,0,1:3:0:0:
316,88,51876,2,0,L|299:163,1,66.6666666666667,4|0,0:3|1:3,0:3:0:0:
384,352,53043,2,0,L|392:316,1,33.3333333333333,8|4,0:3|0:3,0:3:0:0:
407,260,53543,1,0,1:3:0:0:
316,296,53876,2,0,L|299:220,1,66.6666666666667,8|0,0:3|1:3,0:3:0:0:
128,352,55043,2,0,L|120:316,1,33.3333333333333,8|4,0:3|0:3,0:3:0:0:
105,260,55543,1,0,1:3:0:0:
196,296,55876,2,0,L|212:220,1,66.6666666666667,4|0,0:3|1:3,0:3:0:0:
364,312,57043,6,0,P|362:337|370:357,1,33.3333333333333,2|0,0:1|0:0,0:0:0:0:
428,324,57543,2,0,P|450:313|463:296,1,33.3333333333333,2|0,1:1|0:0,0:0:0:0:
412,264,58043,2,0,P|371:244|340:250,1,66.6666666666667,2|0,0:1|0:0,0:0:0:0:
256,116,58543,1,2,1:2:0:0:
100,264,58876,2,0,P|137:245|167:247,1,66.4999991882324,2|0,0:3|0:0,0:0:0:0:
208,288,60376,1,0,0:0:0:0:
148,308,60543,1,2,1:1:0:0:
112,196,60876,22,0,P|110:171|118:151,1,33.3333333333333,2|0,0:1|0:0,0:0:0:0:
176,184,61543,2,0,P|198:194|211:211,1,33.3333333333333,2|0,1:1|0:0,0:0:0:0:
160,244,62043,2,0,P|119:264|88:258,1,66.6666666666667,2|0,0:1|0:0,0:0:0:0:
256,116,62543,1,2,1:2:0:0:
352,244,62876,2,0,P|384:265|418:264,1,66.4999991882324,2|0,0:3|0:0,0:0:0:0:
456,168,64376,1,2,0:1:0:0:
397,140,64542,1,0,1:1:0:0:
400,204,64876,1,2,0:1:0:0:
448,64,65042,6,0,L|408:72,1,33.3333333333333,8|4,0:3|0:3,0:3:0:0:
352,86,65543,1,0,1:3:0:0:
368,16,65876,2,0,L|297:30,1,66.6666666666667,8|0,0:3|1:3,0:3:0:0:
64,64,67043,2,0,L|104:72,1,33.3333333333333,8|4,0:3|0:3,0:3:0:0:
160,86,67544,1,0,1:3:0:0:
144,16,67877,2,0,L|215:30,1,66.6666666666667,4|0,0:3|1:3,0:3:0:0:
64,176,69043,2,0,L|104:168,1,33.3333333333333,8|4,0:3|0:3,0:3:0:0:
160,154,69544,1,0,1:3:0:0:
144,224,69877,2,0,L|215:210,1,66.6666666666667,8|0,0:3|1:3,0:3:0:0:
448,176,71043,2,0,L|408:168,1,33.3333333333333,8|4,0:3|0:3,0:3:0:0:
352,154,71544,1,0,1:3:0:0:
368,224,71877,2,0,L|297:210,1,66.6666666666667,4|0,0:3|1:3,0:3:0:0:
192,296,73043,6,0,P|189:321|205:348,1,33.3333333333333,2|0,0:1|0:0,0:0:0:0:
208,356,73376,1,0,0:0:0:0:
244,244,73543,2,0,P|247:219|231:192,1,33.3333333333333,2|0,1:3|0:0,0:0:0:0:
264,144,73876,2,0,P|232:176|160:156,1,100,2|0,0:1|0:0,0:0:0:0:
116,188,74543,2,0,P|113:171|116:155,1,33.3333333333333,2|0,1:3|0:0,0:0:0:0:
45,141,74876,2,0,P|78:92|176:111,1,166.666666666667,2|0,0:1|1:0,0:0:0:0:
320,296,77043,22,0,P|323:321|307:348,1,33.3333333333333,2|0,0:1|0:0,0:0:0:0:
304,356,77376,1,0,0:0:0:0:
268,244,77543,2,0,P|265:219|281:192,1,33.3333333333333,2|0,1:3|0:0,0:0:0:0:
248,144,77876,2,0,P|280:176|352:156,1,100,2|0,0:1|0:0,0:0:0:0:
396,188,78543,2,0,P|399:171|396:155,1,33.3333333333333,0|0,1:0|0:0,0:0:0:0:
467,141,78876,2,0,P|434:92|336:111,1,166.666666666667,2|0,0:3|1:0,0:0:0:0:
212,300,81043,22,0,P|209:275|225:248,1,33.3333333333333,2|0,0:1|0:0,0:0:0:0:
228,240,81376,1,0,0:0:0:0:
300,208,81543,2,0,P|303:183|287:156,1,33.3333333333333,2|0,1:3|0:0,0:0:0:0:
348,124,81876,2,0,P|298:108|239:143,1,100,2|0,0:1|0:0,0:0:0:0:
212,172,82543,21,2,1:3:0:0:
8,8,82876,1,2,0:0:0:0:
8,204,83543,1,2,1:2:0:0:
112,96,83876,1,2,0:1:0:0:
112,252,84543,1,2,1:3:0:0:
60,156,84876,1,2,0:1:0:0:
256,192,89043,12,0,97043,0:0:0:0:
