osu file format v14

[General]
AudioFilename: audio.mp3
AudioLeadIn: 0
PreviewTime: 8876
Countdown: 1
SampleSet: None
StackLeniency: 0.7
Mode: 0
LetterboxInBreaks: 0
WidescreenStoryboard: 1

[Editor]
Bookmarks: 1043,3876,9043,10876,12043,16876,28543,49043
DistanceSpacing: 2
BeatDivisor: 1
GridSize: 32
TimelineZoom: 2.4

[Metadata]
Title:Rainy Day
TitleUnicode:Rainy Day
Artist:Nagata Kenta
ArtistUnicode:永田 権太
Creator:Veridian
Version:Beginner
Source:どうぶつの森
Tags:Animal Crossing VGM BGM OST Theme Track Game Cube Forest Weather
BeatmapID:1782993
BeatmapSetID:853142

[Difficulty]
HPDrainRate:0
CircleSize:2
OverallDifficulty:0
ApproachRate:0
SliderMultiplier:0.5
SliderTickRate:3

[Events]
//Background and Video events
0,0,"day_126__animal_crossing___spring__35_minutes__by_cryptid_creations-d5z7ahy.png",0,0
//Break Periods
2,41043,47243
//Storyboard Layer 0 (Background)
//Storyboard Layer 1 (Fail)
//Storyboard Layer 2 (Pass)
//Storyboard Layer 3 (Foreground)
//Storyboard Sound Samples

[TimingPoints]
1043,500,4,2,1,40,1,0
9043,-100,4,2,1,40,0,0
9209,-100,4,2,1,5,0,0
9376,-100,4,2,1,40,0,0
9709,-100,4,2,1,5,0,0
9876,-100,4,2,1,40,0,0
10376,-100,4,2,1,5,0,0
10543,-100,4,2,1,40,0,0
10876,-100,4,2,1,40,0,0
12376,-100,4,2,1,40,0,0
12876,-100,4,2,1,40,0,0
13043,-100,4,2,1,5,0,0
13210,-100,4,2,1,40,0,0
13709,-100,4,2,1,5,0,0
13876,-100,4,2,1,40,0,0
14376,-100,4,2,1,5,0,0
14543,-100,4,2,1,40,0,0
14876,-100,4,2,1,40,0,0
17043,-100,4,2,1,40,0,0
25043,-100,4,2,1,40,0,0
25209,-100,4,2,1,5,0,0
25376,-100,4,2,1,40,0,0
25709,-100,4,2,1,5,0,0
25876,-100,4,2,1,40,0,0
26376,-100,4,2,1,5,0,0
26543,-100,4,2,1,40,0,0
26709,-100,4,2,1,5,0,0
26876,-100,4,2,1,40,0,0
29043,-100,4,2,1,40,0,0
29209,-100,4,2,1,5,0,0
29376,-100,4,2,1,40,0,0
29709,-100,4,2,1,5,0,0
29876,-100,4,2,1,40,0,0
30376,-100,4,2,1,5,0,0
30543,-100,4,2,1,40,0,0
30709,-100,4,2,1,5,0,0
30876,-100,4,2,1,40,0,0
33043,-100,4,2,1,40,0,0
33209,-100,4,2,1,5,0,0
33376,-100,4,2,1,40,0,0
33709,-100,4,2,1,5,0,0
33876,-100,4,2,1,40,0,0
34376,-100,4,2,1,5,0,0
34543,-100,4,2,1,40,0,0
34709,-100,4,2,1,5,0,0
34876,-100,4,2,1,40,0,0
35876,-100,4,2,1,40,0,0
36876,-100,4,2,1,40,0,0
57043,-100,4,2,1,40,0,0
57209,-100,4,2,1,5,0,0
57376,-100,4,2,1,40,0,0
57709,-100,4,2,1,5,0,0
57876,-100,4,2,1,40,0,0
58376,-100,4,2,1,5,0,0
58543,-100,4,2,1,40,0,0
58876,-100,4,2,1,40,0,0
60376,-100,4,2,1,40,0,0
60876,-100,4,2,1,40,0,0
61043,-100,4,2,1,5,0,0
61210,-100,4,2,1,40,0,0
61709,-100,4,2,1,5,0,0
61876,-100,4,2,1,40,0,0
62376,-100,4,2,1,5,0,0
62543,-100,4,2,1,40,0,0
62876,-100,4,2,1,40,0,0
65042,-100,4,2,1,40,0,0
73043,-100,4,2,1,40,0,0
73209,-100,4,2,1,5,0,0
73376,-100,4,2,1,40,0,0
73709,-100,4,2,1,5,0,0
73876,-100,4,2,1,40,0,0
74376,-100,4,2,1,5,0,0
74543,-100,4,2,1,40,0,0
74709,-100,4,2,1,5,0,0
74876,-100,4,2,1,40,0,0
77043,-100,4,2,1,40,0,0
77209,-100,4,2,1,5,0,0
77376,-100,4,2,1,40,0,0
77709,-100,4,2,1,5,0,0
77876,-100,4,2,1,40,0,0
78376,-100,4,2,1,5,0,0
78543,-100,4,2,1,40,0,0
78709,-100,4,2,1,5,0,0
78876,-100,4,2,1,40,0,0
81043,-100,4,2,1,40,0,0
81209,-100,4,2,1,5,0,0
81376,-100,4,2,1,40,0,0
81709,-100,4,2,1,5,0,0
81876,-100,4,2,1,40,0,0
82376,-100,4,2,1,5,0,0
82543,-100,4,2,1,40,0,0
82709,-100,4,2,1,5,0,0
82876,-100,4,2,1,40,0,0
83876,-100,4,2,1,40,0,0
84876,-100,4,2,1,40,0,0
97043,-100,4,2,1,5,0,0

[Colours]
Combo1 : 217,158,138
Combo2 : 77,102,78
Combo3 : 245,214,118
Combo4 : 64,72,100
SliderTrackOverride : 175,188,187
SliderBorder : 226,226,226

[HitObjects]
56,192,1043,5,8,0:3:0:0:
256,48,3043,1,8,0:3:0:0:
456,192,5043,1,8,0:3:0:0:
256,336,7043,1,8,0:3:0:0:
256,192,9043,5,2,0:1:0:0:
456,192,10043,1,2,0:1:0:0:
360,328,10876,1,2,0:3:0:0:
96,192,12376,21,0,0:0:0:0:
168,120,12876,1,2,0:1:0:0:
168,352,14043,1,2,0:1:0:0:
24,264,14876,1,2,0:3:0:0:
320,264,16376,21,2,0:1:0:0:
416,264,16876,1,2,0:1:0:0:
256,48,19043,5,8,0:3:0:0:
56,192,21043,1,8,0:3:0:0:
256,336,23043,1,8,0:3:0:0:
456,192,25043,5,2,0:1:0:0:
352,64,25876,1,2,0:1:0:0:
256,240,26876,1,2,0:1:0:0:
56,192,29043,21,2,0:1:0:0:
160,64,29876,1,2,0:1:0:0:
256,240,30876,1,2,0:3:0:0:
416,64,33043,21,2,0:1:0:0:
416,232,33876,1,2,0:1:0:0:
240,144,34876,2,0,P|192:144|136:144,2,100,2|2|2,0:0|0:1|0:1,0:0:0:0:
456,192,49043,5,8,0:3:0:0:
256,336,51043,1,8,0:3:0:0:
56,192,53043,1,8,0:3:0:0:
256,48,55043,1,8,0:3:0:0:
256,192,57043,5,2,0:1:0:0:
376,352,58043,1,2,0:1:0:0:
488,224,58876,1,2,0:3:0:0:
256,32,60376,21,0,0:0:0:0:
256,128,60876,1,2,0:1:0:0:
168,344,62043,1,2,0:1:0:0:
336,344,62876,1,2,0:3:0:0:
304,48,64376,21,2,0:1:0:0:
208,48,64876,1,2,0:1:0:0:
56,192,67043,5,8,0:3:0:0:
256,336,69043,1,8,0:3:0:0:
456,192,71043,1,8,0:3:0:0:
256,48,73043,5,2,0:1:0:0:
184,200,73876,1,2,0:1:0:0:
48,48,74876,1,2,0:1:0:0:
256,48,77043,21,2,0:1:0:0:
328,200,77876,1,2,0:1:0:0:
464,48,78876,1,2,0:3:0:0:
256,360,81043,1,2,0:1:0:0:
256,192,81876,1,2,0:1:0:0:
450,237,82876,2,0,P|463:196|440:132,2,100,2|2|2,0:0|0:1|0:1,0:0:0:0:
256,48,87043,5,0,0:0:0:0:
56,192,89043,1,0,0:0:0:0:
256,336,91043,1,0,0:0:0:0:
256,192,93043,12,0,97043,0:0:0:0:
