osu file format v14

[General]
AudioFilename: audio.mp3
AudioLeadIn: 0
PreviewTime: 55192
Countdown: 0
SampleSet: Soft
StackLeniency: 0.4
Mode: 0
LetterboxInBreaks: 0
EpilepsyWarning: 1
WidescreenStoryboard: 1

[Editor]
Bookmarks: 483,11213,25584,39952,50698,56091,70456,84822
DistanceSpacing: 0.9
BeatDivisor: 4
GridSize: 8
TimelineZoom: 2.2

[Metadata]
Title:Orange Mystery (TV Size)
TitleUnicode:オレンジ・ミステリー (TV Size)
Artist:Nagashima Hideyuki
ArtistUnicode:長島秀幸
Creator:bossandy
Version:Silent's Hard
Source:きまぐれオレンジ☆ロード
Tags:Kimagure Orange★Road Anime Japanese J-pop Jpop pop opening op2 まつもと泉 Matsumoto Izumi 春日恭介 Kasuga kyosuke 鮎川まどか Ayukawa Madoka 檜山ひかる Hiyama Hikaru Silent Rock
BeatmapID:3122830
BeatmapSetID:1523665

[Difficulty]
HPDrainRate:4
CircleSize:3.5
OverallDifficulty:5.5
ApproachRate:7
SliderMultiplier:1.5
SliderTickRate:1

[Events]
//Background and Video events
Video,-344,"video.mp4"
0,0,"BG.jpeg",0,0
//Break Periods
//Storyboard Layer 0 (Background)
//Storyboard Layer 1 (Fail)
//Storyboard Layer 2 (Pass)
//Storyboard Layer 3 (Foreground)
//Storyboard Layer 4 (Overlay)
//Storyboard Sound Samples

[TimingPoints]
36,447.761194029851,4,2,1,70,1,8
36,-125,4,2,1,70,0,0
483,447.761194029851,4,2,1,70,1,0
7647,451.127819548872,4,2,1,70,1,0
9451,414.364640883978,4,2,1,70,1,8
9865,449.438202247191,4,2,1,70,1,8
11213,449.101796407186,4,2,1,70,1,0
29177,447.761194029851,4,2,1,70,1,8
32759,447.761194029851,4,2,1,70,1,0
35445,458.715596330275,4,2,1,70,1,8
36362,447.761194029851,4,2,1,70,1,8
38153,441.176470588235,4,2,1,70,1,8
39476,476.190476190476,4,2,1,70,1,8
39952,441.176470588235,4,2,1,70,1,0
40393,447.761194029851,4,2,1,70,1,8
41736,447.761194029851,4,2,1,70,1,8
46213,451.807228915663,4,2,1,70,1,8
47116,447.761194029851,4,2,1,70,1,0
50698,449.438202247191,4,2,1,70,1,0
56091,448.933782267116,4,2,1,90,1,1
56091,-83.3333333333333,4,2,1,90,0,1
69783,-83.3333333333333,4,2,1,90,0,0
70456,-83.3333333333333,4,2,1,90,0,1
84149,-83.3333333333333,4,2,1,90,0,0
84822,-83.3333333333333,4,2,1,90,0,1
85271,-100,4,2,1,70,0,0

[Colours]
Combo1 : 125,168,200
Combo2 : 74,77,158
Combo3 : 214,147,139
Combo4 : 162,134,182

[HitObjects]
61,57,36,5,4,0:0:0:0:
61,57,483,6,0,L|211:57,1,150,6|10,3:2|0:0,0:0:0:0:
211,147,1154,2,0,L|48:147,1,150,2|2,0:0|0:0,0:0:0:0:
0,210,1826,2,0,L|0:285,1,75,8|0,0:0|0:0,0:0:0:0:
63,347,2274,5,0,3:0:0:0:
125,285,2497,1,0,1:0:0:0:
125,285,2609,1,0,1:0:0:0:
125,285,2721,1,10,1:2:0:0:
187,347,2945,1,2,0:0:0:0:
277,347,3169,2,0,L|277:267,1,75,2|2,3:2|0:0,0:0:0:0:
277,181,3617,2,0,L|277:101,1,75,10|2,0:2|0:0,0:0:0:0:
210,44,4065,6,0,B|231:22|231:22|319:22|319:22|340:44,1,150,2|10,3:2|0:0,0:0:0:0:
404,107,4736,2,0,B|425:128|425:128|425:216|425:216|402:238,1,150,2|2,0:0|0:0,0:0:0:0:
341,304,5408,2,0,L|265:304,1,75,10|0,0:0|0:0,0:0:0:0:
203,239,5856,6,0,L|203:164,1,75,0|0,3:0|1:0,0:0:0:0:
140,99,6303,1,10,0:0:0:0:
78,164,6527,1,2,1:2:0:0:
78,164,6639,1,0,1:0:0:0:
78,164,6751,2,0,L|77:238,1,75,2|2,3:2|0:0,0:0:0:0:
78,329,7199,2,0,L|152:330,1,75,10|2,0:0|0:0,0:0:0:0:
243,328,7647,6,0,L|245:178,1,150,2|10,3:2|0:0,0:0:0:0:
243,87,8323,2,0,L|392:89,1,150,2|2,0:0|0:0,0:0:0:0:
483,87,9000,2,0,L|481:161,1,75,10|0,0:0|1:0,0:0:0:0:
483,257,9451,5,0,3:0:0:0:
393,257,9658,1,2,3:2:0:0:
393,257,9761,1,0,3:0:0:0:
393,257,9865,2,0,L|366:230,1,37.5,10|0,0:0|3:0,0:0:0:0:
321,230,10089,2,0,L|288:262,1,37.5,2|0,3:2|3:0,0:0:0:0:
249,257,10314,2,0,L|216:224,1,37.5,2|0,3:2|3:0,0:0:0:0:
177,230,10539,2,0,L|144:262,1,37.5,2|0,3:2|3:0,0:0:0:0:
105,257,10763,1,10,0:0:0:0:
43,195,10988,6,0,B|43:88|43:88|76:61,1,150,6|2,3:2|3:2,0:0:0:0:
139,0,11662,2,0,L|221:0,1,75,10|2,0:0|0:0,0:0:0:0:
278,64,12111,1,10,1:0:0:0:
278,64,12335,2,0,L|278:152,1,75,0|8,0:0|0:0,0:0:0:0:
214,203,12784,1,2,1:0:0:0:
214,203,12897,1,0,1:0:0:0:
214,203,13009,2,0,B|277:240|277:240|344:203,1,150,8|10,1:0|0:0,0:0:0:0:
408,266,13683,1,2,0:0:0:0:
472,203,13907,2,0,L|472:128,1,75,2|2,3:2|0:0,0:0:0:0:
407,63,14356,1,10,0:0:0:0:
317,64,14581,5,2,0:0:0:0:
317,64,14805,2,0,L|162:65,1,150,0|10,3:0|0:0,0:0:0:0:
76,64,15479,1,2,0:0:0:0:
76,154,15704,1,2,3:2:0:0:
76,154,15928,2,0,L|151:154,1,75,2|8,0:0|0:0,0:0:0:0:
241,154,16377,1,2,1:0:0:0:
241,154,16489,1,0,1:0:0:0:
241,154,16602,2,0,L|241:229,1,75,10|0,1:0|0:0,0:0:0:0:
241,319,17051,2,0,L|166:319,1,75,10|2,0:0|0:0,0:0:0:0:
76,319,17500,1,2,3:2:0:0:
76,229,17724,6,0,L|76:154,2,75,2|10|2,0:0|0:0|0:0,0:0:0:0:
76,319,18398,2,0,B|142:319|142:319|154:331|154:331|220:331,1,150,2|10,3:2|0:0,0:0:0:0:
311,331,19072,2,0,L|311:256,1,75,2|0,0:0|3:0,0:0:0:0:
373,193,19521,1,2,0:0:0:0:
311,130,19745,2,0,L|311:55,1,75,8|0,0:0|1:0,0:0:0:0:
220,55,20195,2,0,L|220:205,1,150,8|10,1:0|0:2,0:0:0:0:
155,267,20868,1,2,0:0:0:0:
89,205,21093,1,2,3:2:0:0:
89,115,21317,6,0,L|89:28,2,75,2|10|2,0:0|0:0|0:0,0:0:0:0:
89,205,21991,1,2,3:2:0:0:
221,329,22440,1,10,0:0:0:0:
221,329,22665,2,0,B|328:329|328:329|355:296,1,150,2|2,0:0|0:0,0:0:0:0:
355,205,23338,1,10,0:0:0:0:
292,141,23563,5,8,1:0:0:0:
292,141,23675,1,0,1:0:0:0:
292,141,23787,1,8,1:0:0:0:
216,217,24012,1,8,0:0:0:0:
140,141,24236,1,8,0:0:0:0:
216,65,24461,1,4,3:0:0:0:
292,141,24686,5,0,3:0:0:0:
355,205,24910,1,0,3:0:0:0:
419,142,25135,1,8,0:0:0:0:
292,141,25359,6,0,B|270:162|270:162|270:250|270:250|292:271,1,150,6|2,3:2|3:2,0:0:0:0:
357,335,26033,2,0,L|432:335,1,75,10|2,0:0|0:0,0:0:0:0:
496,272,26482,2,0,L|496:122,1,150,2|10,3:0|0:0,0:0:0:0:
432,58,27156,1,2,1:0:0:0:
432,58,27268,1,0,1:0:0:0:
432,58,27380,2,0,B|405:25|405:25|298:25,1,150,8|10,1:0|0:0,0:0:0:0:
207,25,28054,1,2,0:0:0:0:
144,89,28278,2,0,L|144:164,1,75,2|2,3:2|0:0,0:0:0:0:
207,228,28727,1,10,0:0:0:0:
144,292,28952,5,2,0:0:0:0:
144,292,29177,2,0,L|69:292,1,75,0|2,3:0|0:0,0:0:0:0:
6,228,29624,1,10,0:0:0:0:
69,165,29848,2,0,L|151:165,2,75,2|2|2,0:0|3:2|0:0,0:0:0:0:
6,102,30520,1,8,0:0:0:0:
69,39,30744,1,2,1:0:0:0:
69,39,30856,1,0,1:0:0:0:
69,39,30968,2,0,L|151:39,1,75,8|0,1:0|0:0,0:0:0:0:
234,39,31415,2,0,L|234:114,1,75,10|2,0:0|0:0,0:0:0:0:
297,177,31863,1,2,3:2:0:0:
360,114,32087,6,0,L|360:39,2,75,2|10|2,0:0|0:0|0:0,0:0:0:0:
297,177,32759,2,0,B|297:284|297:284|330:311,1,150,2|10,3:2|0:0,0:0:0:0:
420,311,33430,2,0,B|453:284|453:284|453:177,1,150,2|2,0:0|0:0,0:0:0:0:
453,86,34102,1,8,0:0:0:0:
363,86,34326,1,0,1:0:0:0:
363,86,34438,1,0,1:0:0:0:
363,86,34550,2,0,L|288:86,1,75,10|0,1:0|0:0,0:0:0:0:
224,22,34997,1,10,0:2:0:0:
161,86,35221,5,2,0:0:0:0:
161,86,35445,2,0,B|161:135|161:135|170:144|170:144|170:194,2,112.5,2|2|2,3:2|0:0|0:0,0:0:0:0:
70,86,36362,2,0,L|70:161,1,75,2|0,3:2|0:0,0:0:0:0:
7,225,36809,1,10,0:0:0:0:
70,289,37033,1,2,0:0:0:0:
70,289,37145,1,2,0:0:0:0:
70,289,37257,2,0,L|145:289,1,75,2|2,3:2|0:0,0:0:0:0:
209,225,37705,1,10,0:0:0:0:
273,289,37929,5,2,1:0:0:0:
291,289,38041,1,2,1:0:0:0:
310,289,38153,1,10,1:0:0:0:
386,212,38373,1,8,3:0:0:0:
309,136,38594,2,0,L|234:136,1,75,6|2,3:0|3:2,0:0:0:0:
234,45,39035,6,0,L|363:45,1,112.5,2|2,3:0|3:0,0:0:0:0:
388,45,39476,1,10,0:0:0:0:
452,107,39714,1,2,0:0:0:0:
371,190,39952,6,0,L|371:265,1,75,6|0,3:2|0:0,0:0:0:0:
435,327,40393,1,10,0:0:0:0:
435,327,40616,2,0,B|410:351|410:351|330:351|330:351|305:327,1,150,2|0,0:0|0:0,0:0:0:0:
241,262,41288,1,8,0:0:0:0:
176,327,41512,6,0,L|101:327,1,75,2|8,1:0|1:0,0:0:0:0:
241,262,41960,1,2,0:0:0:0:
176,197,42184,2,0,L|101:197,1,75,10|0,0:0|0:0,0:0:0:0:
10,197,42631,6,0,L|10:84,1,112.5,2|2,3:2|0:0,0:0:0:0:
10,39,43079,1,8,0:0:0:0:
100,39,43303,1,2,0:0:0:0:
190,39,43527,2,0,L|190:114,1,75,2|0,3:2|0:0,0:0:0:0:
126,178,43975,1,10,0:0:0:0:
190,242,44198,2,0,B|190:339|190:339|243:339,1,150,2|0,0:0|0:0,0:0:0:0:
307,276,44870,1,8,0:0:0:0:
371,339,45094,6,0,L|447:339,1,75,2|8,1:0|1:0,0:0:0:0:
307,276,45542,1,2,0:0:0:0:
371,213,45766,2,0,L|447:213,1,75,10|0,0:0|0:0,0:0:0:0:
510,150,46213,1,0,3:0:0:0:
446,87,46438,1,8,0:0:0:0:
427,87,46551,1,8,0:0:0:0:
408,87,46664,2,0,L|370:87,3,37.5,8|8|8|8,0:0|0:0|0:0|0:0,0:0:0:0:
325,87,47116,5,2,3:2:0:0:
260,151,47339,2,0,L|260:244,2,75,2|8|2,0:0|0:0|0:0,0:0:0:0:
196,87,48011,2,0,L|121:87,1,75,2|2,3:2|0:0,0:0:0:0:
57,151,48459,2,0,L|57:244,1,75,10|2,0:0|1:0,0:0:0:0:
121,290,48907,1,10,1:0:0:0:
121,290,49130,2,0,L|196:290,1,75,2|8,0:0|0:0,0:0:0:0:
121,380,49578,2,0,L|271:380,1,150,2|2,0:0|0:0,0:0:0:0:
335,317,50250,2,0,L|335:242,1,75,10|2,0:0|0:0,0:0:0:0:
335,151,50698,5,2,3:2:0:0:
335,151,50922,1,0,0:0:0:0:
270,86,51147,1,8,0:0:0:0:
205,151,51372,1,0,1:0:0:0:
205,151,51484,1,0,1:0:0:0:
205,151,51596,2,0,L|205:226,1,75,8|0,1:0|0:0,0:0:0:0:
140,291,52046,2,0,L|65:291,1,75,8|0,0:0|1:0,0:0:0:0:
0,226,52495,5,10,1:0:0:0:
65,161,52720,1,8,3:0:0:0:
0,96,52945,5,8,0:0:0:0:
65,161,53169,1,8,3:0:0:0:
130,96,53394,5,0,3:0:0:0:
65,161,53619,1,4,3:0:0:0:
130,226,53844,5,8,0:0:0:0:
65,161,54068,1,4,3:0:0:0:
0,226,54293,6,0,L|0:301,1,75,2|6,3:2|3:0,0:0:0:0:
65,366,54742,1,8,0:0:0:0:
130,301,54967,1,2,0:0:0:0:
195,366,55192,1,0,3:0:0:0:
279,281,55417,5,10,0:0:0:0:
364,366,55641,1,10,0:0:0:0:
449,281,55866,1,10,0:0:0:0:
364,196,56091,6,0,B|287:196|287:196|268:176|268:176|192:176,1,179.999994506836,6|10,3:2|0:0,0:0:0:0:
116,100,56764,2,0,L|116:10,1,89.9999972534181,2|2,0:0|3:2,0:0:0:0:
39,177,57213,2,0,L|39:267,1,89.9999972534181,2|8,0:0|0:0,0:0:0:0:
116,342,57662,5,2,0:0:0:0:
193,267,57886,2,0,L|289:267,1,89.9999972534181,2|0,3:2|0:0,0:0:0:0:
360,342,58335,2,0,B|388:312|388:312|388:215|388:215|360:186,1,179.999994506836,10|2,0:0|3:2,0:0:0:0:
283,109,59009,1,2,0:0:0:0:
206,186,59233,1,8,0:0:0:0:
97,186,59458,1,2,1:0:0:0:
97,78,59682,5,8,1:0:0:0:
97,186,59906,2,0,L|97:366,1,179.999994506836,2|2,0:0|0:0,0:0:0:0:
206,276,60580,2,0,L|206:366,1,89.9999972534181,2|0,3:2|0:0,0:0:0:0:
314,276,61029,1,8,0:0:0:0:
389,351,61253,6,0,B|421:319|421:319|421:184,1,179.999994506836,2|2,0:0|0:0,0:0:0:0:
421,75,61927,1,10,0:0:0:0:
313,75,62151,1,2,0:0:0:0:
205,75,62376,2,0,L|205:176,1,89.9999972534181,2|0,3:2|0:0,0:0:0:0:
97,75,62825,2,0,L|97:210,1,134.999995880127,10|0,0:0|1:0,0:0:0:0:
97,263,63273,6,0,B|129:295|129:295|217:295|217:295|249:263,1,179.999994506836,10|10,1:0|0:0,0:0:0:0:
325,186,63947,2,0,L|417:186,1,89.9999972534181,2|2,0:0|3:2,0:0:0:0:
249,111,64396,2,0,L|159:111,1,89.9999972534181,2|8,0:0|0:0,0:0:0:0:
50,111,64845,5,2,0:0:0:0:
50,218,65069,2,0,L|50:308,1,89.9999972534181,2|0,3:2|0:0,0:0:0:0:
159,308,65518,2,0,L|159:218,1,89.9999972534181,10|0,0:0|0:0,0:0:0:0:
268,218,65967,1,2,3:2:0:0:
268,218,66192,2,0,L|268:308,1,89.9999972534181,2|8,0:0|0:0,0:0:0:0:
377,308,66640,1,2,1:0:0:0:
377,308,66753,1,0,1:0:0:0:
377,308,66865,1,8,1:0:0:0:
377,200,67089,6,0,L|377:20,1,179.999994506836,2|2,0:0|0:0,0:0:0:0:
268,110,67763,2,0,L|268:20,1,89.9999972534181,2|0,3:2|0:0,0:0:0:0:
159,110,68212,1,8,0:0:0:0:
50,20,68436,6,0,L|50:110,1,89.9999972534181,2|0,0:0|3:0,0:0:0:0:
50,218,68885,1,2,0:0:0:0:
50,218,68997,1,2,0:0:0:0:
50,218,69110,2,0,L|81:249,1,44.999998626709,10|0,0:0|3:0,0:0:0:0:
135,250,69334,2,0,L|173:211,1,44.999998626709,2|0,3:2|3:0,0:0:0:0:
220,218,69559,2,0,L|258:256,1,44.999998626709,2|0,3:2|3:0,0:0:0:0:
305,250,69783,5,10,0:0:0:0:
390,165,70007,1,10,0:0:0:0:
305,80,70232,1,10,0:0:0:0:
220,165,70456,6,0,B|85:165|85:165|53:133,1,179.999994506836,6|10,3:2|0:0,0:0:0:0:
128,57,71130,2,0,L|226:57,1,89.9999972534181,2|2,0:0|3:2,0:0:0:0:
326,57,71579,1,2,0:0:0:0:
402,133,71803,1,8,0:0:0:0:
326,209,72028,5,2,0:0:0:0:
326,209,72252,2,0,L|326:302,1,89.9999972534181,2|0,3:2|0:0,0:0:0:0:
250,375,72701,2,0,L|160:375,1,89.9999972534181,10|0,0:0|0:0,0:0:0:0:
84,299,73150,2,0,B|84:248|84:248|100:231|100:231|100:171,1,134.999995880127,2|2,3:2|0:0,0:0:0:0:
101,116,73599,2,0,L|190:116,1,89.9999972534181,8|2,0:0|1:0,0:0:0:0:
268,40,74048,5,8,1:0:0:0:
345,116,74272,2,0,L|345:296,1,179.999994506836,2|2,0:0|0:0,0:0:0:0:
236,205,74946,2,0,L|236:296,1,89.9999972534181,2|0,3:2|0:0,0:0:0:0:
127,205,75395,1,8,0:0:0:0:
52,281,75619,6,0,B|20:249|20:249|20:114,1,179.999994506836,2|2,0:0|0:0,0:0:0:0:
95,38,76293,1,10,0:0:0:0:
202,38,76517,1,2,0:0:0:0:
309,38,76741,2,0,L|399:38,1,89.9999972534181,2|0,3:2|0:0,0:0:0:0:
309,146,77190,2,0,L|461:146,1,134.999995880127,10|0,0:0|1:0,0:0:0:0:
498,146,77639,6,0,B|498:213|498:213|476:236|476:236|476:316,1,179.999994506836,10|10,1:0|0:0,0:0:0:0:
367,317,78313,2,0,L|367:227,1,89.9999972534181,2|2,0:0|3:2,0:0:0:0:
257,227,78762,1,2,0:0:0:0:
181,303,78986,1,8,0:0:0:0:
105,227,79211,5,2,0:0:0:0:
105,227,79435,2,0,L|105:137,1,89.9999972534181,2|0,3:2|0:0,0:0:0:0:
181,61,79884,2,0,L|271:61,1,89.9999972534181,10|0,0:0|0:0,0:0:0:0:
379,61,80333,1,2,3:2:0:0:
379,61,80557,1,2,0:0:0:0:
455,137,80782,1,8,0:0:0:0:
379,214,81006,1,2,1:0:0:0:
379,214,81119,1,0,1:0:0:0:
379,214,81231,1,8,1:0:0:0:
379,321,81455,6,0,L|199:321,1,179.999994506836,2|2,0:0|0:0,0:0:0:0:
289,214,82129,2,0,L|199:214,1,89.9999972534181,2|0,3:2|0:0,0:0:0:0:
289,107,82578,1,8,0:0:0:0:
181,107,82802,6,0,B|113:107|113:107|90:128|90:128|10:128,1,179.999994506836,2|2,0:0|0:0,0:0:0:0:
10,236,83475,1,10,0:0:0:0:
118,236,83700,1,2,0:0:0:0:
118,344,83924,1,2,3:2:0:0:
10,236,84149,5,10,0:0:0:0:
118,236,84373,1,10,0:0:0:0:
226,236,84598,1,10,0:0:0:0:
118,128,84822,5,6,3:2:0:0:
118,344,85271,1,8,0:0:0:0:
256,128,85720,5,0,3:0:0:0:
256,344,86169,1,8,0:0:0:0:
394,128,86618,5,0,3:0:0:0:
394,344,87067,1,8,0:0:0:0:
256,128,87516,5,0,3:0:0:0:
193,190,87740,1,2,0:0:0:0:
256,253,87965,1,8,0:0:0:0:
319,190,88189,1,2,0:0:0:0:
256,128,88414,6,0,B|227:99|227:99|118:99,1,150,2|8,3:2|0:0,0:0:0:0:
27,99,89087,1,0,0:0:0:0:
27,189,89312,2,0,B|27:229|27:229|37:239|37:239|37:279|37:279|47:289|47:289|47:330,1,150,0|8,3:0|0:0,0:0:0:0:
137,330,89985,1,8,0:0:0:0:
137,311,90097,1,8,0:0:0:0:
137,292,90209,1,10,3:2:0:0:
