osu file format v14

[General]
AudioFilename: audio.mp3
AudioLeadIn: 0
PreviewTime: 53021
Countdown: 0
SampleSet: Soft
StackLeniency: 0.2
Mode: 0
LetterboxInBreaks: 0
WidescreenStoryboard: 1

[Editor]
Bookmarks: 1935,12907,23878,32107,43078,54050,65021,75993,84221,95193,103421,114393,125364,136336,144393,155364,163593,171993,182964,193936,204907,215878,226850,241936,258478
DistanceSpacing: 0.8
BeatDivisor: 4
GridSize: 4
TimelineZoom: 1.6

[Metadata]
Title:Hoshi no Umi no Kioku
TitleUnicode:星の海の記憶
Artist:Nagase Mana (CV: Sayaka Kanda)
ArtistUnicode:長瀬麻奈(CV: 神田沙也加)
Creator:Andrea
Version:Memories
Source:IDOLY PRIDE
Tags:osuplayer111 Sekai Sekaii Sekai-nyan Collab Collaboration Full Version Female Vocals Memories of the Starry Sky Anime Japanese Pop J-Pop JPop Idol Yashikin アイドリープライド アイプラ やしきん
BeatmapID:3398458
BeatmapSetID:1664742

[Difficulty]
HPDrainRate:6
CircleSize:4.5
OverallDifficulty:8
ApproachRate:9
SliderMultiplier:1.6
SliderTickRate:1

[Events]
//Background and Video events
0,0,"BG.jpg",0,0
//Break Periods
//Storyboard Layer 0 (Background)
//Storyboard Layer 1 (Fail)
//Storyboard Layer 2 (Pass)
//Storyboard Layer 3 (Foreground)
//Storyboard Layer 4 (Overlay)
//Storyboard Sound Samples

[TimingPoints]
1936,342.857142857143,4,2,1,60,1,0
1936,-125,4,2,1,60,0,0
4678,-125,4,2,1,60,0,0
8621,-125,4,2,1,60,0,0
10164,-100,4,2,1,70,0,0
10507,-100,4,2,1,70,0,0
11278,-100,4,2,1,5,0,0
11364,-100,4,2,1,70,0,0
11534,-100,4,2,1,70,0,0
11878,-100,4,2,1,70,0,0
12907,-111.111111111111,4,2,1,65,0,0
22336,-111.111111111111,4,2,1,65,0,0
22850,-111.111111111111,4,2,1,65,0,0
23536,-111.111111111111,4,2,1,65,0,0
23878,-100,4,2,1,65,0,0
24135,-100,4,2,1,5,0,0
24221,-100,4,2,1,65,0,0
24907,-100,4,2,1,65,0,0
25250,-100,4,2,1,75,0,0
25593,-100,4,2,1,75,0,0
25850,-100,4,2,1,5,0,0
25936,-100,4,2,1,75,0,0
27393,-100,4,2,1,5,0,0
27478,-100,4,2,1,75,0,0
28250,-100,4,2,1,75,0,0
28678,-100,4,2,1,75,0,0
29621,-100,4,2,1,5,0,0
29707,-100,4,2,1,75,0,0
30478,-100,4,2,1,5,0,0
30564,-100,4,2,1,75,0,0
31507,-100,4,2,1,5,0,0
31593,-100,4,2,1,75,0,0
32107,-111.111111111111,4,2,1,65,0,0
34764,-111.111111111111,4,2,1,5,0,0
34850,-111.111111111111,4,2,1,65,0,0
40850,-111.111111111111,4,2,1,65,0,0
43078,-100,4,2,1,65,0,0
43335,-100,4,2,1,5,0,0
43421,-100,4,2,1,65,0,0
43678,-100,4,2,1,5,0,0
43764,-100,4,2,1,65,0,0
44450,-100,4,2,1,75,0,0
45735,-100,4,2,1,5,0,0
45821,-100,4,2,1,75,0,0
46078,-100,4,2,1,5,0,0
46164,-100,4,2,1,75,0,0
47536,-100,4,2,1,75,0,0
48050,-100,4,2,1,75,0,0
48650,-100,4,2,1,5,0,0
48736,-100,4,2,1,75,0,0
49164,-100,4,2,1,5,0,0
49250,-100,4,2,1,75,0,0
50278,-100,4,2,1,75,0,0
51650,-100,4,2,1,75,0,0
53021,-125,4,2,1,75,0,0
54050,-90.9090909090909,4,2,1,85,0,1
55421,-90.9090909090909,4,2,1,85,0,1
55764,-90.9090909090909,4,2,1,85,0,1
56450,-90.9090909090909,4,2,1,85,0,1
57821,-90.9090909090909,4,2,1,85,0,1
58507,-90.9090909090909,4,2,1,85,0,1
60564,-90.9090909090909,4,2,1,85,0,1
61250,-90.9090909090909,4,2,1,85,0,1
61936,-90.9090909090909,4,2,1,85,0,1
63307,-90.9090909090909,4,2,1,85,0,1
65621,-90.9090909090909,4,2,1,5,0,1
65707,-90.9090909090909,4,2,1,85,0,1
66736,-90.9090909090909,4,2,1,85,0,1
67078,-90.9090909090909,4,2,1,85,0,1
67421,-90.9090909090909,4,2,1,85,0,1
68535,-90.9090909090909,4,2,1,5,0,1
68621,-90.9090909090909,4,2,1,85,0,1
68878,-90.9090909090909,4,2,1,5,0,1
68964,-90.9090909090909,4,2,1,85,0,1
69478,-90.9090909090909,4,2,1,85,0,1
69993,-90.9090909090909,4,2,1,85,0,1
70678,-90.9090909090909,4,2,1,85,0,1
72221,-90.9090909090909,4,2,1,85,0,1
73507,-90.9090909090909,4,2,1,5,0,1
73593,-90.9090909090909,4,2,1,85,0,1
74964,-90.9090909090909,4,2,1,85,0,1
75650,-90.9090909090909,4,2,1,85,0,1
76336,-90.9090909090909,4,2,1,85,0,1
77021,-90.9090909090909,4,2,1,85,0,1
77707,-90.9090909090909,4,2,1,85,0,1
79078,-90.9090909090909,4,2,1,85,0,1
79421,-90.9090909090909,4,2,1,85,0,1
79764,-90.9090909090909,4,2,1,85,0,1
80107,-90.9090909090909,4,2,1,85,0,1
81478,-100,4,2,1,80,0,0
83536,-100,4,2,1,70,0,0
84221,-100,4,2,1,65,0,0
84478,-100,4,2,1,5,0,0
84564,-100,4,2,1,65,0,0
85250,-100,4,2,1,65,0,0
85936,-100,4,2,1,65,0,0
86621,-100,4,2,1,65,0,0
87221,-100,4,2,1,5,0,0
87307,-100,4,2,1,65,0,0
88678,-100,4,2,1,65,0,0
89364,-100,4,2,1,65,0,0
89964,-100,4,2,1,5,0,0
90050,-100,4,2,1,65,0,0
90736,-100,4,2,1,65,0,0
92707,-100,4,2,1,5,0,0
92793,-100,4,2,1,65,0,0
93907,-100,4,2,1,5,0,0
93993,-100,4,2,1,75,0,0
96221,-100,4,2,1,75,0,0
96565,-100,4,2,1,75,0,0
96907,-100,4,2,1,75,0,0
97250,-100,4,2,1,75,0,0
97593,-100,4,2,1,75,0,0
103421,-111.111111111111,4,2,1,65,0,0
103936,-111.111111111111,4,2,1,65,0,0
104793,-111.111111111111,4,2,1,65,0,0
107364,-111.111111111111,4,2,1,65,0,0
111993,-111.111111111111,4,2,1,65,0,0
113278,-111.111111111111,4,2,1,5,0,0
113364,-111.111111111111,4,2,1,65,0,0
117050,-111.111111111111,4,2,1,5,0,0
117136,-111.111111111111,4,2,1,65,0,0
119707,-100,4,2,1,75,0,0
121078,-100,4,2,1,75,0,0
121593,-100,4,2,1,75,0,0
122278,-100,4,2,1,75,0,0
122878,-100,4,2,1,75,0,0
123307,-100,4,2,1,75,0,0
123650,-100,4,2,1,75,0,0
123907,-100,4,2,1,75,0,0
125364,-90.9090909090909,4,2,1,85,0,1
125707,-90.9090909090909,4,2,1,85,0,1
125964,-90.9090909090909,4,2,1,5,0,1
126050,-90.9090909090909,4,2,1,85,0,1
126736,-90.9090909090909,4,2,1,85,0,1
126993,-90.9090909090909,4,2,1,5,0,1
127078,-90.9090909090909,4,2,1,85,0,1
127764,-90.9090909090909,4,2,1,85,0,1
128450,-90.9090909090909,4,2,1,85,0,1
129564,-90.9090909090909,4,2,1,5,0,1
129650,-90.9090909090909,4,2,1,85,0,1
131107,-90.9090909090909,4,2,1,5,0,1
131193,-90.9090909090909,4,2,1,85,0,1
132564,-90.9090909090909,4,2,1,85,0,1
133850,-90.9090909090909,4,2,1,5,0,1
133936,-90.9090909090909,4,2,1,85,0,1
134535,-90.9090909090909,4,2,1,5,0,1
134621,-90.9090909090909,4,2,1,85,0,1
136678,-90.9090909090909,4,2,1,85,0,1
138050,-90.9090909090909,4,2,1,85,0,1
138736,-90.9090909090909,4,2,1,85,0,1
139764,-90.9090909090909,4,2,1,5,0,1
139936,-90.9090909090909,4,2,1,85,0,1
140793,-90.9090909090909,4,2,1,85,0,1
142164,-90.9090909090909,4,2,1,85,0,1
143536,-90.9090909090909,4,2,1,85,0,1
144393,-100,4,2,1,80,0,0
144907,-100,4,2,1,80,0,0
145593,-100,4,2,1,80,0,0
145936,-100,4,2,1,80,0,0
147650,-100,4,2,1,80,0,0
150393,-100,4,2,1,80,0,0
150907,-100,4,2,1,80,0,0
151764,-100,4,2,1,80,0,0
153136,-100,4,2,1,80,0,0
153650,-100,4,2,1,80,0,0
155878,-100,4,2,1,80,0,0
157936,-100,4,2,1,80,0,0
158621,-100,4,2,1,80,0,0
161364,-100,4,2,1,80,0,0
162050,-100,4,2,1,80,0,0
162736,-100,4,2,1,75,0,0
164107,-100,4,2,1,75,0,0
164450,-100,4,2,1,75,0,0
164964,-100,4,2,1,75,0,0
165735,-100,4,2,1,5,0,0
165821,-100,4,2,1,75,0,0
167193,-100,4,2,1,75,0,0
168050,-100,4,2,1,75,0,0
168564,-100,4,2,1,75,0,0
169335,-100,4,2,1,5,0,0
169421,-100,4,2,1,80,0,0
173021,-100,4,2,1,80,0,0
173364,-100,4,2,1,80,0,0
173707,-100,4,2,1,80,0,0
174393,-100,4,2,1,80,0,0
174736,-100,4,2,1,80,0,0
175764,-100,4,2,1,80,0,0
176450,-100,4,2,1,80,0,0
179878,-100,4,2,1,80,0,0
184421,-100,4,2,1,5,0,0
184507,-100,4,2,1,80,0,0
185021,-100,4,2,1,80,0,0
186221,-100,4,2,1,80,0,0
187164,-100,4,2,1,5,0,0
187250,-100,4,2,1,80,0,0
192393,-125,4,2,1,80,0,0
192821,-125,4,2,1,5,0,0
192907,-125,4,2,1,50,0,0
195307,-125,4,2,1,50,0,0
199421,-125,4,2,1,50,0,0
201307,-125,4,2,1,50,0,0
201821,-125,4,2,1,50,0,0
202164,-125,4,2,1,50,0,0
202678,-125,4,2,1,50,0,0
204907,-111.111111111111,4,2,1,65,0,0
205936,-111.111111111111,4,2,1,65,0,0
206278,-111.111111111111,4,2,1,65,0,0
206621,-111.111111111111,4,2,1,65,0,0
208678,-111.111111111111,4,2,1,65,0,0
209193,-111.111111111111,4,2,1,65,0,0
209707,-111.111111111111,4,2,1,65,0,0
213050,-111.111111111111,4,2,1,5,0,0
213136,-100,4,2,1,65,0,0
214507,-100,4,2,1,75,0,0
214593,-100,4,2,1,5,0,0
214678,-100,4,2,1,75,0,0
215878,-90.9090909090909,4,2,1,85,0,1
216221,-90.9090909090909,4,2,1,85,0,1
217250,-90.9090909090909,4,2,1,85,0,1
217593,-90.9090909090909,4,2,1,85,0,1
218278,-90.9090909090909,4,2,1,85,0,1
219650,-90.9090909090909,4,2,1,85,0,1
220336,-90.9090909090909,4,2,1,85,0,1
220593,-90.9090909090909,4,2,1,85,0,1
223078,-90.9090909090909,4,2,1,85,0,1
223764,-90.9090909090909,4,2,1,85,0,1
225393,-90.9090909090909,4,2,1,5,0,1
225478,-90.9090909090909,4,2,1,85,0,1
227193,-90.9090909090909,4,2,1,85,0,1
227878,-90.9090909090909,4,2,1,85,0,1
228564,-90.9090909090909,4,2,1,85,0,1
229250,-90.9090909090909,4,2,1,85,0,1
230364,-90.9090909090909,4,2,1,5,0,1
230450,-90.9090909090909,4,2,1,85,0,1
231221,-90.9090909090909,4,2,1,85,0,1
231650,-90.9090909090909,4,2,1,85,0,1
232421,-90.9090909090909,4,2,1,5,0,1
232507,-90.9090909090909,4,2,1,85,0,1
234050,-90.9090909090909,4,2,1,85,0,1
235335,-90.9090909090909,4,2,1,5,0,1
235421,-90.9090909090909,4,2,1,85,0,1
236107,-90.9090909090909,4,2,1,85,0,1
236793,-90.9090909090909,4,2,1,85,0,1
237907,-90.9090909090909,4,2,1,5,0,1
237993,-90.9090909090909,4,2,1,85,0,1
239278,-90.9090909090909,4,2,1,5,0,1
239364,-90.9090909090909,4,2,1,85,0,1
240393,-125,4,2,1,85,0,1
241250,-125,4,2,1,5,0,1
241421,-125,4,2,1,85,0,1
241936,-100,4,2,1,85,0,0
243650,-100,4,2,1,85,0,0
244336,-100,4,2,1,85,0,0
244678,-100,4,2,1,85,0,0
246393,-100,4,2,1,85,0,0
249136,-100,4,2,1,85,0,0
249821,-100,4,2,1,85,0,0
250507,-100,4,2,1,85,0,0
253250,-333.333333333333,4,2,1,85,0,0
258478,-333.333333333333,4,2,1,5,0,0

[Colours]
Combo1 : 255,106,181
Combo2 : 106,106,255
SliderBorder : 255,106,181
SliderTrackOverride : 106,106,255

[HitObjects]
256,296,907,5,2,0:0:0:0:
128,192,1250,1,2,0:0:0:0:
256,88,1593,1,2,0:0:0:0:
324,32,1764,1,2,0:0:0:0:
392,88,1935,2,0,P|432:88|464:112,1,80,6|2,1:2|0:0,0:0:0:0:
468,188,2278,2,0,P|380:272|260:236,1,256,2|2,0:0|0:0,0:0:0:0:
261,237,3650,6,0,B|201:257|201:213|137:237,1,128,2|2,0:0|0:0,0:0:0:0:
232,168,4164,1,8,0:2:0:0:
168,308,4336,2,0,L|208:368,1,64,2|0,1:2|0:0,0:0:0:0:
232,168,4678,6,0,L|196:114,1,64,6|2,1:2|0:0,0:0:0:0:
152,52,5021,2,0,P|300:16|392:136,1,320,2|2,0:0|0:0,0:0:0:0:
396,172,5964,1,2,0:0:0:0:
396,172,6050,2,0,B|411:229|411:229|447:270|447:270|467:347,1,192,4|8,1:2|0:3,0:0:0:0:
308,348,6907,1,8,0:3:0:0:
256,252,7078,1,4,0:3:0:0:
256,252,7421,6,0,P|128:264|44:48,1,384,6|0,1:2|0:0,0:0:0:0:
38,58,8621,1,12,0:2:0:0:
216,20,8964,1,8,0:3:0:0:
268,196,9307,1,0,1:2:0:0:
320,100,9478,1,10,0:2:0:0:
400,176,9650,1,8,0:3:0:0:
348,272,9821,1,4,0:3:0:0:
348,272,9907,1,4,0:3:0:0:
348,272,9993,1,4,0:3:0:0:
192,348,10164,6,0,P|155:363|119:348,1,80,6|2,1:2|0:0,0:0:0:0:
24,252,10507,1,0,1:2:0:0:
119,348,10678,1,12,0:0:0:0:
164,220,10850,1,2,1:2:0:0:
296,252,11021,2,0,B|352:236|352:276|416:252,1,120,10|0,0:2|0:0,0:0:0:0:
380,184,11364,2,0,P|415:116|379:48,1,160,14|0,0:2|1:2,0:0:0:0:
256,116,11878,1,8,0:2:0:0:
133,48,12050,5,4,0:3:0:0:
133,48,12136,1,4,0:3:0:0:
133,48,12221,2,0,P|93:48|61:72,1,80,8|4,0:3|0:3,0:0:0:0:
100,184,12564,2,0,P|140:184|172:160,1,80,8|4,0:3|0:3,0:0:0:0:
256,116,12907,6,0,B|324:140|324:92|396:116,1,143.999995605469,6|0,1:2|3:0,0:0:0:0:
497,155,13421,1,2,0:0:0:0:
415,54,13593,2,0,L|381:204,1,143.999995605469,2|2,3:2|3:2,0:0:0:0:
381,310,14107,1,2,0:0:0:0:
450,235,14278,6,0,P|387:208|314:233,2,143.999995605469,2|0|0,3:2|3:2|3:0,0:0:0:0:
450,235,15307,1,2,3:2:0:0:
381,310,15478,1,2,1:2:0:0:
317,229,15650,6,0,B|245:205|245:253|177:229,1,143.999995605469,2|2,1:2|3:2,0:0:0:0:
82,157,16164,1,2,0:0:0:0:
208,99,16336,2,0,L|159:162,1,71.9999978027344,0|2,3:0|0:0,0:0:0:0:
304,99,16678,2,0,L|353:162,1,71.9999978027344,2|0,3:2|0:0,0:0:0:0:
196,249,17021,6,0,B|244:249|256:219|256:219|268:249|316:249,2,143.999995605469,0|0|0,3:2|3:2|3:2,0:0:0:0:
256,354,17878,1,0,0:0:0:0:
316,249,18050,1,2,3:2:0:0:
196,249,18221,1,2,0:0:0:0:
329,321,18393,6,0,B|401:345|401:297|469:321,1,143.999995605469,2|2,1:2|3:2,0:0:0:0:
499,210,18907,1,2,0:0:0:0:
499,210,19078,2,0,B|523:142|475:142|499:70,1,143.999995605469,0|2,3:0|3:2,0:0:0:0:
414,22,19593,1,0,0:0:0:0:
326,137,19764,6,0,L|310:61,1,71.9999978027344,2|2,3:2|0:0,0:0:0:0:
201,122,20107,2,0,L|125:138,1,71.9999978027344,0|2,3:2|0:0,0:0:0:0:
186,247,20450,2,0,L|202:323,1,71.9999978027344,0|2,3:0|0:0,0:0:0:0:
311,262,20793,2,0,L|387:246,1,71.9999978027344,0|0,3:2|1:0,0:0:0:0:
297,163,21136,6,0,B|259:200|259:200|225:206|225:206|185:246,1,143.999995605469,2|2,1:2|3:2,0:0:0:0:
135,348,21650,1,2,0:0:0:0:
135,348,21821,2,0,B|97:310|97:310|91:276|91:276|51:236,1,143.999995605469,0|2,3:0|3:2,0:0:0:0:
77,126,22336,6,0,P|137:92|197:126,1,143.999995605469,6|0,1:2|0:0,0:0:0:0:
294,250,22850,1,10,0:2:0:0:
373,152,23021,2,0,L|218:189,1,143.999995605469,2|2,0:0|0:0,0:0:0:0:
374,248,23536,1,8,0:2:0:0:
374,248,23621,1,8,0:0:0:0:
374,248,23707,1,10,0:2:0:0:
339,66,23878,6,0,L|216:96,1,120,4|0,1:2|0:0,0:0:0:0:
184,104,24221,1,8,0:2:0:0:
60,136,24393,1,2,0:0:0:0:
60,136,24478,1,2,0:0:0:0:
60,136,24564,2,0,P|45:172|60:208,1,80,2|0,0:0|1:2,0:0:0:0:
60,208,24907,1,2,0:0:0:0:
196,308,25078,6,0,B|240:292|256:252|256:252|340:228,1,160,10|0,0:2|1:2,0:0:0:0:
372,384,25593,2,0,L|336:264,1,120,8|0,0:2|0:0,0:0:0:0:
328,231,25936,1,0,1:2:0:0:
300,108,26107,1,0,1:2:0:0:
424,84,26278,1,10,0:2:0:0:
452,207,26449,1,2,0:0:0:0:
300,108,26621,6,0,B|242:92|242:92|213:59|213:59|159:45,1,160,2|10,1:2|0:2,0:0:0:0:
20,80,27136,2,0,B|62:91|62:91|89:115|89:115|131:126,1,120,2|0,0:0|0:0,0:0:0:0:
168,136,27478,1,2,1:2:0:0:
256,232,27650,1,2,0:0:0:0:
144,296,27821,1,8,0:2:0:0:
60,196,27993,6,0,P|40:160|48:124,1,80,2|0,0:0|1:0,0:0:0:0:
76,96,28250,1,0,1:0:0:0:
76,96,28336,2,0,L|32:28,1,80,10|0,0:2|0:0,0:0:0:0:
168,136,28678,1,0,1:2:0:0:
168,136,28850,2,0,L|212:204,1,80,2|8,1:2|0:0,0:0:0:0:
288,308,29193,1,0,0:0:0:0:
412,208,29364,6,0,P|440:172|428:96,1,120,2|0,1:2|0:0,0:0:0:0:
408,68,29707,1,8,0:2:0:0:
292,12,29878,1,0,0:0:0:0:
256,136,30050,1,0,1:2:0:0:
256,136,30221,2,0,B|217:125|217:125|190:101|190:101|147:90,1,120,0|0,1:2|0:0,0:0:0:0:
108,80,30564,1,10,0:2:0:0:
104,240,30736,2,0,P|136:212|144:172,1,80,2|2,0:0|1:2,0:0:0:0:
256,44,31078,5,14,0:2:0:0:
256,44,31250,2,0,P|308:24|364:52,1,120,2|0,0:0|0:0,0:0:0:0:
416,88,31593,1,4,0:3:0:0:
416,88,31678,1,4,0:3:0:0:
416,88,31764,1,8,0:3:0:0:
416,88,31850,1,8,0:3:0:0:
416,88,31936,1,4,0:3:0:0:
416,88,32021,1,4,0:3:0:0:
416,88,32107,6,0,B|384:131|384:131|351:142|351:142|318:187,2,143.999995605469,4|0|2,1:2|1:2|1:2,0:0:0:0:
483,10,32964,1,0,0:0:0:0:
499,128,33136,2,0,P|513:160|499:192,1,71.9999978027344,2|0,1:2|0:0,0:0:0:0:
433,313,33478,2,0,L|419:238,1,71.9999978027344,2|0,1:2|0:0,0:0:0:0:
318,179,33821,2,0,L|304:249,1,71.9999978027344,2|0,1:2|0:0,0:0:0:0:
200,316,34164,2,0,P|167:330|135:316,1,71.9999978027344,2|2,1:2|0:0,0:0:0:0:
89,190,34507,2,0,L|63:308,1,107.999996704102,8|0,0:2|0:0,0:0:0:0:
0,264,34850,6,0,L|34:121,1,143.999995605469,2|2,1:2|1:2,0:0:0:0:
83,32,35364,1,0,0:0:0:0:
152,102,35536,2,0,B|224:78|224:126|292:102,1,143.999995605469,2|2,1:2|1:2,0:0:0:0:
376,39,36050,1,0,0:0:0:0:
442,120,36221,6,0,B|466:192|418:192|442:260,2,143.999995605469,2|2|2,1:2|1:2|1:2,0:0:0:0:
512,228,37078,1,4,0:3:0:0:
378,150,37250,1,8,0:2:0:0:
381,303,37421,1,0,0:0:0:0:
512,228,37593,6,0,B|444:252|444:204|372:228,1,143.999995605469,4|2,1:2|1:2,0:0:0:0:
256,281,38107,1,0,0:0:0:0:
224,184,38278,2,0,B|256:168|256:168|288:184,1,71.9999978027344,2|2,1:2|0:0,0:0:0:0:
288,85,38621,2,0,B|256:69|256:69|224:85,1,71.9999978027344,8|2,0:2|0:0,0:0:0:0:
129,186,38964,6,0,L|154:36,1,143.999995605469,2|2,1:2|1:2,0:0:0:0:
42,96,39478,1,0,0:0:0:0:
129,186,39650,2,0,P|97:200|65:186,1,71.9999978027344,2|2,1:2|0:0,0:0:0:0:
88,43,39993,2,0,P|120:29|152:43,1,71.9999978027344,10|2,0:2|1:2,0:0:0:0:
316,131,40336,6,0,B|268:131|256:101|256:101|244:131|196:131,1,143.999995605469,0|0,1:2|1:0,0:0:0:0:
255,252,40850,1,2,0:0:0:0:
316,131,41021,1,0,1:2:0:0:
195,131,41193,1,8,0:2:0:0:
318,202,41364,1,0,1:2:0:0:
194,202,41536,1,12,0:2:0:0:
320,297,41707,5,0,1:2:0:0:
256,161,41878,1,4,0:3:0:0:
256,161,41964,1,4,0:3:0:0:
256,161,42050,1,4,0:3:0:0:
192,297,42221,1,0,1:2:0:0:
342,192,42393,1,8,0:2:0:0:
170,192,42564,1,8,0:3:0:0:
170,192,42650,1,8,0:3:0:0:
170,192,42736,1,4,1:3:0:0:
256,341,42907,1,4,1:3:0:0:
352,172,43078,6,0,P|400:172|456:116,1,120,6|0,1:2|0:0,0:0:0:0:
380,100,43421,2,0,P|338:58|334:0,1,120,8|0,0:2|0:0,0:0:0:0:
408,28,43764,1,2,1:2:0:0:
256,84,43936,1,0,1:2:0:0:
256,84,44021,1,0,1:0:0:0:
256,84,44107,2,0,L|284:164,1,80,10|2,0:2|0:2,0:0:0:0:
192,296,44450,5,2,1:2:0:0:
192,296,44621,2,0,L|164:216,1,80,2|8,0:0|0:2,0:0:0:0:
324,288,44964,1,2,0:0:0:0:
282,159,45136,1,0,1:2:0:0:
412,124,45307,1,2,1:2:0:0:
454,253,45478,2,0,P|472:200|440:144,1,120,8|0,0:2|0:0,0:0:0:0:
412,124,45821,6,0,P|357:101|304:126,1,120,2|0,1:2|0:0,0:0:0:0:
282,159,46164,1,10,0:2:0:0:
324,288,46336,1,2,0:0:0:0:
324,288,46421,1,2,0:0:0:0:
324,288,46507,1,0,1:2:0:0:
188,252,46678,1,0,1:2:0:0:
356,204,46850,1,10,0:2:0:0:
244,328,47021,6,0,P|192:348|104:304,1,160,2|0,1:2|1:0,0:0:0:0:
215,94,47536,2,0,L|187:254,1,160,8|0,0:2|1:0,0:0:0:0:
332,344,48050,1,2,1:2:0:0:
332,344,48136,1,0,1:0:0:0:
332,344,48221,1,10,0:2:0:0:
468,240,48393,6,0,B|452:196|452:196|460:172|460:172|444:124,1,120,6|0,1:2|0:0,0:0:0:0:
428,88,48736,1,2,1:2:0:0:
304,48,48907,2,0,P|248:56|212:108,1,120,10|0,0:2|0:0,0:0:0:0:
288,120,49250,1,2,1:2:0:0:
192,220,49421,1,2,1:2:0:0:
132,96,49593,1,10,0:2:0:0:
280,208,49764,6,0,B|330:231|330:231|353:268|353:268|407:293,1,160,6|0,1:2|1:0,0:0:0:0:
272,304,50278,1,8,0:2:0:0:
416,204,50450,1,2,0:0:0:0:
416,204,50536,1,2,0:0:0:0:
416,204,50621,2,0,P|448:180|460:144,1,80,2|2,1:2|1:2,0:0:0:0:
392,28,50964,1,10,0:2:0:0:
256,112,51136,6,0,P|188:147|120:111,1,160,6|0,1:2|1:0,0:0:0:0:
12,244,51650,1,8,0:2:0:0:
120,111,51821,1,0,1:2:0:0:
152,264,51993,1,8,0:2:0:0:
19,156,52164,1,0,1:2:0:0:
60,316,52336,1,8,0:2:0:0:
168,183,52507,1,0,1:2:0:0:
168,183,52593,1,0,1:0:0:0:
168,183,52678,1,14,0:2:0:0:
44,64,52850,1,0,1:2:0:0:
44,64,53021,6,0,P|100:28|160:48,1,128,2|2,0:0|0:0,0:0:0:0:
155,44,53707,1,2,0:0:0:0:
184,52,53793,1,2,0:0:0:0:
212,60,53878,1,2,0:0:0:0:
240,68,53964,1,2,0:0:0:0:
264,76,54050,6,0,B|282:116|282:116|264:156,1,88.000002685547,4|2,1:1|0:0,0:0:0:0:
174,187,54393,2,0,L|363:195,1,176.000005371094,10|2,0:2|1:2,0:0:0:0:
388,328,54907,1,0,1:2:0:0:
388,328,54993,1,0,1:0:0:0:
388,328,55078,1,8,0:2:0:0:
485,230,55250,6,0,B|451:176|451:176|444:119|444:119|414:72,1,176.000005371094,0|0,1:2|1:0,0:0:0:0:
296,0,55764,1,10,0:2:0:0:
232,120,55936,1,0,1:0:0:0:
232,120,56021,1,8,0:2:0:0:
232,120,56107,2,0,L|143:140,1,88.000002685547,2|0,1:2|1:0,0:0:0:0:
24,240,56450,2,0,L|113:260,1,88.000002685547,10|2,0:2|0:0,0:0:0:0:
136,376,56793,5,2,1:2:0:0:
208,232,56964,1,2,0:0:0:0:
280,376,57136,1,10,0:2:0:0:
104,296,57307,1,0,1:0:0:0:
104,296,57393,1,8,0:2:0:0:
104,296,57478,2,0,L|18:276,1,88.000002685547,0|0,1:2|1:0,0:0:0:0:
139,152,57821,1,8,0:2:0:0:
230,306,57993,6,0,B|314:274|314:338|402:306,1,176.000005371094,2|0,1:2|1:0,0:0:0:0:
512,243,58507,1,8,0:2:0:0:
442,380,58678,1,0,1:0:0:0:
442,380,58764,1,8,0:2:0:0:
442,380,58850,1,2,1:2:0:0:
360,241,59021,1,2,1:2:0:0:
487,320,59193,1,10,0:2:0:0:
316,347,59364,1,2,0:0:0:0:
316,347,59450,1,2,0:0:0:0:
316,347,59536,6,0,B|284:263|348:263|316:175,1,176.000005371094,6|10,1:2|0:2,0:0:0:0:
256,86,60050,1,2,0:0:0:0:
256,86,60136,1,2,0:0:0:0:
256,86,60221,2,0,P|296:71|336:86,1,88.000002685547,0|0,1:2|1:0,0:0:0:0:
316,176,60564,1,8,0:2:0:0:
184,61,60736,6,0,L|321:180,1,176.000005371094,6|0,1:2|1:0,0:0:0:0:
407,267,61250,1,10,0:2:0:0:
296,352,61421,1,0,1:0:0:0:
296,352,61507,1,8,0:0:0:0:
296,352,61593,2,0,P|256:367|216:352,1,88.000002685547,2|0,1:2|1:0,0:0:0:0:
105,234,61936,2,0,P|90:194|105:154,1,88.000002685547,10|2,0:2|0:0,0:0:0:0:
128,126,62193,1,2,0:0:0:0:
128,126,62278,6,0,B|177:99|177:99|234:96|234:96|291:66,1,176.000005371094,6|10,1:2|0:2,0:0:0:0:
393,13,62793,1,2,0:0:0:0:
393,13,62878,1,2,0:0:0:0:
393,13,62964,2,0,P|408:53|393:93,1,88.000002685547,4|0,1:2|1:0,0:0:0:0:
306,232,63307,2,0,P|291:191|306:151,1,88.000002685547,8|2,0:2|0:0,0:0:0:0:
329,126,63564,1,2,0:0:0:0:
329,126,63650,6,0,L|452:268,1,176.000005371094,6|10,1:2|0:2,0:0:0:0:
280,301,64164,1,2,0:0:0:0:
280,301,64250,1,2,0:0:0:0:
280,301,64336,2,0,P|256:303|227:297,1,44.0000013427735,10|0,0:2|1:0,0:0:0:0:
160,216,64507,2,0,P|158:192|164:163,1,44.0000013427735,8|8,0:2|0:2,0:0:0:0:
232,83,64678,2,0,P|256:81|285:87,1,44.0000013427735,10|8,0:2|0:2,0:0:0:0:
351,172,64850,2,0,P|353:196|347:225,1,44.0000013427735,10|8,0:2|0:2,0:0:0:0:
256,192,65021,5,6,1:2:0:0:
352,92,65193,1,2,0:0:0:0:
448,192,65364,2,0,B|436:236|436:236|448:276|448:276|436:320,1,132.00000402832,10|0,0:2|0:0,0:0:0:0:
420,356,65707,1,2,1:2:0:0:
328,248,65878,1,0,1:2:0:0:
328,248,65964,1,0,1:0:0:0:
328,248,66050,1,8,0:2:0:0:
208,328,66221,6,0,P|152:344|60:272,1,176.000005371094,4|0,1:2|1:0,0:0:0:0:
172,184,66736,2,0,P|176:228|152:264,1,88.000002685547,10|0,0:2|0:0,0:0:0:0:
44,140,67078,2,0,P|40:96|64:60,1,88.000002685547,2|0,1:2|1:0,0:0:0:0:
208,36,67421,1,10,0:2:0:0:
172,184,67593,5,2,0:0:0:0:
172,184,67678,1,2,0:0:0:0:
172,184,67764,1,6,1:2:0:0:
316,148,67936,1,0,1:0:0:0:
316,148,68021,1,8,0:2:0:0:
316,148,68107,1,8,0:2:0:0:
132,96,68278,2,0,P|88:72|4:96,1,132.00000402832,2|0,1:2|0:0,0:0:0:0:
67,144,68621,2,0,L|56:276,1,132.00000402832,2|0,1:2|0:0,0:0:0:0:
124,312,68964,6,0,B|179:321|179:321|226:354|226:354|289:365,1,176.000005371094,6|0,1:2|1:0,0:0:0:0:
452,300,69478,2,0,B|396:290|396:290|349:257|349:257|286:246,1,176.000005371094,8|0,0:2|1:0,0:0:0:0:
136,224,69993,1,10,0:2:0:0:
136,224,70078,1,8,0:2:0:0:
136,224,70164,1,10,0:2:0:0:
244,68,70336,6,0,L|232:156,1,88.000002685547,4|0,1:1|0:0,0:0:0:0:
212,304,70678,1,0,1:2:0:0:
312,172,70850,1,10,0:2:0:0:
136,224,71021,1,2,1:2:0:0:
320,317,71193,1,8,0:2:0:0:
232,155,71364,1,2,1:2:0:0:
128,308,71536,1,8,0:2:0:0:
324,244,71707,6,0,B|378:229|378:229|434:239|434:239|496:222,1,176.000005371094,6|0,1:2|1:0,0:0:0:0:
400,328,72221,1,10,0:2:0:0:
436,148,72393,1,2,1:2:0:0:
436,148,72478,1,0,1:0:0:0:
436,148,72564,2,0,L|444:104,1,44.0000013427735,0|0,1:2|1:0,0:0:0:0:
376,24,72736,2,0,L|368:68,1,44.0000013427735,4|0,0:3|1:0,0:0:0:0:
360,108,72907,1,8,0:3:0:0:
327,130,72992,1,8,0:3:0:0:
289,136,73078,1,4,0:3:0:0:
251,125,73164,1,4,0:3:0:0:
222,99,73250,6,0,P|176:72|104:92,1,132.00000402832,4|0,1:2|0:0,0:0:0:0:
72,120,73593,1,10,0:2:0:0:
156,256,73764,1,2,0:0:0:0:
156,256,73850,1,2,0:0:0:0:
156,256,73936,1,2,1:2:0:0:
251,125,74107,1,0,1:2:0:0:
96,200,74278,1,10,0:2:0:0:
240,296,74450,6,0,B|324:264|324:328|412:296,1,176.000005371094,6|0,1:2|1:0,0:0:0:0:
284,368,74964,1,8,0:2:0:0:
368,224,75136,1,2,0:0:0:0:
368,224,75221,1,2,0:0:0:0:
368,224,75307,2,0,P|383:183|368:143,1,88.000002685547,0|0,1:2|1:0,0:0:0:0:
256,60,75650,1,8,0:2:0:0:
143,143,75821,1,2,0:0:0:0:
143,143,75907,1,2,0:0:0:0:
143,143,75993,6,0,P|128:183|144:224,1,88.000002685547,6|0,1:2|1:0,0:0:0:0:
260,344,76336,2,0,P|275:303|260:263,1,88.000002685547,10|2,0:2|0:0,0:0:0:0:
234,229,76593,1,2,0:0:0:0:
234,229,76678,2,0,L|274:147,1,88.000002685547,2|0,1:2|1:0,0:0:0:0:
324,51,77021,1,10,0:2:0:0:
434,117,77193,6,0,P|472:193|434:269,1,176.000005371094,6|0,1:2|1:0,0:0:0:0:
343,191,77707,1,8,0:2:0:0:
440,275,77878,1,2,0:0:0:0:
440,275,77964,1,2,0:0:0:0:
440,275,78050,1,0,1:2:0:0:
434,117,78221,1,0,1:2:0:0:
295,184,78393,1,8,0:2:0:0:
464,281,78564,6,0,B|410:313|410:313|353:319|353:319|305:348,1,176.000005371094,6|0,1:2|1:0,0:0:0:0:
176,237,79078,2,0,L|220:161,1,88.000002685547,10|0,0:2|1:0,0:0:0:0:
227,362,79421,2,0,L|151:318,1,88.000002685547,10|0,0:2|1:0,0:0:0:0:
295,184,79764,2,0,L|371:228,1,88.000002685547,10|0,0:2|1:0,0:0:0:0:
219,87,80107,5,10,0:2:0:0:
377,113,80278,1,0,1:2:0:0:
254,244,80450,1,10,0:2:0:0:
304,59,80621,1,0,1:2:0:0:
404,203,80793,1,10,0:2:0:0:
235,163,80964,1,4,0:3:0:0:
235,163,81050,1,8,0:3:0:0:
235,163,81136,1,8,0:3:0:0:
235,163,81221,1,8,0:3:0:0:
235,163,81307,1,8,0:3:0:0:
235,163,81393,1,8,0:3:0:0:
235,163,81478,6,0,P|198:147|162:162,1,80,6|2,1:2|0:0,0:0:0:0:
77,249,81821,1,10,0:2:0:0:
200,249,81993,2,0,L|84:104,1,160,6|2,1:2|1:2,0:0:0:0:
72,15,82507,1,8,0:2:0:0:
324,49,82678,6,0,B|272:49|256:16|256:16|240:49|188:49,1,160,6|8,1:2|0:3,0:0:0:0:
261,157,83193,1,4,0:3:0:0:
328,56,83364,1,4,0:3:0:0:
328,56,83450,1,4,0:3:0:0:
328,56,83536,2,0,P|388:56|441:98,2,120,8|8|8,1:2|1:2|1:2,0:0:0:0:
261,157,84221,6,0,B|240:196|240:196|244:232|244:232|228:268,1,120,6|0,1:2|0:0,0:0:0:0:
208,304,84564,1,8,0:2:0:0:
336,216,84736,1,2,1:2:0:0:
336,216,84821,1,0,1:0:0:0:
336,216,84907,2,0,P|376:212|408:232,1,80,10|0,0:0|1:0,0:0:0:0:
400,328,85250,1,2,0:0:0:0:
400,328,85421,6,0,L|484:180,1,160,10|0,0:2|1:0,0:0:0:0:
432,68,85936,1,8,0:2:0:0:
478,188,86107,1,0,0:0:0:0:
352,160,86278,2,0,P|312:148|288:116,1,80,2|0,1:2|1:0,0:0:0:0:
208,16,86621,1,10,0:2:0:0:
112,104,86793,1,2,0:0:0:0:
112,104,86878,1,2,0:0:0:0:
112,104,86964,6,0,B|92:160|132:160|112:224,1,120,2|0,1:2|0:0,0:0:0:0:
44,192,87307,1,10,0:2:0:0:
184,132,87478,1,2,1:2:0:0:
184,132,87564,1,0,1:2:0:0:
184,132,87650,2,0,B|220:115|220:115|256:132,1,80,8|2,0:2|1:2,0:0:0:0:
380,196,87993,1,2,0:0:0:0:
356,88,88164,6,0,L|284:232,1,160,8|0,0:2|1:0,0:0:0:0:
216,344,88678,1,8,0:2:0:0:
128,244,88850,1,2,0:0:0:0:
128,244,88936,1,2,0:0:0:0:
128,244,89021,2,0,P|88:244|56:216,1,80,0|0,1:2|1:0,0:0:0:0:
20,92,89364,1,10,0:2:0:0:
136,28,89536,1,4,0:3:0:0:
136,28,89621,1,4,0:3:0:0:
136,28,89707,6,0,P|188:28|236:72,1,120,2|0,1:2|0:0,0:0:0:0:
256,112,90050,1,10,0:2:0:0:
308,228,90221,2,0,B|362:213|362:213|390:181|390:181|448:165,1,160,2|0,0:0|1:0,0:0:0:0:
449,165,90736,1,2,0:0:0:0:
256,112,90907,2,0,B|201:126|201:126|173:158|173:158|115:174,1,160,10|2,0:2|1:2,0:0:0:0:
248,200,91421,1,8,0:2:0:0:
120,96,91593,5,2,0:0:0:0:
120,96,91678,1,2,0:0:0:0:
120,96,91764,2,0,P|92:68|88:28,1,80,0|2,1:2|1:2,0:0:0:0:
32,160,92107,1,8,0:2:0:0:
172,28,92278,1,2,0:0:0:0:
172,28,92364,1,2,0:0:0:0:
172,28,92450,6,0,L|296:72,1,120,2|0,1:2|0:0,0:0:0:0:
324,84,92793,1,10,0:2:0:0:
448,120,92964,1,2,1:2:0:0:
448,120,93050,1,0,1:2:0:0:
448,120,93136,1,8,0:2:0:0:
412,244,93307,1,0,1:2:0:0:
288,208,93478,1,8,0:2:0:0:
448,120,93650,6,0,P|472:172|436:232,1,120,6|0,1:2|0:0,0:0:0:0:
412,244,93993,1,0,1:2:0:0:
316,348,94164,1,10,0:2:0:0:
288,208,94336,1,10,0:2:0:0:
288,208,94421,1,8,0:2:0:0:
288,208,94507,1,8,0:2:0:0:
192,312,94678,5,10,0:2:0:0:
160,300,94764,1,8,0:2:0:0:
128,288,94850,1,8,0:2:0:0:
96,276,94936,1,8,0:2:0:0:
64,264,95021,1,10,0:2:0:0:
32,252,95107,1,8,0:2:0:0:
0,240,95193,6,0,L|89:104,1,160,6|8,1:2|0:2,0:0:0:0:
161,17,95707,1,2,0:0:0:0:
161,17,95793,1,2,0:0:0:0:
161,17,95878,2,0,P|197:2|233:17,1,80,2|0,1:2|1:0,0:0:0:0:
344,92,96221,1,10,0:2:0:0:
308,1,96393,6,0,L|219:137,1,160,2|0,1:2|1:0,0:0:0:0:
219,249,96907,2,0,P|255:264|291:249,1,80,8|2,0:2|0:0,0:0:0:0:
292,134,97250,2,0,P|256:119|220:134,1,80,0|0,1:2|1:0,0:0:0:0:
356,192,97593,1,10,0:2:0:0:
156,192,97764,1,2,0:0:0:0:
156,192,97850,1,2,0:0:0:0:
156,192,97936,6,0,P|120:124|156:56,1,160,2|10,1:2|0:2,0:0:0:0:
256,9,98450,1,2,0:0:0:0:
256,9,98536,1,2,0:0:0:0:
256,9,98621,1,0,1:2:0:0:
200,125,98793,1,2,1:2:0:0:
312,125,98964,1,8,0:2:0:0:
155,56,99136,1,0,0:0:0:0:
156,192,99307,6,0,B|236:220|236:164|312:192,1,160,2|10,1:2|0:2,0:0:0:0:
422,280,99821,1,2,1:2:0:0:
422,280,99907,1,0,1:2:0:0:
422,280,99993,1,0,1:2:0:0:
455,168,100164,1,2,1:2:0:0:
332,260,100336,1,8,0:2:0:0:
483,331,100507,1,0,0:0:0:0:
382,209,100678,6,0,B|354:129|410:129|382:53,1,160,2|8,1:2|0:2,0:0:0:0:
455,168,101193,1,2,0:0:0:0:
455,168,101278,1,2,0:0:0:0:
455,168,101364,1,2,1:2:0:0:
318,89,101536,1,0,1:2:0:0:
315,255,101707,1,8,0:2:0:0:
458,81,101878,1,2,0:0:0:0:
458,81,101964,1,2,0:0:0:0:
458,81,102050,6,0,L|479:0,1,80,6|10,1:2|0:2,0:0:0:0:
512,142,102393,1,10,0:0:0:0:
341,155,102564,2,0,L|384:-5,1,160,14|4,0:2|0:3,0:0:0:0:
255,71,103078,1,8,0:3:0:0:
224,62,103163,1,8,0:3:0:0:
192,63,103249,1,4,0:3:0:0:
162,74,103335,1,4,0:3:0:0:
137,94,103421,6,0,L|168:240,1,143.999995605469,6|2,1:2|0:0,0:0:0:0:
196,344,103936,1,0,1:2:0:0:
284,276,104107,2,0,P|344:242|404:276,1,143.999995605469,8|2,0:2|0:0,0:0:0:0:
492,204,104621,1,2,0:0:0:0:
492,204,104707,1,2,0:0:0:0:
492,204,104793,1,0,1:0:0:0:
444,83,104965,2,0,P|472:61|508:60,1,71.9999978027344,10|0,0:2|1:2,0:0:0:0:
424,161,105307,2,0,P|391:149|372:120,1,71.9999978027344,2|10,0:2|0:0,0:0:0:0:
502,137,105650,2,0,P|507:172|492:204,1,71.9999978027344,2|2,1:2|0:2,0:0:0:0:
444,84,105993,1,10,0:2:0:0:
340,160,106164,6,0,B|288:146|288:146|266:119|266:119|212:105,1,143.999995605469,2|2,1:2|0:0,0:0:0:0:
212,105,106678,1,2,1:2:0:0:
76,136,106850,2,0,B|127:149|127:149|149:176|149:176|203:190,1,143.999995605469,10|2,0:2|0:0,0:0:0:0:
276,280,107364,1,0,1:2:0:0:
203,190,107536,1,2,0:0:0:0:
144,288,107707,2,0,P|72:300|36:364,2,143.999995605469,10|4|4,0:2|0:3|0:3,0:0:0:0:
228,364,108564,1,4,0:3:0:0:
203,190,108736,1,2,0:0:0:0:
203,190,108821,1,2,0:0:0:0:
203,190,108907,6,0,B|266:148|278:194|338:153,1,143.999995605469,6|2,1:2|0:0,0:0:0:0:
256,248,109421,1,2,1:2:0:0:
288,96,109593,1,10,0:2:0:0:
408,192,109764,2,0,P|436:216|444:252,1,71.9999978027344,2|0,0:0|0:0,0:0:0:0:
360,324,110107,2,0,B|308:337|308:337|286:364|286:364|232:378,1,143.999995605469,2|10,1:2|0:2,0:0:0:0:
232,378,110621,1,0,0:0:0:0:
208,228,110793,1,2,1:2:0:0:
208,228,110878,1,0,1:2:0:0:
208,228,110964,2,0,L|220:300,1,71.9999978027344,10|2,0:2|1:2,0:0:0:0:
232,378,111307,1,10,0:2:0:0:
256,168,111478,6,0,P|191:145|137:188,1,143.999995605469,6|0,1:2|1:0,0:0:0:0:
137,188,111993,1,2,0:0:0:0:
256,168,112164,2,0,P|276:136|308:120,1,71.9999978027344,10|8,0:2|0:3,0:0:0:0:
428,56,112507,1,4,0:3:0:0:
428,56,112678,1,10,0:2:0:0:
464,188,112850,1,4,1:2:0:0:
464,188,112936,1,0,1:0:0:0:
464,188,113021,6,0,P|452:236|400:268,1,107.999996704102,2|0,1:2|0:0,0:0:0:0:
364,264,113364,1,10,0:2:0:0:
244,240,113536,1,8,0:3:0:0:
244,240,113621,1,8,0:3:0:0:
244,240,113707,2,0,P|228:272|236:312,1,71.9999978027344,0|4,0:0|0:3,0:0:0:0:
336,368,114050,1,0,1:2:0:0:
372,236,114221,1,0,1:2:0:0:
372,236,114307,1,0,1:2:0:0:
372,236,114393,6,0,L|301:111,2,143.999995605469,6|2|8,1:2|1:2|0:2,0:0:0:0:
432,109,115250,1,0,0:0:0:0:
233,143,115421,2,0,L|274:217,1,71.9999978027344,2|0,1:2|0:0,0:0:0:0:
252,328,115764,1,2,1:2:0:0:
144,273,115936,6,0,B|112:289|112:289|80:273,1,71.9999978027344,8|0,0:0|0:2,0:0:0:0:
80,111,116278,2,0,B|112:95|112:95|144:111,1,71.9999978027344,2|10,0:2|0:0,0:0:0:0:
56,192,116621,1,2,0:0:0:0:
246,192,116793,2,0,B|194:216|194:172|142:192,1,107.999996704102,0|0,1:2|0:0,0:0:0:0:
142,192,117136,6,0,B|210:216|210:168|282:192,1,143.999995605469,2|2,1:2|1:2,0:0:0:0:
378,255,117650,1,2,0:0:0:0:
378,255,117736,1,2,0:0:0:0:
378,255,117821,2,0,B|354:183|402:183|378:115,1,143.999995605469,10|4,0:2|0:3,0:0:0:0:
345,23,118336,1,2,1:2:0:0:
448,105,118507,5,0,0:0:0:0:
309,150,118678,1,0,1:2:0:0:
419,25,118850,2,0,L|271:7,1,143.999995605469,10|10,0:2|0:2,0:0:0:0:
141,25,119364,1,8,0:2:0:0:
141,25,119450,1,10,0:2:0:0:
141,25,119536,1,8,0:2:0:0:
150,170,119707,6,0,L|308:150,1,160,6|2,1:2|1:2,0:0:0:0:
425,133,120221,1,10,0:2:0:0:
367,244,120393,1,2,0:0:0:0:
367,244,120478,1,2,1:2:0:0:
367,244,120564,2,0,B|384:280|384:280|367:316,1,80,10|2,0:0|1:2,0:0:0:0:
263,278,120907,1,10,0:2:0:0:
308,149,121078,6,0,P|376:113|444:149,1,160,6|0,1:2|1:0,0:0:0:0:
367,244,121593,1,10,0:2:0:0:
446,154,121764,1,2,0:0:0:0:
446,154,121850,1,2,0:0:0:0:
446,154,121936,2,0,P|461:190|446:226,1,80,2|0,1:2|1:0,0:0:0:0:
294,279,122278,1,10,0:2:0:0:
413,337,122450,6,0,L|338:187,1,160,6|0,1:2|1:0,0:0:0:0:
324,169,122878,1,0,1:2:0:0:
324,169,122964,2,0,P|287:153|251:169,1,80,10|0,0:2|0:0,0:0:0:0:
153,281,123307,2,0,P|189:296|225:280,1,80,10|0,0:2|1:0,0:0:0:0:
137,193,123650,2,0,L|151:99,1,80,10|0,0:2|1:0,0:0:0:0:
155,79,123907,1,0,1:2:0:0:
155,79,123993,5,10,0:2:0:0:
300,153,124164,1,8,0:3:0:0:
300,153,124250,1,4,0:3:0:0:
300,153,124336,1,0,1:2:0:0:
137,193,124507,1,12,0:2:0:0:
248,80,124678,5,2,0:0:0:0:
296,232,124850,1,0,1:0:0:0:
155,79,125021,1,8,0:2:0:0:
125,66,125106,1,8,0:2:0:0:
94,61,125192,1,8,0:2:0:0:
62,65,125278,1,8,0:2:0:0:
32,76,125364,6,0,P|4:112|4:156,1,88.000002685547,6|0,1:2|1:0,0:0:0:0:
208,184,125707,2,0,L|76:140,1,132.00000402832,10|0,0:2|0:0,0:0:0:0:
82,142,126050,1,2,1:2:0:0:
104,288,126221,1,0,1:2:0:0:
104,288,126307,1,0,1:0:0:0:
104,288,126393,1,8,0:2:0:0:
208,184,126564,1,0,1:2:0:0:
230,330,126736,2,0,P|280:352|344:316,1,132.00000402832,2|0,0:0|0:0,0:0:0:0:
372,284,127078,5,10,0:2:0:0:
464,188,127250,1,2,1:2:0:0:
464,188,127336,1,8,0:2:0:0:
464,188,127421,2,0,P|504:216|512:256,1,88.000002685547,2|0,1:2|1:0,0:0:0:0:
372,284,127764,1,10,0:2:0:0:
344,144,127936,1,2,0:0:0:0:
232,232,128107,6,0,P|191:216|151:231,1,88.000002685547,2|0,1:2|1:0,0:0:0:0:
199,354,128450,2,0,L|147:222,1,132.00000402832,10|8,0:2|0:2,0:0:0:0:
132,196,128793,1,0,1:2:0:0:
84,64,128964,1,2,1:2:0:0:
84,64,129050,1,0,1:0:0:0:
84,64,129136,1,8,0:2:0:0:
224,108,129307,6,0,B|276:92|276:92|304:104|304:104|356:88,1,132.00000402832,2|0,1:2|0:0,0:0:0:0:
388,76,129650,1,0,1:2:0:0:
480,192,129821,1,8,0:2:0:0:
388,308,129993,1,0,1:2:0:0:
388,308,130078,1,0,1:2:0:0:
388,308,130164,2,0,B|348:326|348:326|308:308,1,88.000002685547,2|2,1:2|1:2,0:0:0:0:
204,368,130507,1,10,0:2:0:0:
128,248,130678,1,2,0:0:0:0:
128,248,130764,1,2,0:0:0:0:
128,248,130850,6,0,P|98:192|128:136,1,132.00000402832,6|0,1:2|0:0,0:0:0:0:
164,112,131193,1,10,0:2:0:0:
256,0,131364,1,2,0:0:0:0:
256,0,131450,1,2,0:0:0:0:
256,0,131536,1,0,1:2:0:0:
348,112,131707,1,2,1:2:0:0:
172,28,131878,1,8,0:2:0:0:
208,220,132050,6,0,B|292:188|292:252|380:220,1,176.000005371094,6|0,1:2|1:0,0:0:0:0:
252,296,132564,1,10,0:2:0:0:
344,144,132736,1,2,0:0:0:0:
344,144,132821,1,2,0:0:0:0:
344,144,132907,1,2,1:2:0:0:
504,216,133078,1,0,1:2:0:0:
412,368,133250,1,10,0:2:0:0:
349,147,133421,1,2,0:0:0:0:
349,147,133507,1,2,0:0:0:0:
349,147,133593,6,0,P|317:91|249:83,1,132.00000402832,6|0,1:2|0:0,0:0:0:0:
216,104,133936,1,10,0:2:0:0:
156,276,134107,1,2,0:0:0:0:
156,276,134193,1,2,0:0:0:0:
156,276,134278,6,0,P|188:332|256:340,1,132.00000402832,6|0,1:2|0:0,0:0:0:0:
289,319,134621,1,8,0:2:0:0:
384,192,134793,1,2,0:0:0:0:
384,192,134878,1,2,0:0:0:0:
384,192,134964,1,6,1:2:0:0:
432,344,135136,1,0,0:0:0:0:
300,212,135307,5,10,0:2:0:0:
352,360,135478,1,8,0:0:0:0:
352,360,135564,1,8,0:0:0:0:
352,360,135650,1,10,0:2:0:0:
456,240,135821,1,8,0:2:0:0:
456,240,135907,1,8,0:2:0:0:
456,240,135993,2,0,L|472:196,1,44.0000013427735,10|8,0:2|0:2,0:0:0:0:
400,92,136164,2,0,L|384:136,1,44.0000013427735,10|8,0:2|0:2,0:0:0:0:
300,212,136336,6,0,B|260:230|260:230|220:212,1,88.000002685547,6|0,1:2|1:0,0:0:0:0:
84,101,136678,2,0,B|168:69|168:133|256:101,1,176.000005371094,10|2,0:2|1:2,0:0:0:0:
354,41,137193,1,0,1:2:0:0:
354,41,137278,1,0,1:0:0:0:
354,41,137364,1,8,0:2:0:0:
402,187,137536,6,0,B|318:219|318:155|230:187,1,176.000005371094,6|0,1:2|1:0,0:0:0:0:
104,264,138050,1,10,0:2:0:0:
231,345,138221,1,0,1:0:0:0:
231,345,138307,1,8,0:2:0:0:
231,345,138393,2,0,L|265:256,1,88.000002685547,2|0,1:2|1:0,0:0:0:0:
402,187,138736,2,0,L|313:153,1,88.000002685547,10|2,0:2|0:0,0:0:0:0:
290,148,138993,1,2,0:0:0:0:
290,148,139078,5,6,1:2:0:0:
348,280,139250,1,0,1:2:0:0:
376,300,139335,1,0,1:2:0:0:
409,311,139421,1,10,1:2:0:0:
444,309,139507,1,0,1:2:0:0:
477,297,139593,2,0,L|512:212,1,88.000002685547,2|0,1:2|0:0,0:0:0:0:
464,76,139936,2,0,L|429:161,1,88.000002685547,2|8,1:2|0:0,0:0:0:0:
261,300,140278,6,0,P|223:224|261:148,1,176.000005371094,6|0,1:2|1:0,0:0:0:0:
363,78,140793,1,8,0:2:0:0:
368,221,140964,1,2,0:0:0:0:
368,221,141050,1,2,0:0:0:0:
368,221,141136,2,0,P|328:236|288:221,1,88.000002685547,0|8,1:2|0:0,0:0:0:0:
272,180,141393,1,8,0:2:0:0:
272,180,141478,1,10,0:2:0:0:
272,180,141564,1,8,0:0:0:0:
272,180,141650,6,0,B|218:146|218:146|187:98|187:98|139:69,1,176.000005371094,6|0,1:2|1:0,0:0:0:0:
309,91,142164,1,10,0:2:0:0:
144,168,142336,1,2,1:2:0:0:
190,9,142507,1,8,0:2:0:0:
315,97,142678,1,2,1:2:0:0:
315,97,142764,1,0,1:0:0:0:
315,97,142850,1,8,0:2:0:0:
144,168,143021,6,0,B|94:194|94:194|59:239|59:239|5:269,1,176.000005371094,6|0,1:2|1:0,0:0:0:0:
32,137,143536,1,10,0:2:0:0:
151,257,143707,1,2,1:2:0:0:
151,257,143793,1,0,1:0:0:0:
151,257,143878,2,0,P|182:258|204:254,1,44.0000013427735,8|8,0:2|0:2,0:0:0:0:
322,287,144050,2,0,P|323:256|319:234,1,44.0000013427735,8|8,0:2|0:0,0:0:0:0:
297,122,144221,2,0,P|270:138|254:153,1,44.0000013427735,8|8,0:2|0:2,0:0:0:0:
151,257,144393,6,0,B|93:241|93:241|64:208|64:208|10:194,1,160,6|2,1:2|0:0,0:0:0:0:
148,168,144907,1,8,0:2:0:0:
20,300,145078,1,2,0:0:0:0:
20,300,145164,1,2,0:0:0:0:
20,300,145250,2,0,P|24:340|52:368,1,80,0|2,1:2|0:0,0:0:0:0:
232,264,145593,6,0,P|228:224|200:196,1,80,8|2,0:2|0:0,0:0:0:0:
92,124,145936,1,0,1:2:0:0:
204,60,146107,1,2,0:0:0:0:
201,196,146278,2,0,L|360:228,1,160,10|2,0:2|1:2,0:0:0:0:
492,252,146793,1,2,0:0:0:0:
492,252,146878,1,2,0:0:0:0:
492,252,146964,1,10,0:2:0:0:
452,96,147136,6,0,B|420:64|380:80|380:80|364:120|312:116,1,160,6|2,1:2|0:0,0:0:0:0:
156,48,147650,2,0,B|188:80|228:64|228:64|244:24|296:28,1,160,10|2,0:2|1:2,0:0:0:0:
420,172,148164,1,2,0:0:0:0:
420,172,148250,1,2,0:0:0:0:
420,172,148336,1,10,0:2:0:0:
314,116,148507,2,0,B|284:144|300:184|300:184|220:212,1,160,2|2,0:0|0:0,0:0:0:0:
160,340,149021,5,10,0:2:0:0:
68,232,149193,1,2,0:0:0:0:
68,232,149278,1,2,0:0:0:0:
68,232,149364,1,2,1:2:0:0:
219,212,149536,1,2,0:0:0:0:
80,312,149707,1,10,0:2:0:0:
104,136,149878,6,0,P|120:80|204:32,1,160,6|2,1:2|0:0,0:0:0:0:
408,136,150393,2,0,P|392:80|308:32,1,160,8|2,0:2|1:2,0:0:0:0:
180,200,150907,1,0,0:0:0:0:
256,88,151078,1,8,0:2:0:0:
332,200,151250,2,0,B|355:250|355:250|349:293|349:293|374:347,1,160,2|2,0:0|0:0,0:0:0:0:
268,256,151764,5,10,0:2:0:0:
432,288,151936,1,2,0:0:0:0:
432,288,152021,1,2,0:0:0:0:
432,288,152107,1,2,1:2:0:0:
288,372,152278,1,2,0:0:0:0:
332,200,152450,1,10,0:2:0:0:
164,256,152621,6,0,P|96:291|28:255,1,160,6|2,1:2|0:0,0:0:0:0:
96,96,153136,2,0,P|163:60|231:95,1,160,8|2,0:2|1:2,0:0:0:0:
164,256,153650,1,2,0:0:0:0:
164,256,153736,1,2,0:0:0:0:
164,256,153821,1,10,0:2:0:0:
348,256,153993,1,14,0:2:0:0:
196,360,154164,1,2,0:0:0:0:
256,192,154336,5,8,0:2:0:0:
256,192,154421,1,8,0:2:0:0:
256,192,154507,2,0,L|236:152,1,40,8|8,0:2|0:0,0:0:0:0:
288,72,154678,2,0,L|308:112,1,40,4|4,0:3|0:3,0:0:0:0:
404,124,154850,2,0,L|384:84,1,40,8|8,0:3|0:3,0:0:0:0:
436,4,155021,2,0,L|456:44,1,40,4|4,0:3|0:3,0:0:0:0:
496,112,155193,1,0,1:2:0:0:
377,257,155364,6,0,B|297:229|297:285|221:257,1,160,6|2,1:2|0:0,0:0:0:0:
92,200,155878,1,10,0:2:0:0:
207,122,156050,1,2,0:0:0:0:
151,284,156221,2,0,B|79:320|79:320|7:284,1,160,0|10,1:2|0:2,0:0:0:0:
167,368,156736,1,2,0:0:0:0:
92,200,156907,6,0,B|168:228|168:172|248:200,1,160,0|10,1:0|0:2,0:0:0:0:
345,264,157421,1,2,0:0:0:0:
345,264,157507,1,2,0:0:0:0:
345,264,157593,2,0,B|381:281|381:281|417:264,1,80,2|2,1:2|0:0,0:0:0:0:
298,349,157936,1,10,0:2:0:0:
382,203,158107,6,0,B|333:167|333:167|318:127|318:127|273:94,1,160,6|2,1:2|0:0,0:0:0:0:
150,64,158621,2,0,B|133:100|133:100|150:136,1,80,10|2,0:2|0:0,0:0:0:0:
118,254,158964,2,0,B|154:271|154:271|190:254,1,80,0|2,1:2|0:0,0:0:0:0:
257,144,159307,1,10,0:2:0:0:
255,301,159478,6,0,L|163:158,1,160,2|2,0:0|0:0,0:0:0:0:
115,72,159993,1,8,0:2:0:0:
224,48,160164,2,0,B|304:20|304:76|380:48,1,160,2|2,0:0|0:0,0:0:0:0:
461,161,160678,1,8,0:0:0:0:
461,161,160764,1,8,0:0:0:0:
461,161,160850,6,0,B|381:133|381:189|305:161,1,160,6|2,1:2|0:0,0:0:0:0:
224,48,161364,1,10,0:2:0:0:
148,160,161536,2,0,B|229:184|196:229|274:251,1,160,2|2,0:0|0:0,0:0:0:0:
131,249,162050,1,10,0:2:0:0:
84,111,162221,6,0,P|151:75|219:110,1,160,2|2,0:0|0:0,0:0:0:0:
296,194,162736,1,10,0:2:0:0:
296,194,162821,1,8,0:0:0:0:
296,194,162907,2,0,P|319:175|330:157,1,40,4|4,0:3|0:3,0:0:0:0:
421,127,163078,2,0,P|390:89|377:80,1,40,8|8,0:3|0:3,0:0:0:0:
300,19,163250,1,4,0:3:0:0:
300,19,163336,1,4,0:3:0:0:
300,19,163421,2,0,P|296:46|296:64,1,40,0|0,1:2|1:0,0:0:0:0:
219,110,163593,6,0,P|140:108|84:52,1,160,14|2,0:2|0:0,0:0:0:0:
84,200,164107,2,0,L|132:116,1,80,0|2,1:2|0:0,0:0:0:0:
188,236,164450,2,0,B|160:284|160:284|121:303|121:303|91:355,1,160,14|2,0:2|1:2,0:0:0:0:
84,200,164964,1,8,0:2:0:0:
84,200,165050,1,8,0:0:0:0:
84,200,165136,1,2,1:2:0:0:
176,108,165307,1,8,0:3:0:0:
188,236,165478,6,0,P|228:272|292:256,1,120,4|0,0:3|0:0,0:0:0:0:
324,240,165821,1,10,0:2:0:0:
428,180,165993,1,8,0:0:0:0:
428,180,166078,1,8,0:2:0:0:
428,180,166164,2,0,L|476:248,1,80,2|10,1:2|0:2,0:0:0:0:
328,136,166507,2,0,B|296:100|260:112|260:112|232:144|180:108,1,160,2|2,1:2|1:2,0:0:0:0:
184,111,167193,5,14,0:2:0:0:
280,228,167364,1,2,0:0:0:0:
280,228,167450,1,2,0:0:0:0:
280,228,167536,1,2,1:2:0:0:
416,160,167707,2,0,P|456:176|472:208,1,80,2|0,0:0|1:0,0:0:0:0:
328,136,168050,1,2,0:0:0:0:
328,136,168221,2,0,P|288:120|272:88,1,80,8|0,0:2|1:0,0:0:0:0:
140,32,168564,1,10,0:2:0:0:
52,148,168736,1,4,0:3:0:0:
52,148,168821,1,4,0:3:0:0:
52,148,168907,1,4,0:3:0:0:
184,240,169078,6,0,B|232:248|232:248|252:268|252:268|296:276,1,120,6|0,1:2|0:0,0:0:0:0:
336,284,169421,1,0,1:2:0:0:
440,180,169593,1,8,0:2:0:0:
500,312,169764,1,8,0:2:0:0:
360,200,169936,1,8,0:2:0:0:
404,352,170107,1,8,0:2:0:0:
512,232,170278,1,10,0:2:0:0:
336,284,170450,1,6,1:2:0:0:
380,108,170621,6,0,P|344:80|308:76,1,80,2|8,0:0|0:2,0:0:0:0:
172,32,170964,1,10,0:2:0:0:
124,168,171136,1,10,0:2:0:0:
124,168,171221,1,8,0:2:0:0:
124,168,171307,2,0,L|108:212,1,40,8|8,0:2|0:0,0:0:0:0:
96,244,171478,1,8,0:2:0:0:
87,282,171563,1,8,0:2:0:0:
97,321,171649,1,10,0:2:0:0:
123,351,171735,1,8,0:2:0:0:
159,367,171820,1,10,0:2:0:0:
199,365,171906,1,8,0:2:0:0:
233,345,171993,6,0,B|269:268|309:308|343:234,1,160,6|8,1:2|0:2,0:0:0:0:
358,340,172507,2,0,B|324:266|284:306|247:229,1,160,2|2,0:0|1:2,0:0:0:0:
340,99,173021,1,8,0:2:0:0:
340,99,173193,2,0,L|247:229,1,160,2|2,1:2|1:2,0:0:0:0:
177,324,173707,1,10,0:2:0:0:
136,192,173878,1,2,1:2:0:0:
136,192,173964,1,8,0:2:0:0:
136,192,174050,2,0,B|119:156|119:156|136:120,1,80,2|2,1:2|1:2,0:0:0:0:
141,12,174393,2,0,B|179:2|179:2|211:26,1,80,10|0,0:2|0:0,0:0:0:0:
343,182,174736,6,0,B|297:157|298:120|298:120|268:142|222:118,1,160,2|8,1:2|0:2,0:0:0:0:
338,48,175250,1,2,1:2:0:0:
338,48,175336,1,2,1:2:0:0:
338,48,175421,2,0,L|466:38,1,120,2|2,1:2|0:0,0:0:0:0:
487,37,175764,1,10,0:2:0:0:
343,182,175936,1,2,1:2:0:0:
266,83,176107,6,0,P|252:47|268:12,1,80,2|0,0:0|1:2,0:0:0:0:
267,12,176450,1,10,0:2:0:0:
343,182,176621,2,0,L|172:149,1,160,10|2,0:0|1:2,0:0:0:0:
75,145,177136,1,10,0:2:0:0:
173,56,177307,1,2,0:0:0:0:
146,225,177478,6,0,L|303:255,1,160,6|8,1:2|0:2,0:0:0:0:
426,284,177993,1,10,0:2:0:0:
426,284,178078,1,8,0:2:0:0:
426,284,178164,2,0,P|441:248|426:212,1,80,2|2,1:2|1:2,0:0:0:0:
400,104,178507,1,8,0:2:0:0:
499,181,178678,6,0,L|339:191,1,160,6|2,1:2|1:2,0:0:0:0:
222,195,179193,1,10,0:2:0:0:
320,109,179364,1,10,0:2:0:0:
320,109,179450,1,8,0:0:0:0:
320,109,179536,2,0,L|416:102,1,80,2|0,1:2|1:0,0:0:0:0:
482,257,179878,2,0,L|402:262,1,80,10|2,0:2|0:0,0:0:0:0:
368,269,180136,1,2,0:0:0:0:
368,269,180221,6,0,B|307:322|287:270|222:324,1,160,6|8,1:2|0:2,0:0:0:0:
297,223,180736,1,4,0:3:0:0:
297,223,180821,1,4,0:3:0:0:
297,223,180907,2,0,P|300:184|297:171,1,40,0|0,1:0|1:0,0:0:0:0:
177,158,181078,2,0,P|188:174|202:188,1,40,4|4,0:3|0:3,0:0:0:0:
276,70,181250,2,0,P|257:61|238:57,1,40,4|4,0:3|0:3,0:0:0:0:
341,117,181421,6,0,B|389:88|389:88|432:90|432:90|483:59,1,160,6|10,1:2|0:2,0:0:0:0:
511,43,181850,1,8,0:0:0:0:
511,43,181936,2,0,B|528:79|528:79|511:115,1,80,0|14,1:0|0:0,0:0:0:0:
405,239,182278,2,0,B|388:203|388:203|405:167,1,80,8|4,0:3|0:3,0:0:0:0:
424,142,182536,1,4,0:3:0:0:
424,142,182621,1,4,0:3:0:0:
481,292,182793,1,10,0:2:0:0:
481,292,182878,1,8,0:2:0:0:
481,292,182964,6,0,L|314:256,1,160,6|2,1:2|0:0,0:0:0:0:
200,236,183478,1,0,1:2:0:0:
324,258,183650,1,10,0:2:0:0:
244,352,183821,1,2,0:0:0:0:
244,352,183907,1,2,0:0:0:0:
244,352,183993,1,2,1:2:0:0:
200,236,184164,6,0,P|152:252|88:224,1,120,10|0,0:2|0:0,0:0:0:0:
64,196,184507,1,8,0:2:0:0:
160,88,184678,2,0,L|152:172,1,80,2|0,0:0|1:0,0:0:0:0:
256,56,185021,1,8,0:2:0:0:
359,167,185193,1,8,0:3:0:0:
359,167,185278,1,8,0:3:0:0:
359,167,185364,2,0,L|352:88,1,80,8|4,0:3|0:3,0:0:0:0:
256,208,185707,6,0,B|284:288|228:288|256:364,1,160,6|2,1:2|0:0,0:0:0:0:
180,248,186221,1,0,1:2:0:0:
180,248,186307,1,0,1:2:0:0:
180,248,186393,1,10,0:2:0:0:
328,328,186564,1,2,1:2:0:0:
408,180,186736,1,10,0:2:0:0:
260,100,186907,6,0,B|216:79|216:79|199:58|199:58|156:38,1,120,6|0,1:2|0:0,0:0:0:0:
120,20,187250,1,8,0:2:0:0:
200,160,187421,1,2,1:2:0:0:
272,16,187593,1,0,1:2:0:0:
112,120,187764,1,10,0:2:0:0:
296,184,187936,1,0,1:0:0:0:
296,184,188021,1,8,0:2:0:0:
296,184,188107,1,10,0:2:0:0:
128,340,188278,6,0,B|143:282|143:282|176:253|176:253|190:199,1,160,6|2,1:2|1:2,0:0:0:0:
200,160,188707,1,0,1:2:0:0:
200,160,188793,1,10,0:2:0:0:
336,64,188964,1,2,1:2:0:0:
384,224,189136,1,10,0:2:0:0:
252,88,189307,1,2,1:2:0:0:
228,276,189478,1,10,0:2:0:0:
388,144,189650,6,0,P|452:192|448:272,1,160,6|2,1:2|1:2,0:0:0:0:
436,304,190078,1,0,1:0:0:0:
436,304,190164,1,10,0:2:0:0:
388,144,190336,1,2,1:2:0:0:
264,256,190507,1,10,0:2:0:0:
216,96,190678,1,8,0:3:0:0:
216,96,190765,1,4,0:3:0:0:
216,96,190850,1,0,1:2:0:0:
96,212,191021,6,0,P|60:279|96:347,1,160,6|2,1:2|1:2,0:0:0:0:
224,280,191536,1,10,0:2:0:0:
224,280,191621,1,8,0:2:0:0:
224,280,191707,1,10,0:2:0:0:
352,348,191878,1,8,0:3:0:0:
372,324,191964,1,8,0:3:0:0:
392,300,192050,1,8,0:3:0:0:
412,276,192136,1,4,0:3:0:0:
432,252,192221,1,4,0:3:0:0:
384,116,192393,6,0,P|316:148|248:108,1,160,6|0,1:2|0:0,0:0:0:0:
228,72,192907,1,2,0:0:0:0:
88,136,193250,2,0,L|144:256,1,128,2|2,0:0|0:0,0:0:0:0:
192,344,193764,1,2,0:0:0:0:
192,344,193850,1,2,0:0:0:0:
192,344,193936,6,0,B|242:327|286:348|286:348|322:319,2,128,6|2|0,1:2|3:2|3:2,0:0:0:0:
94,254,194964,1,2,3:2:0:0:
216,218,195307,2,0,L|190:350,1,128,2|2,3:2|3:2,0:0:0:0:
165,152,195821,1,0,0:0:0:0:
165,152,195993,2,0,P|231:140|290:178,1,128,2|2,3:2|3:2,0:0:0:0:
339,243,196507,1,2,1:2:0:0:
339,243,196678,6,0,L|399:222,1,64,2|2,1:2|0:0,0:0:0:0:
485,294,197021,2,0,P|420:296|369:341,2,128,2|0|2,3:2|3:0|3:2,0:0:0:0:
429,193,198050,2,0,B|448:115|395:146|413:71,2,128,0|0|2,3:0|3:2|3:2,0:0:0:0:
484,92,198907,1,0,1:2:0:0:
484,92,199078,2,0,P|490:55|481:22,1,64,0|0,3:2|1:0,0:0:0:0:
413,71,199421,6,0,B|337:53|368:106|291:86,2,128,2|0|0,1:2|3:2|3:2,0:0:0:0:
259,161,200450,2,0,P|234:136|218:101,1,64,2|2,3:2|0:0,0:0:0:0:
170,17,200793,2,0,L|75:110,1,128,2|0,3:2|3:0,0:0:0:0:
129,200,201307,2,0,L|220:110,1,128,2|0,0:0|0:0,0:0:0:0:
320,63,201821,2,0,P|353:57|385:68,1,64,2|0,3:2|1:0,0:0:0:0:
471,116,202164,6,0,L|379:205,1,128,2|0,1:2|3:0,0:0:0:0:
401,320,202678,1,2,0:0:0:0:
401,320,202850,2,0,L|492:230,1,128,0|2,3:0|3:2,0:0:0:0:
379,205,203364,1,2,0:0:0:0:
310,274,203536,6,0,B|233:257|252:311|176:292,1,128,2|2,3:2|0:0,0:0:0:0:
103,215,204050,1,2,1:2:0:0:
103,215,204136,1,8,0:2:0:0:
103,215,204221,1,8,0:2:0:0:
198,104,204393,1,8,0:3:0:0:
249,246,204564,1,4,0:3:0:0:
112,138,204736,1,0,1:2:0:0:
257,63,204907,5,6,1:2:0:0:
257,63,205078,2,0,L|332:88,1,71.9999978027344,0|2,0:0|0:0,0:0:0:0:
392,200,205421,2,0,L|250:154,1,143.999995605469,0|0,1:2|0:0,0:0:0:0:
156,124,205936,1,8,0:2:0:0:
112,216,206107,2,0,P|78:276|112:336,1,143.999995605469,2|0,0:0|1:0,0:0:0:0:
300,276,206621,6,0,B|232:300|232:252|160:276,1,143.999995605469,2|2,0:0|1:2,0:0:0:0:
256,204,207136,1,0,0:0:0:0:
192,348,207307,2,0,P|159:362|127:348,1,71.9999978027344,10|0,0:2|0:0,0:0:0:0:
16,276,207650,2,0,P|48:262|80:276,1,71.9999978027344,0|2,1:2|0:0,0:0:0:0:
192,348,207993,1,2,0:0:0:0:
192,348,208164,6,0,L|248:200,1,143.999995605469,0|0,1:2|0:0,0:0:0:0:
280,112,208678,2,0,P|340:78|400:112,1,143.999995605469,10|0,0:2|0:0,0:0:0:0:
412,200,209193,2,0,L|468:52,1,143.999995605469,2|0,1:2|0:0,0:0:0:0:
462,65,209707,1,2,1:2:0:0:
284,8,210050,1,4,0:3:0:0:
212,180,210393,6,0,P|264:172|320:236,1,143.999995605469,2|2,1:2|0:0,0:0:0:0:
268,332,210907,1,0,1:2:0:0:
268,332,211078,2,0,P|216:340|160:276,1,143.999995605469,2|10,0:0|0:2,0:0:0:0:
116,176,211593,1,2,0:0:0:0:
116,176,211678,1,2,0:0:0:0:
116,176,211764,1,2,0:0:0:0:
216,56,211936,6,0,L|168:116,1,71.9999978027344,0|0,1:2|0:0,0:0:0:0:
60,240,212278,1,8,0:2:0:0:
88,96,212450,1,0,1:2:0:0:
200,188,212621,1,0,1:2:0:0:
200,188,212707,1,0,1:2:0:0:
200,188,212793,2,0,B|244:200|244:200|260:220|260:220|296:228,1,107.999996704102,12|0,0:2|0:0,0:0:0:0:
340,236,213136,5,6,1:2:0:0:
340,236,213307,1,0,1:0:0:0:
468,168,213478,1,8,0:2:0:0:
468,168,213650,1,8,0:2:0:0:
392,320,213821,1,8,0:2:0:0:
368,128,213993,1,8,0:2:0:0:
496,288,214164,1,8,0:2:0:0:
268,192,214336,6,0,P|240:228|164:220,1,120,6|0,1:2|0:0,0:0:0:0:
136,204,214678,1,8,0:0:0:0:
136,204,214764,1,8,0:2:0:0:
136,204,214850,2,0,P|128:228|112:252,1,40,8|8,0:2|0:2,0:0:0:0:
64,152,215021,2,0,P|72:128|88:104,1,40,8|8,0:2|0:2,0:0:0:0:
104,80,215193,1,10,0:2:0:0:
132,52,215278,1,8,0:2:0:0:
168,34,215364,1,4,0:3:0:0:
207,27,215450,1,4,0:3:0:0:
247,30,215535,1,8,0:3:0:0:
284,46,215621,1,8,0:3:0:0:
315,70,215707,1,4,0:3:0:0:
338,103,215793,1,4,0:3:0:0:
350,141,215878,6,0,B|390:159|390:159|430:141,1,88.000002685547,6|0,1:2|1:0,0:0:0:0:
493,206,216221,2,0,B|481:295|425:265|412:357,1,176.000005371094,10|2,0:2|1:2,0:0:0:0:
506,360,216736,1,0,1:2:0:0:
506,360,216821,1,0,1:0:0:0:
506,360,216907,1,8,0:2:0:0:
323,227,217078,6,0,B|410:248|402:185|493:206,1,176.000005371094,2|0,1:2|1:0,0:0:0:0:
351,142,217593,1,10,0:2:0:0:
290,296,217764,1,0,1:0:0:0:
290,296,217850,1,8,0:2:0:0:
290,296,217936,2,0,P|250:311|210:296,1,88.000002685547,2|0,1:2|1:0,0:0:0:0:
82,293,218278,2,0,P|67:253|82:213,1,88.000002685547,10|2,0:2|0:0,0:0:0:0:
216,148,218621,5,2,1:2:0:0:
82,212,218793,1,2,0:0:0:0:
209,295,218964,1,10,0:2:0:0:
134,145,219136,1,0,1:0:0:0:
134,145,219221,1,8,0:2:0:0:
134,145,219307,2,0,P|93:129|53:144,1,88.000002685547,0|0,1:2|1:0,0:0:0:0:
165,54,219650,1,8,0:2:0:0:
141,241,219821,6,0,L|280:120,1,176.000005371094,2|0,1:2|1:0,0:0:0:0:
390,58,220336,2,0,B|408:98|408:98|390:138,1,88.000002685547,8|0,0:2|1:0,0:0:0:0:
370,172,220593,1,0,1:0:0:0:
370,172,220678,2,0,B|352:212|352:212|370:252,1,88.000002685547,2|2,1:2|1:2,0:0:0:0:
247,380,221021,2,0,B|265:340|265:340|247:300,1,88.000002685547,10|2,0:2|0:0,0:0:0:0:
226,273,221278,1,2,0:0:0:0:
226,273,221364,6,0,L|373:169,1,176.000005371094,6|10,1:2|0:2,0:0:0:0:
470,104,221878,1,2,0:0:0:0:
470,104,221964,1,2,0:0:0:0:
470,104,222050,2,0,P|485:144|470:184,1,88.000002685547,0|2,1:2|1:2,0:0:0:0:
384,281,222393,1,8,0:2:0:0:
379,31,222564,6,0,B|363:85|363:85|325:128|325:128|307:188,1,176.000005371094,6|0,1:2|1:0,0:0:0:0:
409,179,223078,1,10,0:2:0:0:
248,110,223250,1,0,1:0:0:0:
248,110,223336,1,8,0:2:0:0:
248,110,223421,2,0,P|207:94|167:109,1,88.000002685547,2|0,1:2|1:0,0:0:0:0:
53,84,223764,2,0,P|37:124|52:164,1,88.000002685547,10|2,0:2|0:0,0:0:0:0:
74,191,224021,1,2,0:0:0:0:
74,191,224107,5,6,1:2:0:0:
125,43,224278,1,0,1:0:0:0:
213,177,224450,1,10,0:2:0:0:
53,84,224621,1,2,0:0:0:0:
53,84,224707,1,2,0:0:0:0:
53,84,224793,1,6,1:2:0:0:
210,17,224964,1,0,1:2:0:0:
140,168,225136,2,0,B|159:112|159:112|184:94|184:94|198:51,1,132.00000402832,8|0,0:2|0:0,0:0:0:0:
210,17,225478,5,6,1:2:0:0:
308,151,225650,1,0,1:2:0:0:
146,172,225821,1,10,0:2:0:0:
146,172,225907,1,8,0:0:0:0:
146,172,225993,1,8,0:0:0:0:
301,72,226164,5,10,0:2:0:0:
301,72,226250,1,8,0:2:0:0:
301,72,226336,2,0,P|340:76|354:84,1,44.0000013427735,8|8,0:2|0:2,0:0:0:0:
378,230,226507,2,0,P|339:225|325:217,1,44.0000013427735,10|8,0:2|0:0,0:0:0:0:
217,207,226678,2,0,P|223:168|231:154,1,44.0000013427735,10|8,0:2|0:2,0:0:0:0:
308,151,226850,6,0,L|400:160,1,88.000002685547,6|0,1:2|1:0,0:0:0:0:
500,268,227193,1,10,0:2:0:0:
388,368,227364,1,2,0:0:0:0:
388,368,227450,1,2,0:0:0:0:
388,368,227536,2,0,L|296:359,1,88.000002685547,2|0,1:2|1:0,0:0:0:0:
192,256,227878,1,8,0:2:0:0:
256,92,228050,6,0,P|331:54|407:92,1,176.000005371094,6|0,1:2|1:0,0:0:0:0:
332,220,228564,1,10,0:2:0:0:
196,152,228736,1,2,0:0:0:0:
196,152,228821,1,2,0:0:0:0:
196,152,228907,2,0,P|155:136|115:151,1,88.000002685547,2|0,1:2|1:0,0:0:0:0:
116,292,229250,2,0,P|149:264|156:222,1,88.000002685547,10|2,0:2|0:0,0:0:0:0:
80,224,229507,1,2,0:0:0:0:
80,224,229593,6,0,L|236:304,1,176.000005371094,6|8,1:2|0:2,0:0:0:0:
276,320,230021,1,8,0:0:0:0:
276,320,230107,2,0,B|328:296|328:296|360:300|360:300|396:276,1,132.00000402832,2|0,1:2|0:0,0:0:0:0:
432,256,230450,1,2,1:2:0:0:
456,112,230621,1,8,0:2:0:0:
320,168,230793,6,0,B|259:151|259:151|215:115|215:115|161:100,1,176.000005371094,6|0,1:2|1:0,0:0:0:0:
116,88,231221,1,0,1:0:0:0:
116,88,231307,2,0,P|88:124|96:164,1,88.000002685547,8|2,0:2|0:0,0:0:0:0:
205,279,231650,1,0,1:2:0:0:
320,168,231821,1,10,0:2:0:0:
320,168,231907,1,8,0:2:0:0:
320,168,231993,1,10,0:2:0:0:
156,220,232164,6,0,P|204:204|276:248,1,132.00000402832,6|0,1:2|0:0,0:0:0:0:
296,280,232507,1,0,1:2:0:0:
432,360,232678,1,10,0:2:0:0:
492,212,232850,1,2,1:2:0:0:
492,212,232936,1,0,1:0:0:0:
492,212,233021,1,8,0:2:0:0:
348,344,233193,1,2,1:2:0:0:
288,160,233364,1,8,0:2:0:0:
448,284,233536,6,0,L|464:108,1,176.000005371094,6|0,1:2|1:0,0:0:0:0:
336,8,234050,1,10,0:2:0:0:
288,160,234221,1,2,1:2:0:0:
288,160,234307,1,0,1:0:0:0:
288,160,234393,1,8,1:2:0:0:
463,108,234564,1,4,0:3:0:0:
272,64,234736,1,8,0:3:0:0:
272,64,234821,1,8,0:3:0:0:
272,64,234907,1,4,0:3:0:0:
368,232,235078,6,0,B|304:228|317:274|244:265,1,132.00000402832,6|0,1:2|0:0,0:0:0:0:
264,188,235421,1,10,0:2:0:0:
364,312,235593,1,8,0:0:0:0:
364,312,235678,1,8,0:2:0:0:
364,312,235764,2,0,P|392:348|432:352,1,88.000002685547,2|0,1:2|1:0,0:0:0:0:
504,232,236107,1,10,0:2:0:0:
332,160,236278,6,0,B|275:133|275:133|238:89|238:89|187:66,1,176.000005371094,6|0,1:2|1:0,0:0:0:0:
48,8,236793,1,8,0:2:0:0:
187,66,236964,1,0,0:0:0:0:
60,148,237136,1,8,0:2:0:0:
80,184,237221,1,8,0:2:0:0:
100,220,237307,1,8,0:2:0:0:
120,256,237393,1,8,0:2:0:0:
144,288,237478,1,8,0:2:0:0:
164,324,237564,1,8,0:2:0:0:
184,360,237650,6,0,P|232:360|288:304,1,132.00000402832,6|0,1:2|0:0,0:0:0:0:
300,264,237993,1,0,1:2:0:0:
296,104,238164,1,8,0:2:0:0:
432,192,238336,1,0,1:2:0:0:
432,192,238421,1,0,1:0:0:0:
432,192,238507,1,8,0:2:0:0:
252,188,238678,1,0,1:2:0:0:
388,84,238850,1,8,0:2:0:0:
384,276,239021,6,0,B|328:292|328:292|320:312|320:312|264:328,1,132.00000402832,6|0,1:2|0:0,0:0:0:0:
228,336,239364,1,0,1:2:0:0:
100,276,239536,1,8,0:2:0:0:
212,188,239707,1,0,1:2:0:0:
212,188,239793,1,4,1:3:0:0:
212,188,239878,1,8,0:3:0:0:
232,342,240050,1,8,0:3:0:0:
232,342,240136,1,4,0:3:0:0:
232,342,240221,1,4,0:3:0:0:
140,212,240393,6,0,P|231:117|259:248,1,320,6|0,1:2|0:0,0:0:0:0:
212,188,241421,1,8,0:2:0:0:
244,40,241593,1,8,0:3:0:0:
244,40,241678,1,8,0:3:0:0:
244,40,241764,1,4,0:3:0:0:
372,127,241936,6,0,L|260:246,1,160,6|10,1:2|0:2,0:0:0:0:
287,97,242450,1,2,0:0:0:0:
287,97,242536,1,2,0:0:0:0:
287,97,242621,1,2,1:2:0:0:
419,208,242793,1,0,1:2:0:0:
429,56,242964,1,10,0:2:0:0:
262,243,243136,6,0,B|186:271|186:215|106:243,1,160,6|0,1:2|1:0,0:0:0:0:
225,172,243650,1,8,0:2:0:0:
147,319,243821,1,2,0:0:0:0:
147,319,243907,1,2,0:0:0:0:
147,319,243993,2,0,B|111:336|111:336|75:319,1,80,0|0,1:2|1:0,0:0:0:0:
16,174,244336,2,0,B|52:157|52:157|88:174,1,80,10|0,0:2|0:0,0:0:0:0:
225,172,244678,6,0,B|254:124|254:124|294:106|294:106|325:55,1,160,6|10,1:2|0:2,0:0:0:0:
185,80,245193,1,0,1:0:0:0:
185,80,245278,1,8,0:2:0:0:
185,80,245364,1,2,1:2:0:0:
326,55,245536,1,0,1:2:0:0:
320,192,245707,1,10,0:2:0:0:
185,80,245878,6,0,P|117:44|49:79,1,160,6|0,1:2|1:0,0:0:0:0:
119,193,246393,1,8,0:2:0:0:
56,86,246564,1,2,0:0:0:0:
56,86,246650,1,2,0:0:0:0:
56,86,246736,2,0,P|40:122|55:158,1,80,0|8,1:2|0:0,0:0:0:0:
144,290,247078,2,0,P|159:253|143:217,1,80,8|8,0:2|0:0,0:0:0:0:
119,193,247336,1,8,0:0:0:0:
119,193,247421,6,0,B|199:165|199:221|275:193,1,160,6|10,1:2|0:2,0:0:0:0:
402,131,247936,1,2,0:0:0:0:
402,131,248021,1,2,0:0:0:0:
402,131,248107,1,2,1:2:0:0:
397,259,248278,1,0,1:2:0:0:
288,112,248450,1,10,0:2:0:0:
474,125,248621,6,0,B|474:177|507:193|507:193|474:209|474:261,1,160,6|0,1:2|1:0,0:0:0:0:
351,228,249136,2,0,B|368:192|368:192|351:156,1,80,8|2,0:2|0:0,0:0:0:0:
324,128,249393,1,2,0:0:0:0:
324,128,249478,2,0,B|307:92|307:92|324:56,1,80,0|0,1:2|1:0,0:0:0:0:
217,189,249821,1,8,0:2:0:0:
217,189,249907,1,8,0:2:0:0:
217,189,249993,6,0,B|141:217|141:161|61:189,1,160,6|0,1:2|1:0,0:0:0:0:
178,117,250507,1,8,0:2:0:0:
104,261,250678,1,0,1:2:0:0:
104,261,250764,1,0,1:2:0:0:
104,261,250850,1,8,0:2:0:0:
44,112,251021,1,0,1:2:0:0:
217,189,251193,1,8,0:2:0:0:
61,189,251364,6,0,B|141:161|141:217|217:189,1,160,6|8,1:2|0:2,0:0:0:0:
252,179,251793,1,8,0:0:0:0:
252,179,251878,2,0,P|286:178|311:184,1,40,8|8,0:2|0:2,0:0:0:0:
385,292,252050,2,0,P|351:293|326:287,1,40,8|8,0:2|0:2,0:0:0:0:
387,182,252221,2,0,P|387:155|381:132,1,40,8|8,0:2|0:2,0:0:0:0:
263,268,252393,1,8,0:2:0:0:
263,268,252478,1,8,0:2:0:0:
263,268,252564,2,0,P|259:287|260:307,1,40,8|8,0:2|0:2,0:0:0:0:
147,200,252736,1,8,0:2:0:0:
147,200,253250,6,0,B|177:157|177:157|120:131|120:131|87:70|87:70|48:122|48:122|-25:135|-25:135|18:201|18:201|1:266|1:266|83:244|83:244|120:287|172:274|172:274|210:257|224:220,1,731.999977661133,6|0,1:2|1:0,0:0:0:0:
