osu file format v14

[General]
AudioFilename: audio.mp3
AudioLeadIn: 0
PreviewTime: 52939
Countdown: 0
SampleSet: Soft
StackLeniency: 0.7
Mode: 0
LetterboxInBreaks: 0
EpilepsyWarning: 1
WidescreenStoryboard: 1

[Editor]
Bookmarks: 32154,54097,84269,103469,124040,144612,172040,192612,215926,241983,258482
DistanceSpacing: 0.2
BeatDivisor: 4
GridSize: 32
TimelineZoom: 1.4

[Metadata]
Title:Hoshi no Umi no Kioku
TitleUnicode:星の海の記憶
Artist:Nagase Mana (CV: Kanda Sayaka)
ArtistUnicode:長瀬麻奈(CV: 神田沙也加)
Creator:-Rei
Version:Kotono
Source:IDOLY PRIDE
Tags:Memories of the starry sky Japanese Pop anime J-pop jpop idol fedora- yuuki_noa Airiesu Mujina KoldNoodl Takekii Hanasaka_Yui Nana Abe Usaha Yashikin アイドリープライド アイプラ やしきん
BeatmapID:3357589
BeatmapSetID:1644875

[Difficulty]
HPDrainRate:5
CircleSize:4.2
OverallDifficulty:8.5
ApproachRate:9
SliderMultiplier:1.7
SliderTickRate:1

[Events]
//Background and Video events
0,0,"BACKGROUND.jpg",0,0
//Break Periods
//Storyboard Layer 0 (Background)
//Storyboard Layer 1 (Fail)
//Storyboard Layer 2 (Pass)
//Storyboard Layer 3 (Foreground)
Sprite,Foreground,Centre,"sb\fedora.png",490,370 S,0,910,,0.4 F,0,910,32110,1 F,0,32110,54053,0 F,0,54053,84225,1 F,0,84225,103425,0 F,0,103425,123996,1 F,0,123996,144396,0 F,0,144396,171996,1 F,0,171996,193939,0 F,0,193939,215882,1 F,0,215882,241939,0 F,0,241939,252910,1
Sprite,Foreground,Centre,"sb\rei.png",490,370 F,0,32110,54053,1 S,0,32110,54053,0.4 F,0,54053,84225,0 F,0,84225,103425,1 F,0,103425,123996,0 F,0,123996,144396,1 F,0,144396,171996,0 F,0,171996,193939,1 F,0,193939,215882,0 F,0,215882,241939,1
//Storyboard Layer 4 (Overlay)
//Storyboard Sound Samples

[TimingPoints]
568,342.857142857143,4,2,1,60,1,0
1939,-400,4,2,1,60,0,0
4682,-200,4,2,1,60,0,0
8625,-133.333333333333,4,2,1,60,0,0
10168,-100,4,2,1,70,0,0
11882,-100,4,2,1,70,0,0
12910,-100,4,2,1,65,0,0
13425,-133.333333333333,4,2,1,65,0,0
22339,-90.9090909090909,4,2,1,65,0,0
23025,-100,4,2,1,65,0,0
23882,-100,4,2,1,75,0,0
24568,-111.111111111111,4,2,1,75,0,0
31082,-90.9090909090909,4,2,1,75,0,0
32110,-111.111111111111,4,2,1,65,0,0
43082,-111.111111111111,4,2,1,75,0,0
54053,-100,4,2,1,85,0,0
62282,-90.9090909090909,4,2,1,85,0,0
65025,-100,4,2,1,85,0,0
68282,-71.4285714285714,4,2,1,85,0,0
68339,-71.4285714285714,4,2,1,5,0,0
68625,-71.4285714285714,4,2,1,85,0,0
68682,-71.4285714285714,4,2,1,5,0,0
68968,-90.9090909090909,4,2,1,85,0,0
69482,-100,4,2,1,85,0,0
70339,-90.9090909090909,4,2,1,85,0,0
73596,-100,4,2,1,85,0,0
81482,-90.9090909090909,4,2,1,85,0,0
83196,-100,4,2,1,85,0,0
83539,-125,4,2,1,85,0,0
84225,-100,4,2,1,65,0,0
95197,-100,4,2,1,75,0,0
103425,-125,4,2,1,65,0,0
111482,-111.111111111111,4,2,1,65,0,0
119710,-111.111111111111,4,2,1,75,0,0
124510,-76.9230769230769,4,2,1,75,0,0
125025,-90.9090909090908,4,2,1,75,0,0
125368,-90.9090909090908,4,2,1,85,0,0
126568,-76.9230769230769,4,2,1,85,0,0
127082,-90.9090909090908,4,2,1,85,0,0
136339,-76.9230769230769,4,2,1,85,0,0
140282,-90.9090909090909,4,2,1,85,0,0
140796,-76.9230769230769,4,2,1,85,0,0
144396,-76.9230769230769,4,2,1,80,0,0
144910,-100,4,2,1,80,0,0
149882,-83.3333333333333,4,2,1,80,0,0
150396,-100,4,2,1,80,0,0
152625,-83.3333333333333,4,2,1,80,0,0
153139,-100,4,2,1,80,0,0
154168,-83.3333333333333,4,2,1,80,0,0
154853,-71.4285714285714,4,2,1,80,0,0
155196,-83.3333333333333,4,2,1,80,0,0
155368,-83.3333333333333,4,2,1,80,0,0
155882,-90.9090909090909,4,2,1,80,0,0
156396,-166.666666666667,4,2,1,80,0,0
158110,-83.3333333333333,4,2,1,80,0,0
158625,-90.9090909090909,4,2,1,80,0,0
160853,-83.3333333333333,4,2,1,80,0,0
161368,-90.9090909090909,4,2,1,80,0,0
163596,-83.3333333333333,4,2,1,75,0,0
164110,-90.9090909090909,4,2,1,75,0,0
167196,-62.5,4,2,1,75,0,0
167539,-71.4285714285714,4,2,1,75,0,0
168225,-76.9230769230769,4,2,1,75,0,0
169082,-83.3333333333333,4,2,1,75,0,0
170453,-71.4285714285714,4,2,1,75,0,0
171310,-50,4,2,1,75,0,0
171482,-55.5555555555556,4,2,1,75,0,0
171653,-62.5,4,2,1,75,0,0
171825,-71.4285714285714,4,2,1,75,0,0
171996,-71.4285714285714,4,2,1,80,0,0
172339,-83.3333333333333,4,2,1,80,0,0
192396,-200,4,2,1,80,0,0
193939,-200,4,2,1,50,0,0
196682,-500,4,2,1,50,0,0
198739,-250,4,2,1,50,0,0
199425,-500,4,2,1,50,0,0
200796,-166.666666666667,4,2,1,50,0,0
202168,-500,4,2,1,50,0,0
202682,-166.666666666667,4,2,1,50,0,0
204910,-125,4,2,1,65,0,0
213139,-83.3333333333333,4,2,1,75,0,0
214339,-71.4285714285714,4,2,1,75,0,0
215882,-71.4285714285714,4,2,1,85,0,0
240396,-1000,4,2,1,85,0,0
241596,-83.3333333333333,4,2,1,85,0,0
241768,-71.4285714285714,4,2,1,85,0,0
241939,-71.4285714285714,4,2,1,85,0,0
242282,-90.9090909090909,4,2,1,85,0,0
242968,-50,4,2,1,85,0,0
243139,-100,4,2,1,85,0,0
245368,-90.9090909090909,4,2,1,85,0,0
245710,-55.5555555555556,4,2,1,85,0,0
245882,-100,4,2,1,85,0,0
246910,-100,4,2,1,85,0,0
248625,-83.3333333333333,4,2,1,85,0,0
249139,-100,4,2,1,85,0,0
249482,-83.3333333333333,4,2,1,85,0,0
249996,-83.3333333333333,4,2,1,85,0,0
251368,-83.3333333333333,4,2,1,85,0,0
253253,-312.5,4,2,1,85,0,0
258396,-312.5,4,2,1,20,0,0

[Colours]
Combo1 : 255,226,128
Combo2 : 201,155,227
Combo3 : 234,170,149
Combo4 : 224,158,201

[HitObjects]
79,243,1939,6,0,B|210:224|181:338|309:320,1,255,4|2,1:1|0:0,0:0:0:0:
411,274,4168,1,8,0:2:0:0:
274,214,4339,1,2,1:2:0:0:
283,208,4682,6,0,B|264:123|243:34|243:34|285:-21|349:4,1,297.5,4|0,1:1|0:0,0:0:0:0:
231,120,6053,2,0,B|167:112|184:70|119:63,1,127.5,4|8,0:2|0:3,0:0:0:0:
109,137,6910,1,8,0:3:0:0:
243,48,7082,1,4,0:3:0:0:
400,209,7425,6,0,B|436:264|416:298|361:306|362:379|445:368|459:321|408:313,1,212.5,4|0,1:1|0:0,0:0:0:0:
324,258,8453,1,0,1:2:0:0:
491,122,8625,2,0,P|483:152|477:184,1,63.7500024318696,12|0,0:2|0:0,0:0:0:0:
384,73,8968,2,0,P|391:103|397:135,1,63.7500024318696,8|0,0:3|0:0,0:0:0:0:
306,168,9310,5,0,1:2:0:0:
496,101,9482,1,8,0:2:0:0:
378,51,9653,1,8,0:3:0:0:
412,157,9825,1,4,0:3:0:0:
412,157,9910,1,4,0:3:0:0:
412,157,9996,1,4,0:3:0:0:
233,69,10168,6,0,B|143:56|158:119|73:109,1,170,4|0,1:2|1:2,0:0:0:0:
321,259,10682,6,0,B|378:270|427:284|427:284|469:256|435:201,1,170,12|8,0:2|0:2,0:0:0:0:
343,99,11196,1,0,1:2:0:0:
252,328,11368,6,0,P|235:243|216:161,1,170,12|0,0:2|1:2,0:0:0:0:
47,236,11882,2,0,P|88:244|130:253,1,85,8|0,0:2|0:0,0:0:0:0:
216,161,12139,1,4,0:3:0:0:
226,153,12225,2,0,P|245:109|224:51,1,85,8|4,0:3|0:3,0:0:0:0:
86,73,12568,5,8,0:3:0:0:
101,156,12739,1,4,0:3:0:0:
133,341,12910,1,4,1:1:0:0:
133,341,13425,5,2,0:0:0:0:
60,244,13596,2,0,P|122:258|185:267,1,127.500004863739,2|2,3:2|3:2,0:0:0:0:
326,354,14110,1,2,0:0:0:0:
248,373,14282,6,0,B|232:307|280:314|267:251,1,127.500004863739,0|0,3:2|3:2,0:0:0:0:
112,181,14796,2,0,P|128:240|184:266,1,127.500004863739
195,185,15310,2,0,P|202:153|212:119,1,63.7500024318696,2|2,3:2|1:2,0:0:0:0:
412,147,15653,6,0,P|358:162|283:168,1,127.500004863739,2|2,1:2|3:2,0:0:0:0:
483,271,16168,2,0,P|421:254|357:249,1,127.500004863739,2|2,0:0|0:0,0:0:0:0:
489,97,16682,2,0,P|496:127|508:157,1,63.7500024318696,0|0,3:2|0:0,0:0:0:0:
410,156,17025,6,0,B|345:160|352:121|288:125,2,127.500004863739,0|0|0,3:2|3:2|3:2,0:0:0:0:
196,139,18053,2,0,P|207:98|210:67,1,63.7500024318696,2|2,3:2|0:0,0:0:0:0:
295,213,18396,6,0,P|230:223|170:239,1,127.500004863739,2|2,1:2|3:2,0:0:0:0:
6,210,18910,2,0,P|66:234|80:317,1,127.500004863739,2|0,0:0|0:0,0:0:0:0:
155,384,19425,2,0,P|159:350|170:307,1,63.7500024318696,2|0,3:2|0:0,0:0:0:0:
292,224,19768,5,2,3:2:0:0:
292,224,19939,2,0,P|251:231|212:235,1,63.7500024318696,2|0,0:0|3:2,0:0:0:0:
334,333,20282,2,0,P|293:326|254:322,1,63.7500024318696,2|0,0:0|0:0,0:0:0:0:
382,179,20625,2,0,P|385:210|391:241,1,63.7500024318696,2|0,0:0|3:2,0:0:0:0:
298,231,20968,1,0,1:2:0:0:
477,187,21139,6,0,P|482:136|501:41,1,127.500004863739,2|2,1:2|3:2,0:0:0:0:
286,43,21653,2,0,P|345:98|408:88,1,127.500004863739,2|0,0:0|0:0,0:0:0:0:
415,14,22168,1,0,3:2:0:0:
217,170,22339,6,0,B|120:155|135:230|41:219,1,187.000005706787,6|0,1:2|1:2,0:0:0:0:
58,122,22853,1,10,0:2:0:0:
189,251,23025,2,0,P|200:292|207:333,1,85,2|0,0:0|1:2,0:0:0:0:
118,297,23368,2,0,L|76:302,1,42.5,0|0,1:2|0:0,0:0:0:0:
231,183,23539,1,8,0:2:0:0:
231,183,23625,1,0,0:0:0:0:
231,183,23710,2,0,L|243:143,1,42.5,10|0,0:2|0:0,0:0:0:0:
283,14,23882,6,0,B|338:-10|380:30|380:30|385:72|429:92,1,170,4|8,1:2|0:2,0:0:0:0:
474,10,24396,1,2,0:0:0:0:
326,169,24568,2,0,P|322:130|314:93,1,76.4999976654053,2|0,0:0|1:2,0:0:0:0:
238,143,24910,1,2,0:0:0:0:
337,257,25082,6,0,P|378:261|487:286,1,152.999995330811,10|0,0:2|1:2,0:0:0:0:
406,106,25596,2,0,P|413:143|417:181,1,76.4999976654053,8|0,0:2|0:0,0:0:0:0:
310,338,25939,2,0,P|307:301|325:267,1,76.4999976654053,0|0,1:2|1:2,0:0:0:0:
407,310,26282,1,10,0:2:0:0:
245,224,26453,1,2,0:0:0:0:
177,284,26625,6,0,B|98:296|110:235|34:244,1,152.999995330811,2|10,1:2|0:2,0:0:0:0:
181,127,27139,2,0,P|170:163|162:201,1,76.4999976654053,2|0,0:0|0:0,0:0:0:0:
85,148,27482,1,2,1:2:0:0:
190,293,27653,2,0,P|203:329|195:366,1,76.4999976654053,0|8,0:0|0:2,0:0:0:0:
257,195,27996,6,0,P|299:158|404:175,1,152.999995330811,2|10,0:0|0:2,0:0:0:0:
321,313,28510,2,0,P|328:276|340:237,1,76.4999976654053,2|0,0:0|1:2,0:0:0:0:
401,369,28853,1,2,1:2:0:0:
492,266,29025,2,0,P|455:274|418:283,1,76.4999976654053,8|0,0:0|0:0,0:0:0:0:
239,333,29368,6,0,B|190:320|190:320|149:347|149:347|96:334,2,152.999995330811,2|8|0,1:2|0:2|1:2,0:0:0:0:
122,181,30225,2,0,P|129:225|134:261,1,76.4999976654053,0|0,1:2|0:0,0:0:0:0:
42,230,30568,1,10,0:2:0:0:
218,205,30739,1,2,0:0:0:0:
119,165,30910,1,2,1:2:0:0:
190,276,31082,6,0,L|206:224,1,46.7500014266968,10|0,0:2|0:0,0:0:0:0:
245,120,31253,2,0,B|342:105|322:182|420:167,1,187.000005706787,2|4,0:0|0:3,0:0:0:0:
426,175,31682,1,4,0:3:0:0:
426,175,31768,2,0,L|435:130,1,46.7500014266968,8|8,0:3|0:3,0:0:0:0:
287,268,31939,2,0,L|332:255,1,46.7500014266968,4|4,0:3|0:3,0:0:0:0:
383,364,32110,6,0,P|428:373|460:385,1,76.4999976654053,4|0,1:2|0:0,0:0:0:0:
287,268,32453,2,0,P|330:253|364:247,1,76.4999976654053,0|0,1:2|0:0,0:0:0:0:
151,269,32796,2,0,P|181:234|207:212,1,76.4999976654053,2|0,1:2|0:0,0:0:0:0:
26,310,33139,2,0,P|34:264|45:232,1,76.4999976654053,2|2,1:2|0:0,0:0:0:0:
41,220,33482,6,0,P|28:256|22:293,1,76.4999976654053,2|0,1:2|0:0,0:0:0:0:
200,198,33825,2,0,P|171:223|146:252,1,76.4999976654053,2|0,1:2|0:0,0:0:0:0:
322,240,34168,1,0,1:2:0:0:
389,337,34339,1,2,0:0:0:0:
496,285,34510,1,8,0:2:0:0:
496,285,34853,6,0,P|467:230|462:189,1,76.4999976654053,2|0,1:2|0:0,0:0:0:0:
399,164,35196,2,0,P|401:101|417:63,1,76.4999976654053,2|0,1:2|0:0,0:0:0:0:
314,133,35539,2,0,P|311:195|295:233,1,76.4999976654053,0|0,1:2|0:0,0:0:0:0:
337,286,35882,2,0,P|303:338|270:363,1,76.4999976654053,0|0,1:2|0:0,0:0:0:0:
139,187,36225,6,0,P|185:188|239:205,1,76.4999976654053,0|0,1:2|0:0,0:0:0:0:
192,285,36568,2,0,P|168:324|126:362,1,76.4999976654053,0|0,1:2|0:0,0:0:0:0:
76,285,36910,2,0,P|53:244|41:189,1,76.4999976654053,0|4,1:2|0:3,0:0:0:0:
167,74,37253,5,8,0:2:0:0:
139,187,37425,1,0,0:0:0:0:
292,240,37596,2,0,B|369:222|366:285|468:256,1,152.999995330811,4|2,1:2|1:2,0:0:0:0:
221,294,38282,5,0,1:2:0:0:
286,126,38453,1,2,0:0:0:0:
372,159,38625,1,8,0:2:0:0:
183,201,38796,2,0,B|106:183|109:246|7:217,1,152.999995330811,2|0,0:0|0:0,0:0:0:0:
11,215,39310,1,0,1:2:0:0:
7,208,39653,5,2,1:2:0:0:
62,330,39825,1,2,0:0:0:0:
3,201,39996,1,10,0:2:0:0:
69,343,40168,2,0,P|120:332|222:316,1,152.999995330811,2|0,0:0|0:0,0:0:0:0:
396,309,40682,5,0,1:2:0:0:
303,273,40853,2,0,P|276:238|265:186,1,76.4999976654053,2|0,0:0|1:2,0:0:0:0:
401,142,41196,2,0,P|397:186|383:219,1,76.4999976654053,8|0,0:2|1:2,0:0:0:0:
214,283,41539,2,0,L|126:268,1,76.4999976654053,12|0,0:2|1:2,0:0:0:0:
66,173,41882,5,4,0:3:0:0:
66,173,41968,1,4,0:3:0:0:
66,173,42053,1,4,0:3:0:0:
144,37,42225,1,0,1:2:0:0:
162,193,42396,1,8,0:2:0:0:
50,81,42568,1,8,0:3:0:0:
144,37,42739,1,4,1:3:0:0:
217,109,42910,1,4,1:3:0:0:
112,291,43082,6,0,P|61:279|58:180,1,152.999995330811,4|8,1:2|0:2,0:0:0:0:
211,279,43596,2,0,L|194:364,1,76.4999976654053,0|2,0:0|1:2,0:0:0:0:
152,209,43939,1,0,1:2:0:0:
248,194,44110,1,10,0:2:0:0:
336,236,44282,6,0,P|375:230|415:212,1,76.4999976654053,2|0,0:2|1:2,0:0:0:0:
370,72,44625,2,0,P|355:109|350:153,1,76.4999976654053,2|8,0:0|0:2,0:0:0:0:
512,149,44968,2,0,L|421:133,1,76.4999976654053,2|0,0:0|1:2,0:0:0:0:
211,118,45310,1,2,1:2:0:0:
280,66,45482,1,8,0:2:0:0:
414,207,45653,1,0,0:0:0:0:
270,370,45825,6,0,P|187:313|194:243,1,152.999995330811,2|10,1:2|0:2,0:0:0:0:
290,98,46339,1,2,0:0:0:0:
309,176,46510,1,0,1:2:0:0:
91,275,46682,1,0,1:2:0:0:
111,195,46853,1,10,0:2:0:0:
336,253,47025,6,0,B|370:254|390:242|390:242|406:199|392:144,1,152.999995330811,2|0,1:2|1:2,0:0:0:0:
309,44,47539,1,8,0:2:0:0:
200,144,47710,2,0,P|231:165|273:166,1,76.4999976654053,0|0,0:0|1:2,0:0:0:0:
200,40,48053,1,2,1:2:0:0:
111,77,48225,1,10,0:2:0:0:
142,311,48396,6,0,P|157:228|170:133,1,152.999995330811,6|2,1:2|1:2,0:0:0:0:
84,102,48910,2,0,P|79:144|67:210,1,76.4999976654053,10|0,0:2|0:0,0:0:0:0:
5,234,49253,1,2,1:2:0:0:
73,177,49425,1,2,1:2:0:0:
109,302,49596,1,10,0:2:0:0:
47,95,49768,6,0,P|77:44|160:74,1,152.999995330811,6|0,1:2|1:2,0:0:0:0:
221,120,50282,2,0,P|272:113|309:88,1,76.4999976654053,8|2,0:2|0:0,0:0:0:0:
344,37,50625,1,2,1:2:0:0:
370,218,50796,1,2,1:2:0:0:
468,123,50968,1,10,0:2:0:0:
351,238,51139,6,0,L|198:217,1,152.999995330811,6|0,1:2|1:2,0:0:0:0:
101,93,51653,1,8,0:2:0:0:
188,137,51825,1,0,1:2:0:0:
43,173,51996,1,8,0:2:0:0:
263,81,52168,1,0,1:2:0:0:
6,82,52339,1,8,0:2:0:0:
187,25,52510,1,0,1:2:0:0:
187,25,52596,1,0,0:0:0:0:
187,25,52682,5,12,0:2:0:0:
123,295,52853,1,0,1:2:0:0:
330,241,54053,6,0,P|337:197|346:155,1,85,4|2,1:1|0:0,0:0:0:0:
245,264,54396,2,0,P|299:325|380:314,1,170,10|0,0:2|1:2,0:0:0:0:
257,177,54910,1,0,1:2:0:0:
47,305,55082,1,8,0:2:0:0:
156,333,55253,6,0,P|136:250|115:167,1,170,0|0,1:2|1:2,0:0:0:0:
161,19,55768,2,0,P|179:56|175:97,1,85,10|0,0:2|0:0,0:0:0:0:
115,167,56025,1,8,0:2:0:0:
104,175,56110,2,0,L|10:158,1,85,2|0,1:2|1:2,0:0:0:0:
77,73,56453,1,10,0:2:0:0:
291,203,56625,1,2,0:0:0:0:
355,141,56796,6,0,B|442:127|429:196|513:185,1,170,0|10,1:2|0:2,0:0:0:0:
457,74,57310,1,0,0:0:0:0:
457,74,57396,1,8,0:2:0:0:
457,74,57482,1,0,1:2:0:0:
375,231,57653,1,0,1:2:0:0:
272,122,57825,1,8,0:2:0:0:
328,314,57996,6,0,P|409:322|467:263,1,170,0|0,1:2|1:2,0:0:0:0:
243,252,58510,2,0,P|237:294|231:336,1,85,8|0,0:2|0:0,0:0:0:0:
150,365,58768,1,8,0:2:0:0:
136,369,58853,1,2,1:2:0:0:
328,314,59025,1,2,1:2:0:0:
166,198,59196,1,10,0:2:0:0:
325,153,59368,2,0,L|316:206,1,42.5,2|0,0:0|0:0,0:0:0:0:
157,281,59539,6,0,B|73:292|86:223|-1:237,1,170,4|10,1:2|0:2,0:0:0:0:
144,195,60053,1,2,0:0:0:0:
144,195,60139,1,0,0:0:0:0:
144,195,60225,2,0,P|156:143|165:98,1,85,0|2,1:2|1:2,0:0:0:0:
16,319,60568,1,8,0:2:0:0:
239,163,60739,6,0,B|293:106|362:135|362:135|332:164,1,170,6|0,1:2|1:2,0:0:0:0:
162,100,61253,2,0,P|142:54|155:13,1,85,10|0,0:2|0:0,0:0:0:0:
245,176,61510,1,0,0:0:0:0:
250,189,61596,2,0,P|238:241|229:286,1,85,2|0,1:2|1:2,0:0:0:0:
197,346,61939,2,0,L|104:367,1,85,10|0,0:2|0:0,0:0:0:0:
337,254,62282,6,0,B|397:241|397:241|447:278|447:278|509:264,1,187.000005706787,6|10,1:2|0:2,0:0:0:0:
379,348,62796,1,2,0:0:0:0:
379,348,62882,1,0,0:0:0:0:
379,348,62968,1,4,1:2:0:0:
475,178,63139,1,0,1:2:0:0:
245,279,63310,2,0,P|291:269|337:262,1,93.5000028533936,8|0,0:2|0:0,0:0:0:0:
126,375,63653,6,0,P|64:363|47:249,1,187.000005706787,4|10,1:2|0:2,0:0:0:0:
203,179,64168,1,0,0:0:0:0:
103,119,64339,6,0,P|110:150|114:169,1,46.7500014266968,10|8,0:2|0:2,0:0:0:0:
260,298,64511,1,8,0:2:0:0:
290,300,64596,1,8,0:2:0:0:
321,293,64682,1,10,0:2:0:0:
347,276,64768,1,8,0:2:0:0:
366,251,64853,1,10,0:2:0:0:
376,222,64939,1,8,0:2:0:0:
377,192,65025,6,0,P|358:130|346:68,1,127.5,4|0,1:1|0:0,0:0:0:0:
271,30,65368,2,0,P|254:68|259:110,1,85,10|0,0:2|0:0,0:0:0:0:
388,194,65710,1,0,1:2:0:0:
432,20,65882,1,0,1:2:0:0:
347,71,66053,1,8,0:2:0:0:
162,13,66225,6,0,B|75:-1|88:68|4:57,1,170,4|0,1:2|1:2,0:0:0:0:
242,85,66739,2,0,P|251:37|266:-15,1,85,10|0,0:2|0:0,0:0:0:0:
348,57,67082,1,2,1:2:0:0:
143,97,67253,1,0,1:2:0:0:
323,231,67425,2,0,P|330:185|309:146,1,85,10|0,0:2|0:0,0:0:0:0:
131,93,67768,6,0,P|41:108|14:115,1,85,6|0,1:2|0:0,0:0:0:0:
32,121,68025,1,8,0:2:0:0:
17,141,68110,1,8,0:2:0:0:
152,204,68282,6,0,L|105:212,1,39.6666654561361,2|0,1:2|0:0,0:0:0:0:
239,299,68625,6,0,L|192:291,1,39.6666654561361,2|0,1:2|0:0,0:0:0:0:
318,45,68968,6,0,B|444:28|444:28|460:62|504:69,1,187.000005706787,6|0,1:2|1:2,0:0:0:0:
382,215,69482,2,0,P|387:171|395:126,1,85,8|0,0:2|0:0,0:0:0:0:
471,75,69825,1,0,1:2:0:0:
299,203,69996,1,10,0:2:0:0:
299,203,70082,1,8,0:2:0:0:
299,203,70168,2,0,L|249:212,1,42.5,10|0,0:2|0:0,0:0:0:0:
173,232,70339,6,0,B|113:219|113:219|63:256|63:256|1:242,1,187.000005706787,4|0,1:1|1:2,0:0:0:0:
215,134,70853,5,10,0:2:0:0:
148,319,71025,1,2,1:2:0:0:
35,159,71196,1,8,0:2:0:0:
150,333,71368,1,2,1:2:0:0:
137,223,71539,1,8,0:2:0:0:
326,287,71710,6,0,B|368:228|435:245|435:245|457:288|522:279,1,187.000005706787,6|0,1:2|1:2,0:0:0:0:
503,198,72225,1,10,0:2:0:0:
403,333,72396,1,2,1:2:0:0:
158,250,72568,6,0,L|112:257,1,46.7500014266968,0|0,1:2|0:0,0:0:0:0:
236,300,72739,2,0,L|244:253,1,46.7500014266968,4|4,0:3|0:3,0:0:0:0:
269,114,72910,2,0,L|261:161,1,46.7500014266968,8|8,0:3|0:3,0:0:0:0:
348,172,73082,2,0,L|394:165,1,46.7500014266968,4|4,0:3|0:3,0:0:0:0:
512,58,73253,6,0,P|467:6|369:17,1,140.25000428009,4|0,1:2|0:0,0:0:0:0:
344,98,73596,2,0,P|385:89|427:84,1,85,10|0,0:2|0:0,0:0:0:0:
396,171,73939,1,2,1:2:0:0:
275,42,74110,1,0,1:2:0:0:
458,5,74282,1,10,0:2:0:0:
235,199,74453,6,0,P|188:155|71:191,1,170,6|0,1:2|1:2,0:0:0:0:
173,319,74968,2,0,P|163:277|154:236,1,85,8|0,0:2|0:0,0:0:0:0:
89,169,75225,1,0,0:0:0:0:
78,157,75310,2,0,P|35:138|-11:150,1,85,0|0,1:2|1:2,0:0:0:0:
28,231,75653,1,8,0:2:0:0:
317,186,75825,1,0,0:0:0:0:
392,241,75996,5,4,1:2:0:0:
392,241,76339,2,0,P|443:250|490:260,1,85,10|0,0:2|0:0,0:0:0:0:
446,162,76682,1,2,1:2:0:0:
418,333,76853,1,0,1:2:0:0:
449,143,77025,1,10,0:2:0:0:
268,217,77196,6,0,B|184:228|197:159|110:173,1,170,6|0,1:2|1:2,0:0:0:0:
56,259,77710,2,0,P|95:273|137:269,1,85,8|0,0:2|0:0,0:0:0:0:
194,179,77968,1,0,0:0:0:0:
201,169,78053,1,0,1:2:0:0:
118,351,78225,1,0,1:2:0:0:
43,253,78396,1,8,0:2:0:0:
324,343,78568,6,0,P|381:332|502:319,1,170,4|0,1:2|1:2,0:0:0:0:
441,205,79082,5,10,0:2:0:0:
402,364,79253,1,0,1:2:0:0:
364,94,79425,5,10,0:2:0:0:
420,288,79596,1,0,1:2:0:0:
466,127,79768,5,10,0:2:0:0:
248,185,79939,1,0,1:2:0:0:
501,259,80110,5,10,0:2:0:0:
285,113,80282,1,0,1:2:0:0:
470,114,80453,5,10,0:2:0:0:
207,256,80625,1,0,1:2:0:0:
369,65,80796,5,10,0:2:0:0:
369,65,80882,1,8,0:0:0:0:
369,65,80968,2,0,L|380:4,1,42.5,4|0,0:3|0:0,0:0:0:0:
278,64,81139,2,0,L|261:203,1,127.5,8|0,0:3|0:0,0:0:0:0:
177,220,81482,6,0,B|112:168|152:91|152:91|188:152,1,187.000005706787,6|10,1:2|0:2,0:0:0:0:
242,277,81996,6,0,B|333:289|319:213|414:228,1,187.000005706787,6|2,1:2|1:2,0:0:0:0:
262,190,82510,1,8,0:2:0:0:
512,345,82682,6,0,B|457:355|401:374|401:374|360:343|394:278,1,187.000005706787,6|8,1:2|0:3,0:0:0:0:
389,302,83110,1,8,0:0:0:0:
398,301,83196,2,0,L|387:356,1,42.5,4|0,0:3|0:0,0:0:0:0:
293,259,83368,2,0,L|334:250,1,42.5
458,244,83539,6,0,P|497:207|505:138,2,102,8|8|4,0:2|0:3|0:3,0:0:0:0:
282,14,84225,6,0,B|310:-15|367:-2|381:42|356:97|312:113,1,170,4|8,1:2|0:2,0:0:0:0:
208,141,84739,1,2,0:0:0:0:
187,136,84824,1,8,0:2:0:0:
166,131,84910,1,10,0:2:0:0:
300,196,85082,2,0,L|420:172,1,85,0|2,1:2|0:0,0:0:0:0:
121,338,85425,6,0,P|97:296|199:259,1,170,10|0,0:2|1:2,0:0:0:0:
97,357,85939,2,0,P|66:325|56:282,1,85,8|0,0:2|0:0,0:0:0:0:
234,314,86282,1,0,1:2:0:0:
212,384,86453,1,0,1:2:0:0:
138,224,86625,2,0,P|170:193|213:183,1,85,10|2,0:2|0:0,0:0:0:0:
424,384,86968,6,0,P|377:316|388:198,1,170,2|10,1:2|0:2,0:0:0:0:
471,136,87482,1,2,0:0:0:0:
491,127,87567,1,8,0:2:0:0:
512,118,87653,1,8,0:2:0:0:
396,158,87825,2,0,L|302:132,1,85,2|2,1:2|0:0,0:0:0:0:
157,5,88168,6,0,P|148:51|167:105,1,85,8|0,0:2|0:0,0:0:0:0:
243,114,88510,1,0,1:2:0:0:
93,172,88682,2,0,P|139:181|193:161,1,85,8|0,0:2|0:0,0:0:0:0:
267,109,89025,1,0,1:2:0:0:
140,69,89196,1,0,1:2:0:0:
167,193,89368,1,10,0:2:0:0:
30,113,89539,5,4,0:3:0:0:
30,113,89625,1,0,0:0:0:0:
30,113,89710,2,0,P|6:195|52:284,1,170,2|10,1:2|0:2,0:0:0:0:
120,330,90225,2,0,P|84:361|32:373,1,85,2|0,0:0|0:0,0:0:0:0:
127,238,90568,2,0,P|171:253|208:292,1,85,0|2,1:2|0:0,0:0:0:0:
310,384,90910,6,0,L|325:278,1,85,10|0,0:2|0:0,0:0:0:0:
373,168,91253,1,2,1:2:0:0:
430,225,91425,2,0,L|538:195,1,85,8|2,0:2|0:0,0:0:0:0:
361,151,91768,1,0,1:2:0:0:
361,151,91939,1,2,1:2:0:0:
276,189,92110,2,0,L|168:159,1,85,8|0,0:2|0:0,0:0:0:0:
276,2,92453,6,0,P|304:74|225:89,1,170,2|10,1:2|0:2,0:0:0:0:
397,51,92968,1,2,0:0:0:0:
417,46,93053,1,8,0:2:0:0:
438,42,93139,1,8,0:2:0:0:
203,109,93310,2,0,P|154:77|144:27,1,85,0|8,1:2|0:2,0:0:0:0:
57,24,93653,6,0,P|51:123|-13:180,1,170,6|0,1:2|1:2,0:0:0:0:
52,8,94168,1,10,0:2:0:0:
125,176,94339,2,0,L|149:232,2,42.5,10|8|8,0:2|0:2|0:2,0:0:0:0:
248,52,94682,1,10,0:2:0:0:
286,35,94767,1,8,0:2:0:0:
328,27,94853,1,8,0:2:0:0:
370,30,94939,1,8,0:2:0:0:
411,42,95024,1,10,0:2:0:0:
447,64,95110,1,8,0:2:0:0:
478,94,95196,2,0,P|468:180|457:265,1,170,4|8,1:2|0:2,0:0:0:0:
332,323,95711,5,2,0:0:0:0:
328,302,95796,1,2,0:0:0:0:
325,281,95882,1,2,1:2:0:0:
270,203,96053,1,0,1:2:0:0:
221,351,96225,1,10,0:2:0:0:
90,239,96396,6,0,P|95:286|124:326,1,85,2|0,1:2|0:0,0:0:0:0:
168,182,96739,1,0,1:2:0:0:
78,154,96910,2,0,P|31:159|-9:188,1,85,8|0,0:2|0:0,0:0:0:0:
179,264,97253,1,0,1:2:0:0:
274,76,97425,1,0,1:2:0:0:
343,130,97596,2,0,L|453:111,1,85,10|2,0:2|0:0,0:0:0:0:
186,37,97939,6,0,P|175:114|271:161,1,170,2|10,1:2|0:2,0:0:0:0:
71,73,98454,1,2,0:0:0:0:
51,63,98539,1,0,0:0:0:0:
31,54,98625,1,0,1:2:0:0:
196,238,98796,1,2,1:2:0:0:
242,163,98967,2,0,L|351:143,1,85,8|0,0:2|0:0,0:0:0:0:
49,329,99310,6,0,P|38:252|134:205,1,170,2|10,1:2|0:2,0:0:0:0:
180,376,99825,1,10,0:2:0:0:
159,370,99910,1,8,0:2:0:0:
138,365,99996,1,0,1:2:0:0:
294,261,100168,1,2,1:2:0:0:
206,290,100339,2,0,P|188:247|192:182,1,85,8|0,0:2|0:0,0:0:0:0:
399,353,100682,6,0,P|443:349|510:324,1,85,2|0,1:2|0:0,0:0:0:0:
390,278,101025,2,0,P|434:274|501:249,1,85,8|0,0:2|0:0,0:0:0:0:
320,180,101368,1,0,1:2:0:0:
294,261,101539,1,0,1:2:0:0:
420,192,101710,2,0,L|386:89,1,85,8|2,0:2|0:0,0:0:0:0:
174,95,102053,5,2,1:2:0:0:
240,197,102225,1,10,0:2:0:0:
323,28,102396,1,10,0:3:0:0:
205,280,102568,2,0,P|103:285|55:226,1,170,14|4,0:2|0:3,0:0:0:0:
352,347,103082,5,8,0:3:0:0:
352,347,103168,1,8,0:3:0:0:
352,347,103253,1,4,0:3:0:0:
352,347,103339,1,4,0:3:0:0:
352,347,103425,6,0,B|335:242|418:258|404:156,1,204,4|0,1:2|1:2,0:0:0:0:
250,89,104110,2,0,P|249:142|334:190,1,136,8|2,0:2|0:0,0:0:0:0:
320,188,104539,1,0,0:0:0:0:
323,177,104625,5,2,0:0:0:0:
312,3,104796,1,0,1:2:0:0:
161,94,104968,1,10,0:2:0:0:
268,100,105139,1,0,1:2:0:0:
268,100,105482,1,10,0:2:0:0:
230,244,105653,2,0,P|220:206|203:167,1,68,2|0,1:2|0:0,0:0:0:0:
375,127,105996,1,10,0:2:0:0:
301,339,106168,6,0,P|317:273|341:209,1,136,2|2,1:2|0:0,0:0:0:0:
434,199,106682,1,2,1:2:0:0:
219,263,106853,2,0,B|153:271|163:216|93:227,1,136,10|0,0:2|0:0,0:0:0:0:
19,204,107368,1,0,1:2:0:0:
137,103,107710,5,10,0:2:0:0:
7,127,107882,1,8,0:3:0:0:
92,227,108053,1,4,0:3:0:0:
79,154,108225,1,0,1:2:0:0:
44,289,108396,1,4,0:3:0:0:
44,289,108482,1,12,0:3:0:0:
44,289,108568,1,4,0:3:0:0:
162,265,108739,1,2,0:0:0:0:
340,227,108910,6,0,B|410:216|400:271|466:263,1,136,4|2,1:2|0:0,0:0:0:0:
492,192,109425,1,2,1:2:0:0:
354,309,109596,2,0,P|305:305|255:221,1,136,10|0,0:2|0:0,0:0:0:0:
365,93,110110,2,0,P|348:158|339:226,1,136,2|10,1:2|0:2,0:0:0:0:
269,162,110796,1,2,1:2:0:0:
269,162,110882,1,0,1:2:0:0:
269,162,110968,1,10,0:2:0:0:
354,96,111139,1,2,1:2:0:0:
269,162,111310,1,10,0:2:0:0:
148,50,111482,6,0,B|71:37|78:98|4:87,1,152.999995330811,6|0,1:2|1:2,0:0:0:0:
198,121,112168,1,8,0:2:0:0:
230,41,112339,1,8,0:3:0:0:
230,41,112510,1,4,0:3:0:0:
172,199,112682,1,10,0:0:0:0:
416,153,112853,6,0,P|382:114|277:124,1,152.999995330811,4|0,1:2|0:0,0:0:0:0:
433,285,113368,1,10,0:2:0:0:
337,185,113539,2,0,P|344:223|349:267,1,76.4999976654053,8|0,0:3|0:0,0:0:0:0:
144,277,113882,1,4,0:3:0:0:
367,343,114053,1,0,1:2:0:0:
232,299,114225,5,0,1:2:0:0:
232,299,114310,1,0,1:2:0:0:
232,299,114396,2,0,B|155:286|162:347|88:336,1,152.999995330811,4|0,1:2|1:2,0:0:0:0:
351,358,115082,2,0,P|333:283|320:208,1,152.999995330811,8|0,0:2|1:2,0:0:0:0:
400,138,115596,1,0,0:0:0:0:
419,241,115768,1,0,1:2:0:0:
227,172,115939,1,8,0:2:0:0:
382,39,116453,6,0,B|427:-17|494:17|494:17|441:48,1,152.999995330811,10|0,0:2|1:2,0:0:0:0:
217,181,117139,6,0,P|173:171|60:149,1,152.999995330811,2|2,1:2|1:2,0:0:0:0:
42,70,117825,1,10,0:2:0:0:
94,244,117996,1,8,0:3:0:0:
94,244,118168,1,4,0:3:0:0:
267,114,118339,6,0,P|225:104|157:90,1,76.4999976654053,2|0,1:2|0:0,0:0:0:0:
69,147,118682,1,0,1:2:0:0:
232,265,118853,6,0,P|220:228|215:190,1,76.4999976654053,10|0,0:2|1:2,0:0:0:0:
153,292,119196,1,10,0:2:0:0:
344,223,119368,1,8,0:2:0:0:
344,223,119453,1,10,0:2:0:0:
344,223,119539,1,8,0:2:0:0:
143,302,119710,6,0,B|66:289|73:350|-1:339,1,152.999995330811,6|2,1:2|1:2,0:0:0:0:
242,377,120225,2,0,P|250:336|260:292,1,76.4999976654053,10|0,0:2|0:0,0:0:0:0:
341,271,120482,1,10,0:2:0:0:
352,267,120568,1,10,0:2:0:0:
153,304,120739,1,2,1:2:0:0:
199,207,120910,1,10,0:2:0:0:
387,363,121082,6,0,P|438:331|435:218,1,152.999995330811,6|0,1:2|1:2,0:0:0:0:
328,194,121596,2,0,P|342:233|356:286,1,76.4999976654053,10|2,0:2|0:0,0:0:0:0:
415,148,121939,1,2,1:2:0:0:
257,302,122110,1,2,1:2:0:0:
426,142,122282,1,10,0:2:0:0:
145,77,122453,6,0,B|95:66|95:66|55:96|55:96|4:85,1,152.999995330811,6|0,1:2|1:2,0:0:0:0:
2,75,122882,1,0,1:2:0:0:
0,67,122968,1,10,0:2:0:0:
121,177,123139,1,0,1:2:0:0:
212,21,123310,5,10,0:2:0:0:
161,256,123482,1,0,1:2:0:0:
34,184,123653,5,10,0:2:0:0:
264,291,123825,1,0,1:2:0:0:
264,291,123910,1,0,1:2:0:0:
264,291,123996,5,10,0:2:0:0:
246,150,124168,2,0,L|238:106,2,38.2499988327027,8|4|0,0:3|0:3|1:2,0:0:0:0:
440,292,124510,6,0,P|508:273|457:136,1,220.999989883423,12|0,0:2|1:1,0:0:0:0:
338,162,125025,2,0,L|329:115,1,46.7500014266968,8|8,0:2|0:2,0:0:0:0:
444,24,125196,2,0,L|432:70,1,46.7500014266968,8|8,0:2|0:2,0:0:0:0:
325,265,125368,6,0,B|272:216|196:228|196:228|198:254|183:282,1,187.000005706787,4|10,1:1|0:2,0:0:0:0:
35,159,125882,2,0,P|88:163|117:195,1,93.5000028533936,0|0,0:0|1:2,0:0:0:0:
106,270,126139,1,0,0:0:0:0:
106,270,126225,1,0,1:2:0:0:
17,321,126396,1,8,0:2:0:0:
153,22,126568,6,0,B|209:4|253:89|190:162|98:133,1,220.999989883423,0|0,1:2|1:2,0:0:0:0:
64,69,127082,1,10,0:2:0:0:
227,206,127253,1,2,0:0:0:0:
227,206,127339,1,8,0:2:0:0:
227,206,127425,1,2,1:2:0:0:
47,52,127596,1,0,1:2:0:0:
118,220,127768,2,0,P|163:229|228:204,1,93.5000028533936,10|2,0:2|0:0,0:0:0:0:
474,35,128110,6,0,P|372:67|397:153,1,187.000005706787,0|10,1:2|0:2,0:0:0:0:
500,199,128625,1,0,0:0:0:0:
467,183,128710,1,8,0:2:0:0:
434,196,128796,1,0,1:2:0:0:
443,302,128968,1,0,1:2:0:0:
512,115,129139,1,8,0:2:0:0:
357,380,129310,6,0,P|303:309|211:297,1,187.000005706787,0|0,1:2|1:2,0:0:0:0:
9,384,129825,2,0,P|91:357|139:259,1,187.000005706787,8|2,0:2|1:2,0:0:0:0:
114,122,130339,1,2,1:2:0:0:
94,203,130510,2,0,P|41:209|-10:174,1,93.5000028533936,10|2,0:2|0:0,0:0:0:0:
218,76,130853,6,0,B|272:64|313:106|296:110|332:153|395:127,1,187.000005706787,4|10,1:2|0:2,0:0:0:0:
462,39,131368,1,2,0:0:0:0:
453,60,131453,1,0,0:0:0:0:
456,86,131539,1,0,1:2:0:0:
500,212,131710,1,2,1:2:0:0:
391,0,131882,1,8,0:2:0:0:
512,236,132053,6,0,P|406:230|387:327,1,187.000005706787,6|0,1:2|1:2,0:0:0:0:
417,384,132568,5,10,0:2:0:0:
456,291,132739,1,0,0:0:0:0:
230,196,132910,5,2,1:2:0:0:
297,342,133081,1,0,1:2:0:0:
319,135,133253,5,10,0:0:0:0:
211,366,133425,1,0,2:2:0:0:
250,119,133596,6,0,P|336:114|349:198,1,187.000005706787,6|10,1:2|0:2,0:0:0:0:
160,8,134110,1,2,0:0:0:0:
109,123,134282,6,0,P|28:149|5:68,1,187.000005706787,4|8,1:2|0:2,0:0:0:0:
173,221,134796,1,0,0:0:0:0:
256,134,134968,6,0,P|351:121|458:109,1,187.000005706787,4|10,1:2|0:2,0:0:0:0:
357,23,135482,1,0,0:0:0:0:
357,23,135568,1,0,0:0:0:0:
357,23,135653,1,10,0:2:0:0:
476,120,135825,1,8,0:2:0:0:
476,120,135910,1,8,0:2:0:0:
476,120,135996,2,0,L|466:204,1,46.7500014266968,10|8,0:2|0:2,0:0:0:0:
389,213,136168,2,0,L|376:143,1,46.7500014266968,10|8,0:2|0:2,0:0:0:0:
474,362,136339,6,0,B|432:390|368:353|390:327|320:294|266:319,1,220.999989883423,4|10,1:1|0:2,0:0:0:0:
125,384,136853,1,0,0:0:0:0:
16,241,137025,1,0,1:2:0:0:
125,384,137196,1,0,1:2:0:0:
182,171,137368,1,8,0:2:0:0:
116,282,137539,6,0,B|185:243|280:237|280:237|332:274,1,220.999989883423,4|0,1:2|1:2,0:0:0:0:
459,384,138053,2,0,P|417:349|409:296,1,110.499994941712,10|0,0:2|0:0,0:0:0:0:
481,177,138396,1,2,1:2:0:0:
499,204,138482,1,0,0:0:0:0:
488,233,138568,1,0,1:2:0:0:
332,165,138739,1,10,0:2:0:0:
480,83,138910,1,0,0:0:0:0:
316,277,139082,6,0,P|183:277|121:187,1,220.999989883423,6|8,1:2|0:2,0:0:0:0:
204,22,139596,6,0,P|222:83|189:130,1,110.499994941712,2|0,1:2|0:0,0:0:0:0:
104,11,139939,2,0,P|70:65|90:119,1,110.499994941712,2|8,1:2|0:2,0:0:0:0:
421,128,140282,6,0,B|370:82|297:95|297:95|291:125|300:151,1,187.000005706787,6|0,1:2|1:2,0:0:0:0:
501,167,140796,2,0,P|509:99|484:65,1,110.499994941712,8|0,0:2|0:0,0:0:0:0:
396,26,141139,1,0,1:2:0:0:
418,291,141310,5,10,0:2:0:0:
451,304,141396,1,8,0:2:0:0:
486,297,141482,2,0,P|507:274|511:238,1,55.2499974708558,10|0,0:2|0:0,0:0:0:0:
331,326,141653,6,0,B|256:303|256:303|202:342|202:342|125:320,1,220.999989883423,4|0,1:1|1:2,0:0:0:0:
34,245,142168,1,10,0:2:0:0:
220,170,142339,1,2,1:2:0:0:
276,232,142510,5,8,0:2:0:0:
36,85,142682,1,2,1:2:0:0:
36,85,142768,1,0,0:0:0:0:
36,85,142853,1,8,0:2:0:0:
114,134,143025,6,0,P|158:72|329:79,1,220.999989883423,6|0,1:2|1:2,0:0:0:0:
498,175,143539,2,0,P|434:185|390:155,1,110.499994941712,10|2,0:2|1:2,0:0:0:0:
382,134,143796,5,0,0:0:0:0:
420,142,143882,1,8,0:2:0:0:
448,159,143968,1,8,0:2:0:0:
466,186,144053,1,8,0:2:0:0:
472,219,144139,1,8,0:2:0:0:
457,249,144225,2,0,B|433:272|392:281,1,55.2499974708558,8|8,0:2|0:2,0:0:0:0:
329,340,144396,6,0,P|238:280|130:288,1,220.999989883423,4|0,1:1|0:0,0:0:0:0:
66,344,144910,2,0,P|46:306|49:264,1,85,8|0,0:2|0:0,0:0:0:0:
191,234,145253,2,0,P|210:271|207:313,1,85,0|0,1:2|0:0,0:0:0:0:
111,210,145510,1,0,0:0:0:0:
107,201,145596,2,0,L|131:103,1,85,8|0,0:2|0:0,0:0:0:0:
102,26,145939,5,0,1:2:0:0:
32,145,146110,1,2,0:0:0:0:
304,115,146282,2,0,P|260:73|163:73,1,127.5,10|0,0:2|0:0,0:0:0:0:
127,118,146625,2,0,P|107:80|110:38,1,85,2|0,1:2|0:0,0:0:0:0:
41,141,146968,1,10,0:2:0:0:
289,241,147139,6,0,P|331:168|327:84,1,170,6|0,1:2|0:0,0:0:0:0:
267,30,147653,2,0,P|245:65|250:107,1,85,10|0,0:2|0:0,0:0:0:0:
388,137,147996,2,0,P|409:101|404:59,1,85,2|0,1:2|0:0,0:0:0:0:
134,138,148339,5,10,0:2:0:0:
225,172,148510,2,0,L|211:89,1,85,2|0,0:0|1:2,0:0:0:0:
75,250,148853,2,0,L|61:167,1,85,2|10,0:0|0:2,0:0:0:0:
120,57,149196,1,2,0:0:0:0:
150,217,149367,1,2,1:2:0:0:
134,138,149538,1,2,0:0:0:0:
168,297,149710,1,10,0:2:0:0:
500,270,149882,6,0,P|419:222|309:247,1,203.999993774414,6|0,1:2|0:0,0:0:0:0:
347,324,150396,1,8,0:2:0:0:
256,300,150568,2,0,P|236:262|239:220,1,85,0|0,0:0|1:2,0:0:0:0:
403,52,150910,5,0,0:0:0:0:
305,167,151082,1,8,0:2:0:0:
255,25,151253,1,0,0:0:0:0:
320,86,151425,1,0,1:2:0:0:
162,140,151596,5,0,0:0:0:0:
162,140,151682,1,0,0:0:0:0:
162,140,151768,2,0,L|55:118,1,85,10|0,0:2|0:0,0:0:0:0:
178,54,152110,2,0,L|71:32,1,85,2|0,1:2|0:0,0:0:0:0:
238,108,152453,1,10,0:2:0:0:
9,309,152625,6,0,P|102:228|187:224,1,203.999993774414,6|0,1:2|0:0,0:0:0:0:
338,354,153139,2,0,P|299:357|252:336,1,85,8|0,0:2|0:0,0:0:0:0:
249,329,153396,1,0,0:0:0:0:
247,317,153482,1,0,1:2:0:0:
466,348,153653,1,2,0:0:0:0:
383,143,153825,1,10,0:2:0:0:
365,269,153996,1,14,0:2:0:0:
100,257,154339,5,8,0:2:0:0:
100,257,154425,1,8,0:2:0:0:
100,257,154510,2,0,P|88:235|87:210,1,50.9999984436036,8|0,0:2|0:0,0:0:0:0:
161,192,154682,2,0,P|174:215|175:240,1,50.9999984436036,4|4,0:3|0:3,0:0:0:0:
7,216,154853,6,0,P|11:183|24:157,1,59.4999981842042,8|8,0:3|0:3,0:0:0:0:
255,227,155025,2,0,P|255:257|242:283,1,59.4999981842042,4|4,0:3|0:3,0:0:0:0:
84,384,155196,6,0,L|104:320,1,50.9999984436036,0|0,1:2|0:0,0:0:0:0:
178,77,155368,6,0,P|277:10|365:20,1,203.999993774414,4|0,1:1|0:0,0:0:0:0:
449,150,155882,1,10,0:2:0:0:
438,0,156053,2,0,P|437:46|409:82,1,93.5000028533936,2|0,0:0|1:2,0:0:0:0:
174,143,156396,6,0,L|135:124,1,25.4999992218018
254,183,156568,1,10,0:2:0:0:
181,256,156739,6,0,L|151:286,1,25.4999992218018,2|0,0:0|0:0,0:0:0:0:
244,191,156911,1,0,0:0:0:0:
291,283,157082,6,0,L|311:320,1,25.4999992218018
250,203,157254,1,10,0:2:0:0:
352,187,157425,6,0,L|394:179,1,25.4999992218018
263,202,157597,1,2,1:2:0:0:
279,100,157768,6,0,L|284:57,1,25.4999992218018
266,189,157940,1,10,0:2:0:0:
488,344,158110,6,0,P|389:277|301:287,1,203.999993774414,4|0,1:2|0:0,0:0:0:0:
451,269,158625,1,10,0:2:0:0:
344,359,158796,2,0,P|289:362|243:332,1,93.5000028533936,2|0,0:0|1:2,0:0:0:0:
373,228,159139,1,2,0:0:0:0:
309,283,159310,2,0,P|274:265|260:245,1,46.7500014266968,10|0,0:2|0:0,0:0:0:0:
208,92,159482,6,0,L|226:-13,1,93.5000028533936,2|0,0:0|1:2,0:0:0:0:
117,109,159825,2,0,L|132:16,1,93.5000028533936,2|8,0:0|0:2,0:0:0:0:
271,198,160168,2,0,L|286:105,1,93.5000028533936,2|0,0:0|1:2,0:0:0:0:
57,269,160510,2,0,L|72:176,1,93.5000028533936,2|8,0:0|0:0,0:0:0:0:
321,359,160853,6,0,P|222:292|134:302,1,203.999993774414,6|0,1:2|0:0,0:0:0:0:
145,384,161368,1,10,0:2:0:0:
83,246,161539,1,2,0:0:0:0:
83,246,161625,1,0,0:0:0:0:
83,246,161710,2,0,P|63:284|70:336,1,93.5000028533936
21,178,162053,5,10,0:2:0:0:
167,208,162225,1,2,0:0:0:0:
101,126,162396,1,0,0:0:0:0:
231,270,162568,1,0,1:2:0:0:
375,134,162739,1,10,0:2:0:0:
327,10,162910,5,4,0:3:0:0:
300,32,162995,1,4,0:3:0:0:
279,59,163081,1,8,0:3:0:0:
265,89,163167,1,8,0:3:0:0:
258,122,163252,1,4,0:3:0:0:
258,156,163338,1,4,0:3:0:0:
266,189,163424,1,0,1:2:0:0:
192,43,163596,6,0,B|87:14|89:109|-7:83,1,203.999993774414,14|0,0:2|0:0,0:0:0:0:
356,220,164110,1,0,1:2:0:0:
356,220,164453,6,0,P|294:188|224:184,1,140.25000428009,14|0,0:2|0:0,0:0:0:0:
214,196,164796,5,2,1:2:0:0:
238,352,164968,1,8,0:2:0:0:
90,295,165139,1,0,0:0:0:0:
180,281,165310,1,8,0:3:0:0:
154,127,165482,1,4,0:3:0:0:
415,384,165825,5,10,0:2:0:0:
440,242,166082,1,8,0:2:0:0:
440,242,166168,1,2,1:2:0:0:
305,292,166339,1,8,0:2:0:0:
387,306,166510,5,0,1:2:0:0:
329,151,166682,1,0,0:0:0:0:
416,19,166853,1,0,1:2:0:0:
230,305,167196,6,0,P|254:226|305:292,1,204,10|0,0:2|0:0,0:0:0:0:
277,366,167539,2,0,P|177:310|55:319,1,237.999992736817,2|0,1:2|1:2,0:0:0:0:
0,369,168053,1,0,0:0:0:0:
150,224,168225,6,0,L|134:104,1,110.499994941712,8|0,0:2|0:0,0:0:0:0:
239,275,168568,2,0,L|223:155,1,110.499994941712,10|4,0:2|0:3,0:0:0:0:
277,102,168825,1,0,0:0:0:0:
277,102,168910,1,4,0:3:0:0:
396,212,169082,6,0,B|422:205|446:212|446:212|393:144|308:176,1,203.999993774414,6|0,1:2|1:2,0:0:0:0:
34,300,169596,5,8,0:2:0:0:
202,174,169768,1,8,0:2:0:0:
73,196,169939,1,8,0:2:0:0:
298,257,170110,1,8,0:2:0:0:
119,86,170282,1,10,0:2:0:0:
166,373,170453,6,0,P|235:310|380:298,1,237.999992736817,4|8,1:2|0:2,0:0:0:0:
445,333,170968,1,10,0:2:0:0:
445,47,171139,5,10,0:2:0:0:
445,47,171225,1,8,0:2:0:0:
445,47,171310,2,0,P|448:83|424:130,1,85,8|8,0:2|0:2,0:0:0:0:
447,242,171482,2,0,P|417:262|364:265,1,76.4999976654053,8|8,0:2|0:2,0:0:0:0:
280,334,171653,2,0,P|247:318|218:274,1,68,10|8,0:2|0:2,0:0:0:0:
124,260,171825,2,0,P|121:224|145:176,1,59.4999981842042,10|8,0:2|0:2,0:0:0:0:
251,33,171996,6,0,L|222:211,1,178.499994552612,4|0,1:1|0:0,0:0:0:0:
291,251,172339,2,0,P|360:228|504:201,1,203.999993774414,8|0,0:2|1:2,0:0:0:0:
325,360,172853,1,0,1:2:0:0:
216,331,173025,1,8,0:2:0:0:
423,174,173196,6,0,P|404:246|271:224,1,203.999993774414,2|0,1:2|1:2,0:0:0:0:
182,22,173710,2,0,P|213:26|254:110,1,101.999996887207,10|0,0:2|0:0,0:0:0:0:
206,135,173968,1,8,0:2:0:0:
189,133,174053,1,2,1:2:0:0:
318,173,174225,1,0,1:2:0:0:
172,225,174396,2,0,B|102:249|72:364,1,152.999995330811,10|0,0:2|0:0,0:0:0:0:
71,368,174739,6,0,P|88:281|1:289,1,203.999993774414,2|8,1:2|0:2,0:0:0:0:
193,216,175253,1,10,0:2:0:0:
211,206,175339,1,8,0:2:0:0:
232,196,175425,1,2,1:2:0:0:
277,340,175596,1,0,1:2:0:0:
381,219,175768,1,8,0:2:0:0:
442,383,175939,6,0,P|422:295|513:285,1,203.999993774414,2|0,1:2|1:2,0:0:0:0:
290,258,176453,1,10,0:2:0:0:
418,129,176625,2,0,P|411:178|380:218,1,101.999996887207,10|0,0:2|1:2,0:0:0:0:
283,69,176968,1,2,1:2:0:0:
328,140,177139,1,10,0:2:0:0:
241,149,177310,1,2,0:0:0:0:
511,98,177482,6,0,P|424:75|496:3,1,203.999993774414,6|8,1:2|0:2,0:0:0:0:
262,69,177996,1,10,0:2:0:0:
224,44,178082,1,8,0:2:0:0:
221,1,178168,1,2,1:2:0:0:
344,117,178339,1,2,1:2:0:0:
212,230,178510,1,8,0:2:0:0:
1,61,178682,6,0,P|86:88|97:0,1,203.999993774414,6|2,1:2|1:2,0:0:0:0:
73,182,179196,1,10,0:2:0:0:
236,141,179368,1,10,0:2:0:0:
130,84,179539,1,2,1:2:0:0:
228,260,179710,5,2,1:2:0:0:
56,168,179882,1,10,0:2:0:0:
135,361,180053,1,2,0:0:0:0:
168,373,180139,1,0,0:0:0:0:
200,384,180225,2,0,P|206:279|103:265,1,203.999993774414,4|8,1:2|0:2,0:0:0:0:
412,276,180739,5,4,0:3:0:0:
430,243,180825,1,4,0:3:0:0:
418,209,180910,1,8,0:3:0:0:
387,189,180996,1,8,0:3:0:0:
352,200,181082,2,0,P|358:235|382:273,1,50.9999984436036,4|4,0:3|0:3,0:0:0:0:
484,149,181253,2,0,P|478:114|454:76,1,50.9999984436036,0|0,1:2|0:0,0:0:0:0:
260,77,181425,6,0,P|353:74|443:33,1,152.999995330811,4|0,1:2|0:0,0:0:0:0:
422,29,181768,1,10,0:2:0:0:
512,225,181939,1,0,0:0:0:0:
313,169,182110,1,12,0:2:0:0:
505,33,182282,1,8,0:3:0:0:
277,174,182453,1,4,0:3:0:0:
232,154,182539,1,4,0:3:0:0:
222,107,182625,1,4,0:3:0:0:
277,191,182796,5,10,0:2:0:0:
218,165,182882,1,8,0:2:0:0:
201,104,182968,6,0,P|260:184|223:280,1,203.999993774414,6|0,1:2|0:0,0:0:0:0:
128,250,183482,1,0,1:2:0:0:
339,213,183653,2,0,B|392:196|431:248|417:258|458:307|512:291,1,203.999993774414,10|2,0:2|1:2,0:0:0:0:
512,58,184168,6,0,P|461:57|415:78,1,101.999996887207,10|0,0:2|0:0,0:0:0:0:
409,344,184510,2,0,P|430:301|474:144,1,203.999993774414,8|0,0:2|1:2,0:0:0:0:
203,114,185025,1,8,0:2:0:0:
360,171,185196,1,8,0:3:0:0:
99,249,185368,1,8,0:3:0:0:
269,178,185539,1,4,0:3:0:0:
119,340,185710,6,0,P|22:340|24:218,1,203.999993774414,6|0,1:2|0:0,0:0:0:0:
174,189,186225,1,0,1:2:0:0:
174,189,186310,1,0,1:2:0:0:
174,189,186396,1,10,0:2:0:0:
230,280,186568,1,2,1:2:0:0:
340,57,186739,1,10,0:2:0:0:
389,302,186910,6,0,P|482:270|512:177,1,203.999993774414,6|8,1:2|0:2,0:0:0:0:
332,135,187425,2,0,P|377:156|406:197,1,101.999996887207,2|0,1:2|1:2,0:0:0:0:
295,330,187768,2,0,P|290:279|311:234,1,101.999996887207,10|0,0:2|0:0,0:0:0:0:
393,194,188025,1,8,0:2:0:0:
412,197,188110,1,10,0:2:0:0:
232,222,188282,6,0,L|24:187,1,203.999993774414,6|2,1:2|1:2,0:0:0:0:
13,197,188710,1,0,1:2:0:0:
0,210,188796,1,10,0:2:0:0:
94,103,188968,5,2,1:2:0:0:
187,300,189139,1,10,0:2:0:0:
180,138,189310,1,2,1:2:0:0:
82,326,189482,1,10,0:2:0:0:
303,187,189653,6,0,P|342:174|511:152,1,203.999993774414,6|2,1:2|1:2,0:0:0:0:
380,56,190168,1,10,0:2:0:0:
254,261,190339,1,2,1:2:0:0:
239,31,190510,1,10,0:2:0:0:
391,198,190682,1,8,0:3:0:0:
161,154,190853,1,0,1:2:0:0:
398,71,191025,6,0,P|379:155|270:167,1,203.999993774414,6|2,1:2|1:2,0:0:0:0:
274,15,191539,1,10,0:2:0:0:
296,53,191625,1,8,0:2:0:0:
292,95,191710,1,10,0:2:0:0:
118,234,191882,1,8,0:3:0:0:
161,198,191968,1,8,0:3:0:0:
216,189,192053,1,8,0:3:0:0:
265,217,192139,1,4,0:3:0:0:
294,265,192225,2,0,L|269:351,1,50.9999984436036,4|4,0:3|0:3,0:0:0:0:
167,71,192396,6,0,B|346:3|301:192|453:206,1,340,4|0,1:1|0:0,0:0:0:0:
231,150,193939,1,4,1:1:0:0:
62,78,194282,5,2,3:2:0:0:
62,78,194625,1,0,3:0:0:0:
62,78,194968,1,0,3:0:0:0:
62,78,195310,1,0,3:0:0:0:
62,78,195653,1,2,3:2:0:0:
62,78,195996,1,2,3:2:0:0:
62,78,196339,1,2,3:2:0:0:
70,174,196510,1,2,1:2:0:0:
87,273,196682,6,0,P|82:289|78:305,1,34,0|2,1:2|3:2,0:0:0:0:
187,310,197368,1,0,3:0:0:0:
187,310,197710,1,0,3:0:0:0:
187,310,198053,1,0,3:0:0:0:
187,310,198396,1,0,3:0:0:0:
187,310,198739,2,0,P|209:315|225:317,1,34,0|0,3:2|1:2,0:0:0:0:
293,332,199082,2,0,P|315:337|331:339,1,34,0|0,3:2|1:2,0:0:0:0:
405,354,199425,6,0,P|409:337|413:321,1,34,2|0,3:2|3:2,0:0:0:0:
430,244,200110,1,0,3:2:0:0:
430,244,200453,5,2,3:2:0:0:
410,164,200625,5,2,0:0:0:0:
324,119,200796,6,0,B|274:119|279:162|229:175,1,101.999996887207,2|0,3:2|3:2,0:0:0:0:
120,197,201310,6,0,B|170:197|165:240|215:253,1,101.999996887207,2|0,0:0|0:0,0:0:0:0:
292,248,201825,1,2,3:2:0:0:
202,88,201996,1,0,1:2:0:0:
249,4,202168,6,0,P|265:8|281:12,1,34,2|0,3:2|3:2,0:0:0:0:
366,35,202682,2,0,P|363:72|362:155,1,101.999996887207,2|2,0:0|0:0,0:0:0:0:
447,90,203196,1,2,3:2:0:0:
369,219,203368,1,2,0:0:0:0:
250,139,203539,5,0,3:0:0:0:
250,139,203882,1,2,0:0:0:0:
33,202,204053,1,8,0:2:0:0:
19,207,204139,1,8,0:2:0:0:
5,212,204225,1,8,0:2:0:0:
152,125,204396,1,8,0:3:0:0:
291,210,204568,1,4,0:3:0:0:
380,169,204739,1,0,1:2:0:0:
393,180,204910,6,0,P|388:235|390:333,1,136,4|2,1:2|0:0,0:0:0:0:
320,356,205425,2,0,P|286:354|240:358,1,68,0|0,1:2|0:0,0:0:0:0:
245,349,205939,2,0,P|278:346|312:348,1,68,8|2,0:2|0:0,0:0:0:0:
205,138,206453,6,0,B|134:141|148:201|85:211,1,136,0|0,1:2|0:0,0:0:0:0:
34,152,206968,2,0,P|36:116|37:73,1,68,2|0,1:2|0:0,0:0:0:0:
214,225,207310,2,0,B|247:232|247:232|274:212,1,68,10|0,0:2|0:0,0:0:0:0:
453,33,207653,6,0,P|451:73|450:178,1,136,0|2,1:2|0:0,0:0:0:0:
293,137,208168,2,0,P|326:132|360:129,1,68,0|0,1:2|0:0,0:0:0:0:
362,137,208682,2,0,P|321:132|286:129,1,68,10|0,0:2|0:0,0:0:0:0:
126,363,209196,6,0,P|124:306|113:212,1,136,0|0,1:2|0:0,0:0:0:0:
180,145,209710,2,0,P|146:143|113:140,1,68,0|0,1:2|0:0,0:0:0:0:
273,296,210053,2,0,P|239:294|205:290,1,68,4|0,0:3|0:0,0:0:0:0:
372,140,210396,6,0,B|445:125|440:191|500:204,1,136,0|0,1:2|0:0,0:0:0:0:
275,174,210910,2,0,P|275:133|273:91,1,68,0|0,1:2|0:0,0:0:0:0:
270,95,211425,2,0,P|268:128|268:162,1,68,8|0,0:2|0:0,0:0:0:0:
10,23,211939,6,0,P|53:26|153:27,1,136,0|8,1:2|0:2,0:0:0:0:
149,46,212625,1,0,1:2:0:0:
151,64,212710,1,0,1:2:0:0:
153,85,212796,1,12,0:2:0:0:
300,275,213139,6,0,B|402:254|395:346|481:360,1,203.999993774414,4|8,1:2|0:2,0:0:0:0:
512,226,213653,1,8,0:2:0:0:
500,234,213825,5,8,0:2:0:0:
288,298,213996,1,8,0:2:0:0:
222,71,214168,1,8,0:2:0:0:
299,101,214339,6,0,B|395:72|381:168|485:168,1,178.499994552612,4|0,1:2|0:0,0:0:0:0:
465,154,214682,1,8,0:2:0:0:
475,145,214768,1,8,0:2:0:0:
484,128,214853,2,0,P|470:69|440:50,1,59.4999981842042,8|8,0:2|0:2,0:0:0:0:
333,178,215025,2,0,P|347:237|377:256,1,59.4999981842042,8|8,0:2|0:2,0:0:0:0:
366,346,215196,5,8,0:2:0:0:
328,348,215281,1,8,0:2:0:0:
293,339,215367,1,4,0:3:0:0:
263,316,215453,1,4,0:3:0:0:
239,288,215538,1,8,0:3:0:0:
212,263,215624,1,8,0:3:0:0:
179,247,215710,1,4,0:3:0:0:
142,246,215796,1,4,0:3:0:0:
105,254,215882,6,0,P|180:219|154:76,1,237.999992736817,4|10,1:1|0:2,0:0:0:0:
60,99,216396,1,0,0:0:0:0:
211,176,216568,1,0,1:2:0:0:
230,11,216739,1,0,1:2:0:0:
164,83,216910,1,8,0:2:0:0:
462,16,217082,6,0,P|348:70|391:161,1,237.999992736817,0|0,1:2|1:2,0:0:0:0:
512,240,217596,2,0,P|453:216|382:254,1,118.999996368408,10|0,0:2|0:0,0:0:0:0:
372,304,217853,1,8,0:2:0:0:
372,304,217939,1,2,1:2:0:0:
499,354,218110,1,0,1:2:0:0:
377,152,218282,1,10,0:2:0:0:
188,352,218453,6,0,B|40:365|40:365|4:327|27:281,1,237.999992736817,2|2,0:0|0:0,0:0:0:0:
225,105,218968,2,0,P|222:148|208:224,1,118.999996368408,10|0,0:2|0:0,0:0:0:0:
149,272,219225,1,8,0:2:0:0:
149,272,219310,1,0,1:2:0:0:
300,155,219482,1,0,1:2:0:0:
74,212,219653,1,8,0:2:0:0:
251,83,219825,6,0,B|302:52|368:88|357:96|411:134|485:73,1,237.999992736817,0|0,1:2|1:2,0:0:0:0:
418,8,220339,2,0,P|406:54|403:138,1,118.999996368408,8|0,0:2|0:0,0:0:0:0:
512,275,220682,1,2,1:2:0:0:
349,181,220853,1,2,1:2:0:0:
323,366,221025,1,10,0:2:0:0:
392,277,221196,1,2,0:0:0:0:
153,35,221368,6,0,P|208:111|219:277,1,237.999992736817,4|10,1:2|0:2,0:0:0:0:
100,254,221882,1,2,0:0:0:0:
73,249,221968,1,0,0:0:0:0:
47,247,222053,1,0,1:2:0:0:
298,279,222225,1,2,1:2:0:0:
105,384,222396,1,8,0:2:0:0:
247,135,222568,6,0,B|289:149|294:199|294:199|214:239|149:186,1,237.999992736817,6|0,1:2|1:2,0:0:0:0:
183,0,223082,2,0,P|202:53|146:106,1,118.999996368408,10|0,0:2|0:0,0:0:0:0:
69,61,223339,1,8,0:2:0:0:
52,50,223425,1,2,1:2:0:0:
132,176,223596,1,0,1:2:0:0:
289,73,223768,2,0,P|337:59|427:67,1,118.999996368408,10|0,0:2|0:0,0:0:0:0:
244,366,224110,5,6,1:2:0:0:
180,311,224282,1,0,0:0:0:0:
267,212,224453,2,0,B|298:181|344:183|344:183|351:205|345:222,1,118.999996368408,10|2,0:2|0:0,0:0:0:0:
250,97,224796,1,4,1:2:0:0:
343,311,224968,1,0,1:2:0:0:
474,171,225139,2,0,B|485:213|460:252|460:252|438:247|426:233,1,118.999996368408,8|0,0:2|0:0,0:0:0:0:
271,25,225482,5,4,1:2:0:0:
271,25,225653,1,0,1:2:0:0:
157,200,225825,1,10,0:2:0:0:
203,195,225910,1,0,0:0:0:0:
230,166,225996,2,0,P|234:129|221:92,1,59.4999981842042
52,257,226168,1,10,0:2:0:0:
44,301,226253,1,8,0:2:0:0:
79,329,226339,1,8,0:2:0:0:
125,323,226425,1,8,0:2:0:0:
153,288,226510,2,0,P|207:279|270:288,1,118.999996368408,10|10,0:2|0:2,0:0:0:0:
512,336,226853,6,0,B|465:375|465:375|447:194,1,237.999992736817,4|10,1:1|0:2,0:0:0:0:
481,27,227368,1,0,0:0:0:0:
481,27,227453,1,0,0:0:0:0:
481,27,227539,1,0,1:2:0:0:
447,198,227710,1,0,1:2:0:0:
481,27,227882,1,8,0:2:0:0:
344,129,228053,6,0,P|250:98|90:77,1,237.999992736817,4|0,1:2|1:2,0:0:0:0:
0,139,228568,1,10,0:2:0:0:
164,173,228739,1,0,0:0:0:0:
34,30,228910,5,2,1:2:0:0:
122,250,229082,1,0,1:2:0:0:
238,127,229253,5,10,0:2:0:0:
19,303,229425,1,0,0:0:0:0:
31,349,229510,1,0,0:0:0:0:
68,374,229596,2,0,B|141:386|168:324|157:313|221:277|284:305,1,237.999992736817,6|8,1:2|0:2,0:0:0:0:
392,377,230110,6,0,P|362:326|371:268,1,118.999996368408,2|0,1:2|0:0,0:0:0:0:
484,357,230453,6,0,P|493:299|464:248,1,118.999996368408,2|8,1:2|0:2,0:0:0:0:
198,186,230796,6,0,B|253:232|306:187|306:187|299:116|231:110,1,237.999992736817,6|0,1:2|1:2,0:0:0:0:
222,110,231225,1,0,1:0:0:0:
211,116,231310,1,8,0:2:0:0:
326,285,231482,1,0,0:0:0:0:
443,39,231653,1,0,1:2:0:0:
433,203,231825,5,10,0:2:0:0:
468,199,231910,1,8,0:2:0:0:
492,178,231996,1,10,0:2:0:0:
357,76,232168,6,0,B|292:49|246:108|259:113|194:180|138:152,1,237.999992736817,4|0,1:1|1:2,0:0:0:0:
62,23,232682,1,10,0:2:0:0:
174,234,232853,1,2,1:2:0:0:
181,42,233025,5,8,0:2:0:0:
51,186,233196,1,2,1:2:0:0:
211,311,233368,1,8,0:2:0:0:
392,98,233539,6,0,P|274:172|358:239,1,237.999992736817,6|0,1:2|1:2,0:0:0:0:
512,328,234053,1,10,0:2:0:0:
414,168,234225,1,2,1:2:0:0:
378,384,234396,5,8,0:0:0:0:
509,174,234568,1,4,0:3:0:0:
324,310,234739,1,8,0:3:0:0:
299,312,234825,1,8,0:3:0:0:
277,302,234910,2,0,P|246:282|223:237,1,59.4999981842042,4|4,0:3|0:3,0:0:0:0:
165,21,235082,6,0,P|154:136|120:266,1,237.999992736817,4|10,1:2|0:2,0:0:0:0:
0,211,235596,1,0,0:0:0:0:
28,215,235682,1,8,0:2:0:0:
51,232,235768,1,2,1:2:0:0:
10,327,235939,1,0,1:2:0:0:
41,127,236110,1,10,0:2:0:0:
140,378,236282,6,0,P|248:344|402:315,1,237.999992736817,6|0,1:2|1:2,0:0:0:0:
464,357,236796,2,0,P|496:316|469:232,1,118.999996368408,8|0,0:2|0:0,0:0:0:0:
292,191,237139,1,8,0:2:0:0:
420,137,237310,1,8,0:2:0:0:
452,104,237396,1,8,0:2:0:0:
444,63,237482,1,8,0:2:0:0:
402,52,237568,1,8,0:2:0:0:
367,77,237653,6,0,L|397:353,1,237.999992736817,4|0,1:2|1:2,0:0:0:0:
512,226,238168,1,8,0:2:0:0:
250,153,238339,1,0,1:2:0:0:
434,131,238510,1,8,0:2:0:0:
195,291,238682,1,0,1:2:0:0:
357,236,238853,1,8,0:2:0:0:
89,186,239025,6,0,P|35:57|118:40,1,237.999992736817,4|0,1:2|1:2,0:0:0:0:
0,245,239539,1,8,0:2:0:0:
219,81,239710,1,0,1:2:0:0:
281,54,239795,1,4,1:3:0:0:
346,63,239881,1,8,0:3:0:0:
393,100,239967,1,8,0:3:0:0:
410,150,240052,1,8,0:3:0:0:
394,195,240138,1,4,0:3:0:0:
358,217,240225,2,0,L|329:131,1,59.4999981842042,4|4,0:3|0:3,0:0:0:0:
435,16,240396,6,0,P|450:27|434:21,1,51,4|8,1:1|0:2,0:0:0:0:
221,99,241596,6,0,P|193:98|162:112,1,50.9999984436036,8|8,0:3|0:3,0:0:0:0:
123,183,241768,6,0,P|99:194|73:229,1,59.4999981842042,4|4,0:3|0:3,0:0:0:0:
0,295,241939,6,0,B|25:231|85:242|85:242|46:255|24:307,1,178.499994552612,4|0,1:2|0:0,0:0:0:0:
115,322,242282,2,0,B|149:329|149:329|173:343|173:343|202:348,1,93.5000028533936,10|0,0:2|0:0,0:0:0:0:
250,292,242539,1,0,0:0:0:0:
254,291,242625,2,0,P|279:251|276:221,1,46.7500014266968,2|0,1:2|0:0,0:0:0:0:
245,167,242796,2,0,P|259:185|265:207,1,46.7500014266968,0|0,1:2|0:0,0:0:0:0:
494,260,242968,5,10,0:2:0:0:
295,226,243139,2,0,B|357:214|357:214|386:178|386:178|448:170,1,170,6|0,1:2|1:2,0:0:0:0:
400,47,243653,2,0,P|495:53|471:121,1,170,8|0,0:2|1:2,0:0:0:0:
472,127,244168,1,0,1:2:0:0:
386,62,244339,1,10,0:2:0:0:
146,189,244510,5,0,0:0:0:0:
141,189,244596,1,0,0:0:0:0:
136,189,244682,2,0,B|43:172,1,85,4|0,1:2|0:0,0:0:0:0:
230,117,245025,2,0,B|317:138|264:149|367:173,1,127.5,10|8,0:2|0:2,0:0:0:0:
386,62,245368,2,0,P|366:72|349:90,1,46.7500014266968,2|0,1:2|0:0,0:0:0:0:
421,198,245539,2,0,P|428:175|428:152,1,46.7500014266968,0|0,1:2|0:0,0:0:0:0:
264,217,245710,6,0,L|279:325,1,76.4999976654053,10|0,0:2|0:0,0:0:0:0:
377,371,245882,2,0,P|390:364|324:265,1,170,6|0,1:2|1:2,0:0:0:0:
202,292,246396,2,0,B|96:308|96:308|88:343|109:370,1,170,8|0,0:2|1:2,0:0:0:0:
208,374,246825,5,0,0:0:0:0:
212,373,246910,2,0,L|269:364,1,42.5,0|0,1:2|0:0,0:0:0:0:
326,311,247082,2,0,L|390:298,1,42.5,10|0,0:2|0:0,0:0:0:0:
457,236,247253,5,0,0:0:0:0:
457,236,247339,1,0,0:0:0:0:
457,236,247425,2,0,P|438:213|450:240,1,85,4|0,1:2|0:0,0:0:0:0:
240,289,247768,2,0,B|185:299|137:262|137:262|163:307|159:347,1,170,10|2,0:2|1:2,0:0:0:0:
202,209,248282,1,0,1:2:0:0:
196,186,248368,1,0,1:0:0:0:
185,140,248453,1,10,0:2:0:0:
9,255,248625,6,0,B|-26:286|-26:286|-26:177|83:173,1,203.999993774414,6|0,1:2|1:2,0:0:0:0:
276,329,249139,2,0,B|306:323|306:323|331:326|331:326|359:321,1,85,8|0,0:2|0:0,0:0:0:0:
467,245,249396,1,0,0:0:0:0:
462,247,249482,2,0,P|437:241|415:227,1,50.9999984436036,0|0,1:2|0:0,0:0:0:0:
345,221,249653,2,0,P|370:221|394:214,1,50.9999984436036,0|0,1:2|0:0,0:0:0:0:
445,9,249825,5,10,0:2:0:0:
430,5,249910,1,8,0:2:0:0:
418,10,249996,2,0,B|374:67|410:113|418:104|451:156|411:200,1,203.999993774414,4|0,1:2|1:2,0:0:0:0:
211,90,250510,1,8,0:2:0:0:
340,144,250682,1,0,1:2:0:0:
340,144,250768,1,0,1:2:0:0:
340,144,250853,5,8,0:2:0:0:
146,204,251025,1,0,1:2:0:0:
60,137,251196,1,8,0:2:0:0:
329,303,251368,6,0,B|374:293|374:293|437:299|437:299|496:284,1,152.999995330811,4|0,1:2|0:0,0:0:0:0:
488,275,251710,2,0,P|501:242|501:209,1,50.9999984436036,8|0,0:2|0:0,0:0:0:0:
415,90,251882,2,0,P|434:105|449:126,1,50.9999984436036,8|8,0:2|0:2,0:0:0:0:
367,212,252053,5,8,0:2:0:0:
341,219,252139,5,8,0:2:0:0:
304,216,252225,5,8,0:2:0:0:
257,197,252310,5,8,0:2:0:0:
200,182,252396,5,8,0:2:0:0:
148,210,252482,5,8,0:2:0:0:
124,270,252568,5,8,0:2:0:0:
156,333,252653,5,8,0:2:0:0:
231,339,252739,5,8,0:2:0:0:
285,284,252825,5,8,0:2:0:0:
266,209,252910,5,8,0:2:0:0:
59,350,253253,118,1,B|-1:275|46:153|148:154|148:154|169:188|217:204|217:204|147:201|27:121|82:1|191:-38|265:-9|296:39|280:117|224:119,1,816,4|0,1:1|0:0,0:0:0:0:
