osu file format v14

[General]
AudioFilename: audio.mp3
AudioLeadIn: 0
PreviewTime: 52939
Countdown: 0
SampleSet: Soft
StackLeniency: 0.5
Mode: 0
LetterboxInBreaks: 0
EpilepsyWarning: 1
WidescreenStoryboard: 1

[Editor]
Bookmarks: 10198,12940,23912,30255,32140,33426,43112,52712,73283,84255,192598,258482
DistanceSpacing: 0.2
BeatDivisor: 4
GridSize: 16
TimelineZoom: 1.8

[Metadata]
Title:Hoshi no Umi no Kioku
TitleUnicode:星の海の記憶
Artist:Nagase Mana (CV: Kanda Sayaka)
ArtistUnicode:長瀬麻奈(CV: 神田沙也加)
Creator:-Rei
Version:KoldNoodl's Insane
Source:IDOLY PRIDE
Tags:Memories of the starry sky Japanese Pop anime J-pop jpop idol fedora- yuuki_noa Airiesu Mujina KoldNoodl Takekii Hanasaka_Yui Nana Abe Usaha Yashikin アイドリープライド アイプラ やしきん
BeatmapID:3357588
BeatmapSetID:1644875

[Difficulty]
HPDrainRate:5
CircleSize:4.2
OverallDifficulty:8
ApproachRate:9
SliderMultiplier:1.77
SliderTickRate:1

[Events]
//Background and Video events
0,0,"BACKGROUND.jpg",0,0
//Break Periods
2,194138,202246
//Storyboard Layer 0 (Background)
//Storyboard Layer 1 (Fail)
//Storyboard Layer 2 (Pass)
//Storyboard Layer 3 (Foreground)
Sprite,Foreground,Centre,"sb\koldnoodl.png",490,370 S,0,910,,0.4 F,0,910,252910,1
//Storyboard Layer 4 (Overlay)
//Storyboard Sound Samples

[TimingPoints]
568,342.857142857143,4,2,1,60,1,0
910,-142.857142857143,4,2,1,60,0,0
1939,-285.714285714286,4,2,1,60,0,0
3653,-142.857142857143,4,2,1,60,0,0
4682,-285.714285714286,4,2,1,60,0,0
5882,-142.857142857143,4,2,1,60,0,0
7425,-285.714285714286,4,2,1,60,0,0
8453,-142.857142857143,4,2,1,60,0,0
10168,-100,4,2,1,70,0,0
12225,-111.111111111111,4,2,1,70,0,0
12910,-125,4,2,1,65,0,0
22339,-100,4,2,1,65,0,0
23882,-111.111111111111,4,2,1,75,0,0
32110,-142.857142857143,4,2,1,65,0,0
43082,-125,4,2,1,75,0,0
48396,-111.111111111111,4,2,1,75,0,0
51653,-100,4,2,1,75,0,0
54053,-100,4,2,1,85,0,0
65282,-100,4,2,1,30,0,0
65368,-100,4,2,1,85,0,0
68539,-100,4,2,1,25,0,0
68625,-100,4,2,1,85,0,0
82682,-111.111111111111,4,2,1,85,0,0
83539,-125,4,2,1,85,0,0
84225,-125,4,2,1,65,0,0
95197,-125,4,2,1,75,0,0
97853,-125,4,2,1,25,0,0
97939,-125,4,2,1,75,0,0
103425,-125,4,2,1,65,0,0
114653,-125,4,2,1,25,0,0
114739,-125,4,2,1,65,0,0
119710,-111.111111111111,4,2,1,75,0,0
124339,-90.9090909090909,4,2,1,75,0,0
125368,-100,4,2,1,85,0,0
139853,-100,4,2,1,30,0,0
139939,-100,4,2,1,85,0,0
144396,-111.111111111111,4,2,1,80,0,0
146196,-111.111111111111,4,2,1,30,0,0
146282,-111.111111111111,4,2,1,80,0,0
151682,-111.111111111111,4,2,1,30,0,0
151768,-111.111111111111,4,2,1,80,0,0
163596,-111.111111111111,4,2,1,75,0,0
167453,-111.111111111111,4,2,1,20,0,0
167539,-111.111111111111,4,2,1,75,0,0
171996,-111.111111111111,4,2,1,80,0,0
174653,-111.111111111111,4,2,1,30,0,0
174739,-111.111111111111,4,2,1,80,0,0
184425,-111.111111111111,4,2,1,30,0,0
184510,-111.111111111111,4,2,1,80,0,0
188282,-100,4,2,1,80,0,0
192396,-142.857142857143,4,2,1,80,0,0
193939,-142.857142857143,4,2,1,50,0,0
203539,-125,4,2,1,50,0,0
203882,-125,4,2,1,50,0,0
204910,-125,4,2,1,65,0,0
207568,-125,4,2,1,25,0,0
207653,-125,4,2,1,65,0,0
210310,-125,4,2,1,20,0,0
210396,-125,4,2,1,65,0,0
212196,-125,4,2,1,25,0,0
212282,-125,4,2,1,65,0,0
213053,-125,4,2,1,30,0,0
213139,-125,4,2,1,75,0,0
214339,-100,4,2,1,75,0,0
215882,-100,4,2,1,85,0,0
230368,-100,4,2,1,25,0,0
230453,-100,4,2,1,85,0,0
235339,-100,4,2,1,25,0,0
235425,-100,4,2,1,85,0,0
240396,-153.846153846154,4,2,1,85,0,0
241939,-100,4,2,1,85,0,0
247682,-100,4,2,1,30,0,0
247768,-100,4,2,1,85,0,0
258396,-100,4,2,1,20,0,0

[Colours]
Combo1 : 255,226,128
Combo2 : 201,155,227
Combo3 : 234,170,149
Combo4 : 224,158,201

[HitObjects]
455,78,910,5,2,0:0:0:0:
455,78,1253,2,0,P|397:64|343:113,1,123.899996218872,2|2,0:0|0:0,0:0:0:0:
258,77,1768,5,2,0:0:0:0:
258,77,1853,1,0,0:0:0:0:
258,77,1939,2,0,P|271:135|285:206,1,123.899996218872,4|0,1:1|0:0,0:0:0:0:
283,200,2968,1,0,0:0:0:0:
283,200,3139,1,0,0:0:0:0:
164,354,3653,6,0,P|104:340|20:326,1,123.899996218872,2|2,0:0|0:0,0:0:0:0:
189,237,4168,1,8,0:2:0:0:
253,325,4339,1,2,1:2:0:0:
253,325,4682,6,0,P|341:343|403:277,1,185.849994328308,4|0,1:1|0:0,0:0:0:0:
512,148,5882,1,0,0:0:0:0:
512,148,5967,1,0,0:0:0:0:
512,148,6053,2,0,P|460:159|369:175,1,123.899996218872,4|0,0:2|0:0,0:0:0:0:
311,248,6568,2,0,B|281:219|281:219|303:125,1,123.899996218872,8|8,0:3|0:3,0:0:0:0:
334,19,7082,1,4,0:3:0:0:
334,19,7425,6,0,B|276:27|276:27|247:55|247:55|189:63,1,154.87499527359,4|0,1:1|0:0,0:0:0:0:
47,108,8453,1,0,1:2:0:0:
37,28,8625,2,0,P|67:27|101:51,1,61.9499981094361,12|0,0:2|0:0,0:0:0:0:
209,139,8968,2,0,P|198:191|185:283,1,123.899996218872,8|0,0:3|1:2,0:0:0:0:
129,323,9482,1,8,0:2:0:0:
55,282,9653,1,8,0:3:0:0:
29,366,9825,2,0,P|14:369|0:375,2,30.974999054718,4|4|4,0:3|0:3|0:3,0:0:0:0:
187,263,10168,6,0,P|273:278|379:305,1,177,4|0,1:2|1:2,0:0:0:0:
491,130,10682,1,12,0:2:0:0:
333,194,10853,1,0,1:0:0:0:
461,334,11025,2,0,P|451:283|439:233,1,88.5,8|0,0:2|1:2,0:0:0:0:
387,50,11368,6,0,P|294:50|251:121,1,177,12|0,0:2|1:2,0:0:0:0:
85,191,11882,2,0,P|171:206|245:223,1,132.75,8|4,0:2|0:3,0:0:0:0:
243,233,12225,2,0,P|232:278|226:317,1,79.649997569275,8|4,0:3|0:3,0:0:0:0:
150,360,12568,1,8,0:3:0:0:
150,360,12739,1,4,0:3:0:0:
9,237,12910,6,0,P|-2:168|51:109,1,141.6,4|0,1:1|3:2,0:0:0:0:
3,23,13425,1,2,0:0:0:0:
3,23,13596,2,0,P|49:35|155:55,1,141.6,2|2,3:2|3:2,0:0:0:0:
236,149,14110,5,2,0:0:0:0:
236,149,14196,1,0,0:0:0:0:
236,148,14282,2,0,P|289:106|368:121,1,141.6,0|0,3:2|3:2,0:0:0:0:
463,89,14796,2,0,P|446:158|435:247,1,141.6
281,296,15310,1,2,3:2:0:0:
340,200,15482,1,2,1:2:0:0:
488,311,15653,6,0,P|435:268|361:284,1,141.6,2|2,1:2|3:2,0:0:0:0:
253,372,16168,2,0,P|242:303|225:227,1,141.6,2|2,0:0|0:0,0:0:0:0:
174,129,16682,1,0,3:2:0:0:
174,129,16853,1,0,0:0:0:0:
286,179,17025,6,0,B|234:189|234:189|208:216|208:216|158:225,1,141.6,0|0,3:2|3:2,0:0:0:0:
87,277,17539,1,0,0:0:0:0:
87,277,17710,2,0,P|78:230|74:180,1,70.8,0|0,3:2|0:0,0:0:0:0:
15,139,18053,1,2,3:2:0:0:
15,139,18225,1,2,0:0:0:0:
194,48,18396,6,0,P|204:117|218:208,1,141.6,2|2,1:2|3:2,0:0:0:0:
297,62,18910,2,0,P|366:58|414:109,1,141.6,2|0,0:0|0:0,0:0:0:0:
486,66,19425,1,2,3:2:0:0:
338,135,19596,6,0,P|331:175|324:228,1,70.8,0|2,0:0|3:2,0:0:0:0:
419,310,19939,1,0,0:0:0:0:
466,221,20110,1,0,3:2:0:0:
329,281,20282,6,0,P|260:296|176:318,1,141.6,2|2,0:0|0:0,0:0:0:0:
242,222,20796,1,0,3:2:0:0:
242,222,20968,1,0,1:2:0:0:
144,384,21139,6,0,P|108:322|133:253,1,141.6,2|2,1:2|3:2,0:0:0:0:
242,222,21653,1,2,0:0:0:0:
110,150,21825,6,0,P|68:160|26:174,1,70.8
40,168,22168,1,0,3:2:0:0:
194,33,22339,6,0,P|276:13|341:85,1,177,6|0,1:2|1:2,0:0:0:0:
470,167,22853,2,0,P|423:181|380:198,1,88.5,10|2,0:2|0:0,0:0:0:0:
255,97,23196,1,0,1:2:0:0:
424,41,23368,1,0,1:2:0:0:
386,195,23539,1,8,0:2:0:0:
386,195,23625,1,0,0:0:0:0:
386,195,23710,1,10,0:2:0:0:
193,33,23882,6,0,P|116:56|37:76,1,159.29999513855,4|8,1:2|0:2,0:0:0:0:
255,97,24396,1,2,0:0:0:0:
138,230,24568,2,0,P|146:179|155:138,1,79.649997569275,2|0,0:0|1:2,0:0:0:0:
151,152,24910,1,2,0:0:0:0:
59,284,25082,6,0,P|132:263|194:316,1,159.29999513855,10|0,0:2|1:2,0:0:0:0:
325,279,25596,2,0,P|317:318|309:378,1,79.649997569275,8|0,0:2|0:0,0:0:0:0:
249,233,25939,1,0,1:2:0:0:
249,233,26110,1,0,1:2:0:0:
402,338,26282,2,0,P|450:325|489:317,1,79.649997569275,10|2,0:2|0:0,0:0:0:0:
512,135,26625,6,0,P|459:190|375:177,1,159.29999513855,2|10,1:2|0:2,0:0:0:0:
411,28,27139,2,0,P|422:78|430:120,1,79.649997569275,2|0,0:0|0:0,0:0:0:0:
427,105,27482,1,2,1:2:0:0:
326,70,27653,1,0,0:0:0:0:
497,0,27825,1,8,0:2:0:0:
313,81,27996,6,0,P|243:72|153:58,1,159.29999513855,2|10,0:0|0:2,0:0:0:0:
52,193,28510,2,0,P|101:177|154:161,1,79.649997569275,2|0,0:0|1:2,0:0:0:0:
127,169,28853,1,2,1:2:0:0:
47,13,29025,2,0,P|59:64|69:111,1,79.649997569275
113,277,29368,6,0,P|189:279|243:211,1,159.29999513855,2|8,1:2|0:2,0:0:0:0:
333,303,29882,1,0,0:0:0:0:
422,212,30053,1,0,1:2:0:0:
333,303,30225,2,0,P|326:341|320:403,1,79.649997569275,0|0,1:2|0:0,0:0:0:0:
284,119,30568,5,10,0:2:0:0:
422,212,30739,1,2,0:0:0:0:
416,79,30910,1,2,1:2:0:0:
294,227,31082,2,0,P|255:217|197:203,1,79.649997569275,10|2,0:2|0:0,0:0:0:0:
43,168,31425,1,0,1:2:0:0:
148,78,31596,5,4,0:3:0:0:
139,116,31681,1,4,0:3:0:0:
131,154,31767,1,8,0:3:0:0:
125,193,31853,1,8,0:3:0:0:
118,232,31938,1,4,0:3:0:0:
159,315,32110,6,0,P|194:301|236:293,1,61.9499981094361,4|0,1:2|0:0,0:0:0:0:
287,239,32453,2,0,P|316:246|351:264,1,61.9499981094361,0|0,1:2|0:0,0:0:0:0:
409,330,32796,1,2,1:2:0:0:
409,330,32968,1,0,0:0:0:0:
478,279,33139,2,0,P|464:230|458:203,1,61.9499981094361,2|2,1:2|0:0,0:0:0:0:
398,130,33482,6,0,P|406:100|414:70,1,61.9499981094361,2|0,1:2|0:0,0:0:0:0:
355,7,33825,2,0,P|321:16|282:24,1,61.9499981094361,2|0,1:2|0:0,0:0:0:0:
220,75,34168,1,0,1:2:0:0:
220,75,34339,1,2,0:0:0:0:
151,9,34510,2,0,P|102:28|94:74,1,92.9249971641541,8|0,0:2|0:0,0:0:0:0:
52,66,34853,6,0,P|66:110|74:143,1,61.9499981094361,2|0,1:2|0:0,0:0:0:0:
129,190,35196,2,0,P|119:219|109:260,1,61.9499981094361,2|0,1:2|0:0,0:0:0:0:
37,297,35539,1,0,1:2:0:0:
37,297,35710,1,0,0:0:0:0:
92,362,35882,2,0,P|131:349|179:341,1,61.9499981094361,0|0,1:2|0:0,0:0:0:0:
250,360,36225,6,0,P|238:314|232:287,1,61.9499981094361,0|0,1:2|0:0,0:0:0:0:
186,230,36568,2,0,P|194:200|205:161,1,61.9499981094361,0|0,1:2|0:0,0:0:0:0:
283,129,36910,1,0,1:2:0:0:
283,129,37082,1,4,0:3:0:0:
161,34,37253,2,0,P|202:61|261:42,1,92.9249971641541,8|0,0:2|0:0,0:0:0:0:
266,33,37596,6,0,P|305:36|337:43,1,61.9499981094361,4|0,1:2|0:0,0:0:0:0:
458,114,37939,2,0,P|466:73|475:47,1,61.9499981094361,2|0,1:2|0:0,0:0:0:0:
362,127,38282,1,0,1:2:0:0:
362,127,38453,2,0,P|371:157|381:208,1,61.9499981094361,2|8,0:0|0:2,0:0:0:0:
460,297,38796,6,0,P|407:263|342:294,1,123.899996218872,2|0,0:0|0:0,0:0:0:0:
353,281,39310,1,0,1:2:0:0:
268,373,39482,2,0,P|261:342|250:309,2,61.9499981094361,0|2|2,0:0|1:2|0:0,0:0:0:0:
288,232,39996,1,10,0:2:0:0:
165,319,40168,6,0,P|126:310|86:307,1,61.9499981094361,2|0,0:0|0:0,0:0:0:0:
19,247,40510,1,0,0:0:0:0:
19,247,40682,1,0,1:2:0:0:
112,157,40853,2,0,P|104:186|95:236,1,61.9499981094361,2|0,0:0|1:2,0:0:0:0:
37,94,41196,5,8,0:2:0:0:
176,44,41368,1,0,1:2:0:0:
25,99,41539,1,12,0:2:0:0:
207,194,41710,6,0,P|267:177|343:161,1,123.899996218872,0|4,1:2|0:3,0:0:0:0:
430,264,42225,2,0,P|423:293|415:346,1,61.9499981094361,0|8,1:2|0:2,0:0:0:0:
405,126,42568,1,8,0:3:0:0:
512,197,42739,1,4,1:3:0:0:
429,45,42910,5,4,1:3:0:0:
429,45,42996,1,0,0:0:0:0:
429,45,43082,2,0,P|367:45|327:85,1,106.2,4|0,1:2|0:0,0:0:0:0:
325,101,43425,2,0,P|275:86|244:82,1,70.8,8|0,0:2|0:0,0:0:0:0:
101,128,43768,1,2,1:2:0:0:
161,5,43939,1,0,1:2:0:0:
29,65,44110,1,10,0:2:0:0:
192,151,44282,6,0,P|185:116|173:66,1,70.8,2|0,0:2|1:2,0:0:0:0:
59,233,44625,2,0,P|110:214|139:206,1,70.8,2|8,0:0|0:2,0:0:0:0:
300,292,44968,2,0,P|249:273|220:265,1,70.8,2|0,0:0|1:2,0:0:0:0:
74,315,45310,1,2,1:2:0:0:
149,384,45482,2,0,P|156:342|165:304,1,70.8,8|0,0:2|0:0,0:0:0:0:
294,202,45825,6,0,P|365:190|418:254,1,141.6,2|10,1:2|0:2,0:0:0:0:
506,316,46339,2,0,P|453:326|418:341,1,70.8,2|0,0:0|1:2,0:0:0:0:
339,272,46682,1,0,1:2:0:0:
488,190,46853,1,10,0:2:0:0:
388,94,47025,6,0,P|401:164|412:235,1,141.6,2|0,1:2|1:2,0:0:0:0:
227,104,47539,2,0,P|235:61|243:18,1,70.8,8|0,0:2|0:0,0:0:0:0:
300,197,47882,1,0,1:2:0:0:
300,197,48053,1,2,1:2:0:0:
227,104,48225,1,10,0:2:0:0:
61,232,48396,6,0,P|112:175|204:198,1,159.29999513855,6|2,1:2|1:2,0:0:0:0:
81,325,48910,2,0,P|42:315|3:310,1,79.649997569275,10|0,0:2|0:0,0:0:0:0:
196,384,49253,1,2,1:2:0:0:
196,384,49425,1,2,1:2:0:0:
141,250,49596,1,10,0:2:0:0:
295,315,49768,6,0,P|321:271|295:161,1,159.29999513855,6|0,1:2|1:2,0:0:0:0:
231,239,50282,1,8,0:2:0:0:
392,115,50453,5,2,0:0:0:0:
242,17,50625,1,2,1:2:0:0:
302,169,50796,1,2,1:2:0:0:
408,4,50968,1,10,0:2:0:0:
204,111,51139,6,0,P|138:98|42:79,1,159.29999513855,6|0,1:2|1:2,0:0:0:0:
0,250,51653,2,0,P|53:230|96:218,1,88.5,8|0,0:2|1:2,0:0:0:0:
272,283,51996,1,8,0:2:0:0:
206,129,52168,1,0,1:2:0:0:
91,307,52339,1,8,0:2:0:0:
191,239,52510,5,0,1:2:0:0:
191,239,52596,1,0,0:0:0:0:
191,239,52682,1,12,0:2:0:0:
393,347,52853,1,0,1:2:0:0:
393,347,53710,6,0,P|364:336|327:328,3,44.25
327,290,54053,6,0,P|271:353|188:340,1,177,4|10,1:1|0:2,0:0:0:0:
56,211,54568,1,0,0:0:0:0:
56,211,54653,1,0,0:0:0:0:
56,211,54739,2,0,P|113:219|161:224,1,88.5,0|0,1:2|1:2,0:0:0:0:
304,141,55082,1,8,0:2:0:0:
191,42,55253,6,0,P|205:97|232:229,1,177,0|0,1:2|1:2,0:0:0:0:
406,112,55768,1,10,0:2:0:0:
315,244,55939,2,0,P|309:273|302:318,2,44.25,0|8|2,0:0|0:2|1:2,0:0:0:0:
283,79,56282,1,0,1:2:0:0:
453,193,56453,2,0,P|443:245|433:315,1,88.5,10|2,0:2|0:0,0:0:0:0:
283,376,56796,6,0,P|222:356|106:334,1,177,0|10,1:2|0:2,0:0:0:0:
12,167,57310,1,0,0:0:0:0:
12,167,57396,1,8,0:2:0:0:
12,167,57482,1,0,1:2:0:0:
171,230,57653,1,0,1:2:0:0:
0,303,57825,1,8,0:2:0:0:
136,135,57996,6,0,P|212:133|265:229,1,177,0|0,1:2|1:2,0:0:0:0:
439,124,58510,2,0,P|382:144|332:154,1,88.5,8|0,0:2|0:0,0:0:0:0:
327,140,58768,1,8,0:2:0:0:
327,140,58853,1,2,1:2:0:0:
452,43,59025,1,2,1:2:0:0:
499,202,59196,1,10,0:2:0:0:
334,59,59368,5,2,0:0:0:0:
334,59,59453,1,0,0:0:0:0:
334,59,59539,2,0,B|234:66|282:130|177:137,1,177,4|10,1:2|0:2,0:0:0:0:
6,86,60053,2,0,P|10:59|19:27,2,44.25,2|0|0,0:0|0:0|1:2,0:0:0:0:
103,219,60396,2,0,P|95:175|84:133,1,88.5,2|8,1:2|0:2,0:0:0:0:
240,355,60739,6,0,P|324:355|371:284,1,177,6|0,1:2|1:2,0:0:0:0:
185,217,61253,2,0,P|169:282|162:342,1,88.5,10|0,0:2|0:0,0:0:0:0:
165,334,61510,1,0,0:0:0:0:
165,334,61596,1,2,1:2:0:0:
116,137,61768,1,0,1:2:0:0:
283,210,61939,2,0,P|352:192|399:182,1,88.5,10|0,0:2|0:0,0:0:0:0:
168,70,62282,6,0,P|84:59|32:127,1,177,6|10,1:2|0:2,0:0:0:0:
249,138,62796,1,2,0:0:0:0:
249,138,62882,1,0,0:0:0:0:
249,138,62968,2,0,P|259:79|270:25,1,88.5,4|0,1:2|1:2,0:0:0:0:
136,219,63310,2,0,P|144:262|151:306,1,88.5,8|0,0:2|0:0,0:0:0:0:
344,121,63653,5,4,1:2:0:0:
233,229,63825,1,0,1:2:0:0:
480,309,63996,2,0,P|441:257|361:274,1,132.75,10|0,0:2|0:0,0:0:0:0:
352,269,64339,6,0,P|361:301|367:345,3,44.25,10|8|8|8,0:2|0:2|0:2|0:2,0:0:0:0:
274,351,64682,5,10,0:2:0:0:
251,346,64768,1,8,0:2:0:0:
228,341,64853,1,10,0:2:0:0:
205,337,64939,1,8,0:2:0:0:
186,337,65025,2,0,P|130:346|54:358,1,132.75,4|0,1:1|0:0,0:0:0:0:
54,357,65368,6,0,P|17:280|76:198,1,177,10|0,0:2|1:2,0:0:0:0:
200,241,65882,1,0,1:2:0:0:
68,125,66053,1,8,0:2:0:0:
182,8,66225,2,0,P|165:67|134:207,1,177,4|0,1:2|1:2,0:0:0:0:
248,133,66739,6,0,P|307:144|354:158,1,88.5,10|0,0:2|0:0,0:0:0:0:
461,14,67082,1,2,1:2:0:0:
316,56,67253,1,0,1:2:0:0:
433,203,67425,2,0,P|420:150|409:99,1,88.5,10|0,0:2|0:0,0:0:0:0:
357,349,67768,5,6,1:2:0:0:
220,227,67939,1,0,0:0:0:0:
220,227,68025,1,8,0:2:0:0:
220,227,68110,1,8,0:2:0:0:
321,156,68282,6,0,P|309:215|299:294,1,132.75,2|0,1:2|0:0,0:0:0:0:
357,349,68625,2,0,P|399:336|443:328,1,88.5,2|0,1:2|0:0,0:0:0:0:
190,384,68968,6,0,B|82:369|140:310|31:302,1,177,6|0,1:2|1:2,0:0:0:0:
211,161,69482,2,0,P|221:204|212:246,1,88.5,8|0,0:2|0:0,0:0:0:0:
46,103,69825,1,0,1:2:0:0:
116,210,69996,1,10,0:2:0:0:
116,210,70082,1,8,0:2:0:0:
116,210,70168,1,10,0:2:0:0:
227,63,70339,6,0,P|284:44|379:131,1,177,4|0,1:1|1:2,0:0:0:0:
316,267,70853,1,10,0:2:0:0:
432,223,71025,1,2,1:2:0:0:
279,155,71196,1,8,0:2:0:0:
212,339,71368,2,0,P|148:323|95:313,1,88.5,2|8,1:2|0:2,0:0:0:0:
138,45,71710,6,0,P|152:108|175:225,1,177,6|0,1:2|1:2,0:0:0:0:
37,334,72225,2,0,P|46:284|53:230,1,88.5,10|2,0:2|1:2,0:0:0:0:
212,339,72568,1,0,1:2:0:0:
323,251,72739,5,4,0:3:0:0:
350,241,72824,1,4,0:3:0:0:
379,240,72910,1,8,0:3:0:0:
408,248,72996,1,8,0:3:0:0:
432,265,73081,1,4,0:3:0:0:
449,288,73167,1,4,0:3:0:0:
459,316,73253,6,0,P|466:250|475:184,1,132.75,4|0,1:2|0:0,0:0:0:0:
497,112,73596,2,0,P|463:138|421:138,1,88.5,10|0,0:2|0:0,0:0:0:0:
402,126,73853,1,0,0:0:0:0:
402,126,73939,1,2,1:2:0:0:
271,179,74110,1,0,1:2:0:0:
327,42,74282,1,10,0:2:0:0:
378,240,74453,6,0,P|293:255|194:286,1,177,6|0,1:2|1:2,0:0:0:0:
90,369,74968,2,0,P|105:329|97:286,1,88.5,8|0,0:2|0:0,0:0:0:0:
82,270,75225,1,0,0:0:0:0:
82,271,75310,1,0,1:2:0:0:
167,198,75482,1,0,1:2:0:0:
19,107,75653,1,8,0:2:0:0:
189,30,75825,1,0,0:0:0:0:
91,168,75996,6,0,P|126:129|214:131,1,132.75,4|0,1:2|0:0,0:0:0:0:
251,185,76339,2,0,P|313:168|365:158,1,88.5,10|0,0:2|0:0,0:0:0:0:
363,162,76596,1,0,0:0:0:0:
363,162,76682,1,2,1:2:0:0:
461,68,76853,1,0,1:2:0:0:
300,21,77025,1,10,0:2:0:0:
451,156,77196,6,0,P|439:223|426:354,1,177,6|0,1:2|1:2,0:0:0:0:
429,359,77625,1,0,0:0:0:0:
429,359,77710,1,8,0:2:0:0:
329,206,77882,2,0,P|332:185|336:163,2,44.25,0|0|0,0:0|0:0|1:2,0:0:0:0:
215,322,78225,1,0,1:2:0:0:
336,286,78396,1,8,0:2:0:0:
195,177,78568,6,0,P|108:169|58:238,1,177,4|0,1:2|1:2,0:0:0:0:
215,322,79082,2,0,P|262:311|309:300,1,88.5,10|0,0:2|1:2,0:0:0:0:
423,155,79425,1,10,0:2:0:0:
253,233,79596,1,0,1:2:0:0:
344,93,79768,2,0,P|334:168|332:209,1,88.5,10|0,0:2|1:2,0:0:0:0:
155,10,80110,5,10,0:2:0:0:
258,124,80282,1,0,1:2:0:0:
95,213,80453,1,10,0:2:0:0:
180,95,80625,1,0,1:2:0:0:
23,27,80796,2,0,P|12:85|1:138,1,88.5,10|4,0:2|0:3,0:0:0:0:
0,152,81053,1,0,0:0:0:0:
0,152,81139,2,0,P|32:142|82:129,3,44.25,8|0|0|0,0:3|0:0|0:0|0:0,0:0:0:0:
95,213,81482,6,0,P|159:225|213:236,1,88.5,6|2,1:2|0:0,0:0:0:0:
360,149,81825,1,10,0:2:0:0:
512,353,81996,6,0,P|455:290|372:307,1,177,6|2,1:2|1:2,0:0:0:0:
181,229,82510,1,8,0:2:0:0:
252,59,82682,6,0,P|266:117|278:176,1,119.474996353912,6|0,1:2|0:0,0:0:0:0:
296,254,83025,2,0,P|291:274|287:293,2,39.8249987846375,8|0|4,1:3|1:0|1:3,0:0:0:0:
362,153,83425,5,4,1:3:0:0:
362,153,83539,2,0,P|413:147|456:180,2,106.2,8|0|0,1:2|1:0|1:0,0:0:0:0:
258,183,84225,6,0,P|188:169|118:158,1,141.6,4|8,1:2|0:2,0:0:0:0:
25,120,84739,2,0,P|17:97|10:62,2,35.4,2|8|10,0:0|0:2|0:2,0:0:0:0:
104,228,85082,2,0,P|114:178|127:137,1,70.8,0|2,1:2|0:0,0:0:0:0:
23,290,85425,6,0,P|78:336|165:308,1,141.6,10|0,0:2|1:2,0:0:0:0:
272,248,85939,2,0,P|260:303|255:338,1,70.8,8|0,0:2|0:0,0:0:0:0:
193,212,86282,1,0,1:2:0:0:
193,212,86453,1,0,1:2:0:0:
346,304,86625,2,0,P|389:290|425:285,1,70.8,10|2,0:2|0:0,0:0:0:0:
512,159,86968,6,0,P|470:120|383:146,1,141.6,2|10,1:2|0:2,0:0:0:0:
257,81,87482,1,2,0:0:0:0:
257,81,87568,1,8,0:2:0:0:
257,81,87653,1,8,0:2:0:0:
354,0,87825,2,0,P|343:46|337:92,1,70.8,2|2,1:2|0:0,0:0:0:0:
205,183,88168,6,0,P|149:168|34:147,1,141.6,8|0,0:2|1:2,0:0:0:0:
192,300,88682,2,0,P|227:291|267:284,1,70.8,8|0,0:2|0:0,0:0:0:0:
377,194,89025,1,0,1:2:0:0:
377,194,89196,1,0,1:2:0:0:
332,319,89368,1,10,0:2:0:0:
205,183,89539,5,4,0:3:0:0:
205,183,89625,1,0,0:0:0:0:
205,183,89710,2,0,P|215:120|229:28,1,141.6,2|10,1:2|0:2,0:0:0:0:
331,0,90225,2,0,P|340:43|348:82,1,70.8,2|0,0:0|0:0,0:0:0:0:
483,167,90568,2,0,P|448:157|414:149,1,70.8,0|2,1:2|0:0,0:0:0:0:
276,274,90910,6,0,P|306:238|404:245,1,141.6,10|2,0:2|1:2,0:0:0:0:
386,373,91425,2,0,P|339:362|307:357,1,70.8,8|2,0:2|0:0,0:0:0:0:
194,278,91768,1,0,1:2:0:0:
194,278,91939,1,2,1:2:0:0:
290,204,92110,2,0,P|279:254|274:287,1,70.8,8|0,0:2|0:0,0:0:0:0:
184,368,92453,6,0,B|106:358|140:313|56:308,1,141.6,2|10,1:2|0:2,0:0:0:0:
157,209,92968,1,2,0:0:0:0:
157,209,93053,1,8,0:2:0:0:
157,209,93139,1,8,0:2:0:0:
60,133,93310,2,0,P|71:184|78:234,1,70.8,0|8,1:2|0:2,0:0:0:0:
149,65,93653,6,0,B|183:37|183:37|237:31|281:84,1,141.6,6|0,1:2|1:2,0:0:0:0:
446,44,94168,1,10,0:2:0:0:
334,165,94339,1,10,0:2:0:0:
348,0,94510,1,8,0:2:0:0:
443,148,94682,5,10,0:2:0:0:
437,170,94767,1,8,0:2:0:0:
431,193,94853,1,8,0:2:0:0:
427,217,94939,1,8,0:2:0:0:
423,240,95024,1,10,0:2:0:0:
419,263,95110,1,8,0:2:0:0:
416,287,95196,6,0,P|349:276|301:338,1,141.6,4|8,1:2|0:2,0:0:0:0:
176,211,95710,1,2,0:0:0:0:
176,211,95796,1,2,0:0:0:0:
176,211,95882,2,0,P|224:219|261:231,1,70.8,2|0,1:2|1:2,0:0:0:0:
353,158,96225,1,10,0:2:0:0:
262,3,96396,6,0,B|252:59|252:59|236:74|236:74|226:136,1,141.6,2|0,1:2|1:2,0:0:0:0:
332,73,96910,2,0,P|382:61|425:53,1,70.8,8|0,0:2|0:0,0:0:0:0:
226,135,97253,1,0,1:2:0:0:
226,135,97425,1,0,1:2:0:0:
159,50,97596,2,0,P|102:48|71:104,1,106.2,10|0,0:2|0:0,0:0:0:0:
55,100,97939,6,0,P|72:165|86:248,1,141.6,2|10,1:2|0:2,0:0:0:0:
115,325,98453,2,0,P|68:317|32:314,1,70.8,2|0,0:0|1:2,0:0:0:0:
177,226,98796,1,2,1:2:0:0:
257,310,98968,2,0,P|248:345|241:390,1,70.8,8|0,0:2|0:0,0:0:0:0:
344,245,99310,6,0,P|402:230|465:292,1,141.6,2|10,1:2|0:2,0:0:0:0:
307,146,99825,1,10,0:2:0:0:
307,146,99910,1,8,0:2:0:0:
307,146,99996,1,0,1:2:0:0:
456,84,100168,1,2,1:2:0:0:
391,151,100339,2,0,P|382:116|370:79,1,70.8,8|0,0:2|0:0,0:0:0:0:
237,25,100682,6,0,P|168:16|119:64,2,141.6,2|8|0,1:2|0:2|1:2,0:0:0:0:
217,169,101539,1,0,1:2:0:0:
217,169,101710,2,0,P|204:120|197:91,1,70.8,8|2,0:2|0:0,0:0:0:0:
303,233,102053,5,2,1:2:0:0:
200,356,102225,1,10,0:2:0:0:
141,210,102396,1,10,0:3:0:0:
304,337,102568,2,0,P|355:322|458:302,1,141.6,14|4,0:2|0:3,0:0:0:0:
312,199,103082,2,0,P|307:216|304:233,2,35.4,8|8|4,0:3|0:3|0:3,0:0:0:0:
200,356,103425,6,0,P|156:308|18:333,1,212.4,4|0,1:2|1:2,0:0:0:0:
143,191,104110,2,0,P|186:201|251:135,1,141.6,8|2,0:2|0:0,0:0:0:0:
167,88,104625,1,2,0:0:0:0:
167,88,104796,1,0,1:2:0:0:
61,211,104968,2,0,P|55:165|53:122,1,70.8,10|0,0:2|1:2,0:0:0:0:
53,140,105310,1,2,0:0:0:0:
154,5,105482,1,10,0:2:0:0:
246,59,105653,2,0,P|302:45|402:30,1,141.6,2|10,1:2|0:2,0:0:0:0:
449,137,106168,6,0,B|391:116|391:116|337:135|314:185|341:245,1,212.4,2|2,1:2|1:2,0:0:0:0:
441,358,106853,2,0,P|432:299|414:202,1,141.6,10|0,0:2|0:0,0:0:0:0:
512,281,107368,1,0,1:2:0:0:
357,342,107539,1,0,0:0:0:0:
357,342,107710,2,0,P|316:329|267:320,1,70.8,10|8,0:2|0:3,0:0:0:0:
157,240,108053,2,0,P|122:247|89:259,1,70.8,4|0,0:3|1:2,0:0:0:0:
189,341,108396,1,4,0:3:0:0:
90,259,108568,1,4,0:3:0:0:
272,234,108739,5,2,0:0:0:0:
272,234,108825,1,0,0:0:0:0:
272,234,108910,2,0,P|284:164|290:93,1,141.6,4|2,1:2|0:0,0:0:0:0:
199,22,109425,1,2,1:2:0:0:
128,85,109596,2,0,P|74:96|11:37,1,141.6,10|0,0:2|0:0,0:0:0:0:
59,127,110110,6,0,P|67:164|73:219,1,70.8,2|0,1:2|0:0,0:0:0:0:
20,294,110453,2,0,P|88:277|166:260,1,141.6,10|2,0:2|1:2,0:0:0:0:
167,264,110882,1,0,1:2:0:0:
176,268,110968,2,0,P|220:256|265:249,1,70.8,10|2,0:2|1:2,0:0:0:0:
329,319,111310,1,10,0:2:0:0:
322,237,111482,6,0,L|359:70,1,141.6,6|0,1:2|1:2,0:0:0:0:
352,98,112168,2,0,P|370:129|376:164,1,70.8,8|8,0:2|0:3,0:0:0:0:
256,47,112510,1,4,0:3:0:0:
208,141,112682,1,8,0:0:0:0:
137,96,112853,1,4,1:2:0:0:
21,240,113025,6,0,P|46:201|155:209,1,141.6,0|10,0:0|0:2,0:0:0:0:
295,146,113539,2,0,P|286:182|278:234,1,70.8,8|0,0:3|0:0,0:0:0:0:
234,332,113882,1,4,0:3:0:0:
357,246,114053,1,0,1:2:0:0:
508,370,114225,5,0,1:2:0:0:
508,370,114310,1,0,1:2:0:0:
508,370,114396,2,0,P|468:337|393:350,1,106.2,4|0,1:2|0:0,0:0:0:0:
384,318,114739,2,0,P|334:330|303:344,1,70.8,0|0,1:2|0:0,0:0:0:0:
160,246,115082,2,0,B|199:245|227:255|227:255|259:249|275:218|265:184,1,141.6,8|0,0:2|1:2,0:0:0:0:
216,123,115596,6,0,P|164:142|129:174,1,70.8,0|0,0:0|1:2,0:0:0:0:
347,156,115939,2,0,P|351:99|305:28,1,141.6,8|2,0:2|0:0,0:0:0:0:
182,0,116453,2,0,P|141:18|41:53,1,141.6,10|0,0:2|1:2,0:0:0:0:
7,136,116968,1,0,0:0:0:0:
104,255,117139,6,0,P|94:193|139:125,1,141.6,2|2,1:2|1:2,0:0:0:0:
249,198,117653,1,2,0:0:0:0:
193,279,117825,2,0,P|244:288|286:302,1,70.8,10|8,0:2|0:3,0:0:0:0:
438,241,118168,1,4,0:3:0:0:
372,384,118339,6,0,P|358:321|340:219,1,141.6,2|0,1:2|1:2,0:0:0:0:
394,95,118853,1,10,0:2:0:0:
244,55,119025,1,0,1:2:0:0:
312,165,119196,1,10,0:2:0:0:
480,70,119368,1,8,0:2:0:0:
480,70,119453,1,10,0:2:0:0:
480,70,119539,1,8,0:2:0:0:
312,165,119710,6,0,P|237:151|148:133,1,159.29999513855,6|2,1:2|1:2,0:0:0:0:
293,279,120225,2,0,P|343:261|379:256,1,79.649997569275,10|0,0:2|0:0,0:0:0:0:
395,266,120482,1,10,0:2:0:0:
395,266,120568,1,10,0:2:0:0:
504,189,120739,1,2,1:2:0:0:
362,96,120910,1,10,0:2:0:0:
469,15,121082,6,0,P|446:91|427:168,1,159.29999513855,6|0,1:2|1:2,0:0:0:0:
505,337,121596,2,0,P|491:299|474:263,1,79.649997569275,10|2,0:2|0:0,0:0:0:0:
333,369,121939,1,2,1:2:0:0:
289,181,122110,1,2,1:2:0:0:
369,256,122282,1,10,0:2:0:0:
293,84,122453,6,0,P|225:91|186:178,1,159.29999513855,6|0,1:2|1:2,0:0:0:0:
162,189,122882,1,0,1:2:0:0:
162,189,122968,2,0,P|179:248|190:297,1,79.649997569275,10|0,0:2|1:2,0:0:0:0:
2,93,123310,2,0,P|11:54|23:16,1,79.649997569275,10|0,0:2|1:2,0:0:0:0:
105,254,123653,5,10,0:2:0:0:
273,167,123825,1,0,1:2:0:0:
273,167,123910,1,0,1:2:0:0:
273,167,123996,1,10,0:2:0:0:
100,336,124168,2,0,P|78:330|51:326,2,39.8249987846375,8|0|0,0:3|1:2|0:0,0:0:0:0:
206,237,124510,6,0,P|294:254|363:144,1,194.700005941773,12|0,0:2|1:1,0:0:0:0:
441,18,125025,1,8,0:2:0:0:
458,34,125110,1,8,0:2:0:0:
469,55,125196,1,8,0:2:0:0:
472,79,125282,1,8,0:2:0:0:
466,103,125368,6,0,P|398:86|288:66,1,177,4|10,1:1|0:2,0:0:0:0:
160,15,125882,1,0,0:0:0:0:
160,15,125968,1,0,0:0:0:0:
160,15,126053,2,0,P|173:64|180:107,1,88.5,0|0,1:2|1:2,0:0:0:0:
45,75,126396,1,8,0:2:0:0:
134,206,126568,6,0,P|179:149|281:163,1,177,0|0,1:2|1:2,0:0:0:0:
402,271,127082,2,0,P|411:225|406:174,1,88.5,10|2,0:2|0:0,0:0:0:0:
400,161,127339,1,8,0:2:0:0:
400,161,127425,1,2,1:2:0:0:
270,237,127596,1,0,1:2:0:0:
378,359,127768,2,0,P|425:350|480:332,1,88.5,10|2,0:2|0:0,0:0:0:0:
270,237,128110,6,0,B|177:256|218:312|123:329,1,177,0|10,1:2|0:2,0:0:0:0:
0,255,128625,2,0,P|0:233|6:212,2,44.25,0|8|0,0:0|0:2|1:2,0:0:0:0:
165,131,128968,1,0,1:2:0:0:
45,78,129139,1,8,0:2:0:0:
92,184,129310,6,0,P|162:162|277:140,1,177,0|0,1:2|1:2,0:0:0:0:
414,57,129825,2,0,P|353:50|318:26,1,88.5,8|0,0:2|0:0,0:0:0:0:
314,17,130082,1,0,0:0:0:0:
314,17,130168,1,2,1:2:0:0:
192,61,130339,1,2,1:2:0:0:
350,148,130510,2,0,P|340:201|334:252,1,88.5,10|2,0:2|0:0,0:0:0:0:
165,353,130853,6,0,B|195:332|211:313|211:313|261:332|347:354,1,177,4|10,1:2|0:2,0:0:0:0:
420,211,131368,1,2,0:0:0:0:
420,211,131453,1,0,0:0:0:0:
420,211,131539,2,0,P|362:225|307:247,1,88.5,0|2,1:2|1:2,0:0:0:0:
210,144,131882,1,8,0:2:0:0:
325,7,132053,6,0,P|306:70|276:210,1,177,6|0,1:2|1:2,0:0:0:0:
144,197,132568,2,0,P|128:143|110:90,1,88.5,10|0,0:2|0:0,0:0:0:0:
105,88,132824,1,0,0:0:0:0:
105,88,132910,1,2,1:2:0:0:
210,144,133082,1,0,1:2:0:0:
85,259,133253,2,0,P|44:247|-21:229,1,88.5,10|0,0:2|0:0,0:0:0:0:
171,371,133596,6,0,P|220:309|324:333,1,177,6|10,1:2|0:2,0:0:0:0:
428,180,134110,1,2,0:0:0:0:
428,180,134196,1,0,0:0:0:0:
428,180,134282,2,0,P|365:196|314:211,1,88.5,4|0,1:2|0:0,0:0:0:0:
217,50,134625,2,0,P|280:66|331:81,1,88.5,8|0,0:2|0:0,0:0:0:0:
78,206,134968,5,4,1:2:0:0:
217,50,135139,1,0,0:0:0:0:
10,9,135310,1,10,0:2:0:0:
100,105,135482,5,0,0:0:0:0:
100,105,135568,1,0,0:0:0:0:
100,105,135653,2,0,P|131:113|167:131,1,44.25,10|0,0:2|0:0,0:0:0:0:
295,183,135825,2,0,P|264:191|228:209,1,44.25,8|8,0:2|0:2,0:0:0:0:
100,336,135996,1,10,0:2:0:0:
93,303,136081,1,8,0:2:0:0:
87,270,136167,1,10,0:2:0:0:
82,238,136253,1,8,0:2:0:0:
77,205,136339,6,0,B|177:216|177:216|197:265|246:273,1,177,4|10,1:1|0:2,0:0:0:0:
394,146,136853,2,0,P|381:201|370:273,1,88.5,0|0,0:0|1:2,0:0:0:0:
291,153,137196,1,0,1:2:0:0:
458,74,137368,1,8,0:2:0:0:
444,314,137539,6,0,P|381:255|298:271,1,177,4|0,1:2|1:2,0:0:0:0:
205,130,138053,2,0,P|265:144|312:162,1,88.5,10|0,0:2|0:0,0:0:0:0:
319,140,138310,1,8,0:2:0:0:
319,140,138396,1,2,1:2:0:0:
458,74,138568,1,0,1:2:0:0:
312,13,138739,1,10,0:2:0:0:
411,147,138910,1,0,0:0:0:0:
224,216,139082,6,0,P|217:173|205:130,1,88.5,6|0,1:2|0:0,0:0:0:0:
193,107,139339,1,0,0:0:0:0:
193,107,139425,1,8,0:2:0:0:
21,285,139596,6,0,P|82:269|143:333,1,132.75,2|0,1:2|0:0,0:0:0:0:
200,353,139939,2,0,P|261:334|316:325,1,88.5,2|8,1:2|0:2,0:0:0:0:
476,203,140282,6,0,B|456:218|443:239|443:239|374:265|326:192,1,177,6|0,1:2|1:2,0:0:0:0:
456,108,140796,1,8,0:2:0:0:
342,0,140968,2,0,P|348:22|354:43,2,44.25,0|0|0,0:0|0:0|1:2,0:0:0:0:
278,126,141310,5,10,0:2:0:0:
237,142,141395,1,8,0:2:0:0:
194,136,141481,1,10,0:2:0:0:
159,108,141567,1,0,0:0:0:0:
143,68,141653,6,0,B|183:35|183:35|162:183,1,177,4|0,1:1|1:2,0:0:0:0:
349,264,142168,1,10,0:2:0:0:
278,126,142339,1,2,1:2:0:0:
196,295,142510,1,8,0:2:0:0:
360,172,142682,1,2,1:2:0:0:
360,172,142768,1,0,0:0:0:0:
360,172,142853,1,8,0:2:0:0:
434,384,143025,6,0,P|481:341|454:229,1,177,6|0,1:2|1:2,0:0:0:0:
322,363,143539,1,10,0:2:0:0:
237,206,143710,2,0,P|262:215|300:225,1,44.25,2|0,1:2|0:0,0:0:0:0:
158,320,143882,1,8,0:2:0:0:
158,320,143968,1,8,0:2:0:0:
158,320,144053,2,0,P|136:326|116:333,1,44.25,8|8,0:2|0:2,0:0:0:0:
10,193,144225,5,8,0:2:0:0:
10,193,144310,1,8,0:2:0:0:
10,193,144396,2,0,P|83:172|140:228,1,159.29999513855,4|0,1:1|0:0,0:0:0:0:
277,127,144910,2,0,P|269:87|258:49,1,79.649997569275,8|0,0:2|0:0,0:0:0:0:
206,177,145253,1,0,1:2:0:0:
206,177,145425,1,0,0:0:0:0:
312,259,145596,2,0,P|364:240|397:231,1,79.649997569275,8|0,0:2|0:0,0:0:0:0:
505,109,145939,6,0,P|459:72|401:80,1,119.474996353912,0|0,1:2|0:0,0:0:0:0:
360,80,146282,2,0,P|372:119|379:158,1,79.649997569275,10|0,0:2|0:0,0:0:0:0:
263,256,146625,2,0,P|257:275|254:294,2,39.8249987846375,2|0|0,1:2|0:0|0:0,0:0:0:0:
428,226,146968,1,10,0:2:0:0:
249,102,147139,6,0,P|192:165|115:154,1,159.29999513855,6|0,1:2|0:0,0:0:0:0:
68,0,147653,2,0,P|123:9|174:15,1,79.649997569275,10|0,0:2|0:0,0:0:0:0:
10,167,147996,1,2,1:2:0:0:
10,167,148082,1,0,0:0:0:0:
10,167,148168,1,0,0:0:0:0:
95,87,148339,1,10,0:2:0:0:
163,255,148510,6,0,P|119:245|81:238,1,79.649997569275,2|0,0:0|1:2,0:0:0:0:
253,331,148853,2,0,P|269:268|288:226,1,79.649997569275,2|10,0:0|0:2,0:0:0:0:
156,358,149196,1,2,0:0:0:0:
372,318,149368,5,2,1:2:0:0:
274,254,149539,1,2,0:0:0:0:
418,180,149710,1,10,0:2:0:0:
504,358,149882,6,0,P|428:370|366:288,1,159.29999513855,6|0,1:2|0:0,0:0:0:0:
502,163,150396,2,0,P|492:209|486:255,1,79.649997569275,8|0,0:2|0:0,0:0:0:0:
328,175,150739,1,0,1:2:0:0:
328,175,150910,1,0,0:0:0:0:
399,57,151082,2,0,P|409:103|416:152,1,79.649997569275,8|0,0:2|0:0,0:0:0:0:
283,260,151425,6,0,B|245:253|213:248|213:248|192:272|159:278,1,119.474996353912,0|0,1:2|0:0,0:0:0:0:
146,292,151768,2,0,P|153:247|125:202,1,79.649997569275,10|0,0:2|0:0,0:0:0:0:
19,130,152110,1,2,1:2:0:0:
19,130,152196,1,0,0:0:0:0:
19,130,152282,1,0,0:0:0:0:
155,62,152453,1,10,0:2:0:0:
57,208,152625,6,0,P|122:184|216:165,1,159.29999513855,6|0,1:2|0:0,0:0:0:0:
351,64,153139,2,0,P|317:46|274:51,1,79.649997569275,8|0,0:2|0:0,0:0:0:0:
399,162,153482,1,0,1:2:0:0:
454,60,153653,1,2,0:0:0:0:
299,134,153825,1,10,0:2:0:0:
475,265,153996,6,0,P|480:225|486:186,1,79.649997569275,14|2,0:2|0:0,0:0:0:0:
379,317,154339,1,8,0:2:0:0:
379,317,154425,1,8,0:2:0:0:
379,317,154510,2,0,P|412:327|442:340,1,39.8249987846375,8|0,0:2|0:0,0:0:0:0:
308,197,154682,2,0,P|275:207|245:220,1,39.8249987846375,4|4,0:3|0:3,0:0:0:0:
124,329,154853,1,8,0:3:0:0:
151,338,154938,1,8,0:3:0:0:
180,334,155024,1,4,0:3:0:0:
205,317,155110,1,4,0:3:0:0:
217,291,155195,1,0,1:2:0:0:
257,376,155368,6,0,P|247:312|233:194,1,159.29999513855,4|0,1:1|0:0,0:0:0:0:
101,83,155882,1,10,0:2:0:0:
33,179,156053,2,0,P|66:202|105:203,1,79.649997569275,2|0,0:0|1:2,0:0:0:0:
172,41,156396,1,0,0:0:0:0:
172,41,156568,1,10,0:2:0:0:
317,173,156739,2,0,P|265:115|189:121,1,159.29999513855,2|0,0:0|0:0,0:0:0:0:
379,63,157253,6,0,P|422:70|463:75,1,79.649997569275,10|0,0:2|0:0,0:0:0:0:
317,173,157596,2,0,P|298:176|279:181,2,39.8249987846375,2|0|0,1:2|0:0|0:0,0:0:0:0:
445,235,157939,1,10,0:2:0:0:
314,306,158110,6,0,B|395:286|380:363|482:337,1,159.29999513855,4|0,1:2|0:0,0:0:0:0:
317,173,158625,1,10,0:2:0:0:
220,347,158796,2,0,P|209:291|196:244,1,79.649997569275,2|0,0:0|1:2,0:0:0:0:
41,172,159139,1,2,0:0:0:0:
91,290,159310,1,10,0:2:0:0:
226,183,159482,6,0,P|187:191|148:202,1,79.649997569275,2|0,0:0|1:0,0:0:0:0:
23,57,159825,2,0,P|61:65|100:76,1,79.649997569275,2|8,0:0|0:0,0:0:0:0:
265,0,160168,2,0,P|254:44|245:97,1,79.649997569275,2|0,0:0|0:0,0:0:0:0:
278,250,160510,1,2,0:0:0:0:
171,116,160682,1,0,1:0:0:0:
383,184,160853,6,0,P|423:118|395:47,1,159.29999513855,6|0,1:2|0:0,0:0:0:0:
210,181,161368,1,10,0:2:0:0:
310,293,161539,2,0,P|301:249|293:210,1,79.649997569275,2|0,0:0|0:0,0:0:0:0:
339,111,161882,1,0,0:0:0:0:
339,111,162053,1,10,0:2:0:0:
214,272,162225,2,0,P|176:259|137:248,1,79.649997569275,2|0,0:0|0:0,0:0:0:0:
231,160,162568,5,0,1:2:0:0:
71,316,162739,2,0,P|67:297|62:278,1,39.8249987846375,10|8,0:2|0:0,0:0:0:0:
225,233,162910,2,0,P|218:252|214:272,1,39.8249987846375,4|4,0:3|0:3,0:0:0:0:
138,248,163082,5,8,0:3:0:0:
142,215,163167,1,8,0:3:0:0:
146,182,163253,1,4,0:3:0:0:
151,149,163339,1,4,0:3:0:0:
156,116,163424,1,0,1:2:0:0:
238,0,163596,6,0,P|304:-12|371:64,1,159.29999513855,14|0,0:2|0:0,0:0:0:0:
367,46,164110,1,0,1:2:0:0:
445,313,164453,2,0,P|450:273|458:234,1,79.649997569275,14|0,0:2|0:0,0:0:0:0:
512,158,164796,1,2,1:2:0:0:
364,249,164968,6,0,P|324:241|286:231,1,79.649997569275,8|0,0:2|0:0,0:0:0:0:
138,135,165310,1,8,0:3:0:0:
215,98,165482,2,0,P|225:137|213:177,1,79.649997569275,4|0,0:3|0:0,0:0:0:0:
79,314,165825,2,0,P|73:274|67:235,1,79.649997569275,10|0,0:2|0:0,0:0:0:0:
61,205,166082,1,8,0:2:0:0:
61,205,166168,1,2,1:2:0:0:
235,271,166339,6,0,P|195:263|156:255,1,79.649997569275,8|0,0:2|1:2,0:0:0:0:
310,127,166682,1,0,0:0:0:0:
310,127,166853,2,0,P|321:182|326:218,1,79.649997569275,0|0,1:2|0:0,0:0:0:0:
472,326,167196,2,0,B|498:299|498:299|401:321,1,119.474996353912,10|0,0:2|0:0,0:0:0:0:
396,309,167539,2,0,P|383:262|419:223,1,79.649997569275,2|0,1:2|0:0,0:0:0:0:
490,134,167882,6,0,P|441:147|395:161,1,79.649997569275,0|0,1:2|0:0,0:0:0:0:
256,85,168225,1,8,0:2:0:0:
411,44,168396,1,0,0:0:0:0:
322,164,168568,5,10,0:2:0:0:
333,82,168739,1,4,0:3:0:0:
344,0,168910,1,4,0:3:0:0:
223,168,169082,6,0,P|171:121|75:148,1,159.29999513855,6|0,1:2|1:2,0:0:0:0:
211,272,169596,2,0,P|255:255|309:244,1,79.649997569275,8|0,0:2|1:2,0:0:0:0:
142,206,169939,1,8,0:2:0:0:
64,343,170110,1,8,0:2:0:0:
211,272,170282,5,10,0:2:0:0:
406,378,170453,2,0,P|391:299|374:187,1,159.29999513855,4|8,1:2|0:2,0:0:0:0:
478,62,170968,2,0,P|469:106|465:150,1,79.649997569275,10|10,0:2|0:2,0:0:0:0:
460,171,171225,1,8,0:2:0:0:
460,171,171310,2,0,P|426:159|401:156,1,39.8249987846375,8|8,0:2|0:2,0:0:0:0:
328,86,171482,2,0,P|308:91|290:98,1,39.8249987846375,8|8,0:2|0:2,0:0:0:0:
173,196,171653,5,10,0:2:0:0:
169,156,171738,1,8,0:2:0:0:
164,116,171824,1,10,0:2:0:0:
158,77,171910,1,8,0:2:0:0:
150,38,171996,6,0,P|84:38|90:122,1,159.29999513855,4|8,1:1|0:2,0:0:0:0:
230,32,172510,1,0,0:0:0:0:
350,135,172682,1,0,1:2:0:0:
263,195,172853,2,0,P|255:146|244:96,1,79.649997569275,0|8,1:2|0:2,0:0:0:0:
104,291,173196,6,0,B|138:324|138:324|185:313|254:298,1,159.29999513855,2|0,1:2|1:2,0:0:0:0:
378,324,173710,2,0,P|378:272|346:234,1,79.649997569275,10|0,0:2|0:0,0:0:0:0:
338,242,173968,1,8,0:2:0:0:
338,242,174053,2,0,P|380:231|423:218,1,79.649997569275,2|0,1:2|1:2,0:0:0:0:
512,171,174396,2,0,P|496:126|408:146,1,119.474996353912,10|0,0:2|0:0,0:0:0:0:
376,65,174739,6,0,P|392:129|416:228,1,159.29999513855,2|8,1:2|0:2,0:0:0:0:
264,127,175253,1,10,0:2:0:0:
264,127,175339,1,8,0:2:0:0:
264,127,175425,2,0,P|274:73|284:25,1,79.649997569275,2|0,1:2|1:2,0:0:0:0:
286,19,175682,1,0,1:0:0:0:
286,19,175768,1,8,0:2:0:0:
101,108,175939,6,0,P|149:93|206:78,1,79.649997569275,2|0,1:2|0:0,0:0:0:0:
92,203,176282,1,0,1:2:0:0:
92,203,176453,1,10,0:2:0:0:
180,256,176625,2,0,P|172:215|165:194,2,39.8249987846375,10|0|0,0:2|1:0|1:2,0:0:0:0:
205,369,176968,1,2,1:2:0:0:
269,232,177139,1,10,0:2:0:0:
100,288,177310,1,2,0:0:0:0:
340,310,177482,6,0,P|368:251|339:153,1,159.29999513855,6|8,1:2|0:2,0:0:0:0:
476,59,177996,1,10,0:2:0:0:
476,59,178082,1,8,0:2:0:0:
476,59,178168,1,2,1:2:0:0:
495,200,178339,1,2,1:2:0:0:
395,90,178510,1,8,0:2:0:0:
266,211,178682,6,0,B|230:174|182:187|182:187|160:221|120:223,1,159.29999513855,6|2,1:2|1:2,0:0:0:0:
17,298,179196,2,0,P|36:263|31:224,1,79.649997569275,10|10,0:2|0:2,0:0:0:0:
6,195,179453,1,0,1:0:0:0:
6,195,179539,1,2,1:2:0:0:
151,107,179710,1,2,1:2:0:0:
0,27,179882,1,10,0:2:0:0:
74,127,180053,5,2,1:2:0:0:
74,127,180139,1,0,1:0:0:0:
74,127,180225,2,0,P|148:107|183:94,1,79.649997569275,4|0,1:2|0:0,0:0:0:0:
232,30,180568,1,8,0:2:0:0:
340,86,180739,5,4,0:3:0:0:
340,86,180825,1,4,0:3:0:0:
340,86,180910,2,0,P|330:130|327:153,1,39.8249987846375,8|8,0:3|0:3,0:0:0:0:
258,187,181082,2,0,P|263:206|267:225,1,39.8249987846375,4|4,0:3|0:3,0:0:0:0:
398,346,181253,1,0,1:2:0:0:
398,346,181339,1,0,0:0:0:0:
397,346,181425,2,0,P|422:293|393:243,1,119.474996353912,4|0,1:2|0:0,0:0:0:0:
400,201,181768,6,0,P|374:208|338:217,2,39.8249987846375,10|0|0,0:2|0:0|0:0,0:0:0:0:
228,338,182110,1,12,0:2:0:0:
267,225,182282,1,8,0:3:0:0:
94,165,182453,1,4,0:3:0:0:
94,165,182539,1,4,0:3:0:0:
94,165,182625,1,4,0:3:0:0:
169,270,182796,5,10,0:2:0:0:
169,270,182882,1,8,0:2:0:0:
169,270,182968,2,0,P|178:203|201:95,1,159.29999513855,6|0,1:2|0:0,0:0:0:0:
196,113,183482,1,0,1:2:0:0:
433,69,183653,2,0,P|351:64|325:0,1,159.29999513855,10|2,0:2|1:2,0:0:0:0:
324,0,184168,6,0,P|347:63|349:146,1,119.474996353912,10|0,0:2|0:0,0:0:0:0:
358,156,184510,2,0,P|307:138|265:130,1,79.649997569275,8|0,0:2|0:0,0:0:0:0:
138,33,184853,1,0,1:2:0:0:
61,55,185025,2,0,P|98:41|137:32,1,79.649997569275,8|8,0:2|0:3,0:0:0:0:
196,113,185368,1,8,0:3:0:0:
196,113,185539,1,4,0:3:0:0:
23,221,185710,6,0,B|85:232|85:232|109:258|109:258|168:269,1,159.29999513855,6|0,1:2|0:0,0:0:0:0:
288,224,186225,1,0,1:2:0:0:
288,224,186310,1,0,1:2:0:0:
288,224,186396,2,0,P|276:270|269:325,1,79.649997569275,10|2,0:2|1:2,0:0:0:0:
201,190,186739,1,10,0:2:0:0:
379,277,186910,6,0,P|410:229|382:156,1,119.474996353912,6|0,1:2|0:0,0:0:0:0:
424,125,187253,2,0,P|380:141|335:149,1,79.649997569275,8|2,0:2|1:2,0:0:0:0:
168,99,187596,1,0,1:2:0:0:
315,0,187768,1,10,0:2:0:0:
260,134,187939,1,0,1:0:0:0:
260,134,188025,1,8,1:2:0:0:
260,134,188110,1,10,1:2:0:0:
99,11,188282,6,0,P|70:53|85:182,1,177,6|2,1:2|1:2,0:0:0:0:
51,243,188710,1,0,1:2:0:0:
51,243,188796,2,0,P|109:225|170:214,1,88.5,10|2,0:2|1:2,0:0:0:0:
255,337,189139,1,10,0:2:0:0:
304,174,189310,1,2,1:2:0:0:
420,285,189482,1,10,0:2:0:0:
256,239,189653,6,0,B|207:198|207:198|221:136|240:68,1,177,6|2,1:2|1:2,0:0:0:0:
386,22,190168,1,10,0:2:0:0:
304,174,190339,1,2,1:2:0:0:
495,88,190510,1,10,0:2:0:0:
435,196,190682,1,8,1:3:0:0:
435,196,190768,1,4,1:3:0:0:
435,196,190853,1,0,1:2:0:0:
296,30,191025,6,0,P|214:7|152:65,1,177,6|2,1:2|1:2,0:0:0:0:
199,251,191539,2,0,P|207:282|214:320,2,44.25,10|8|10,1:2|1:2|1:2,1:0:0:0:
103,166,191882,1,8,0:3:0:0:
134,156,191967,1,8,0:3:0:0:
166,148,192053,1,8,0:3:0:0:
199,140,192139,1,4,0:3:0:0:
231,134,192225,2,0,P|224:171|222:210,1,44.25,4|4,0:3|0:3,0:0:0:0:
186,368,192396,6,0,B|141:358|149:318|101:309|101:309|144:272|204:259|254:289|234:367|314:426|402:390|453:305|416:244|370:235|330:232|310:287,1,557.549982984925,4|4,1:1|1:1,0:0:0:0:
431,36,203882,6,0,P|418:83|414:133,1,70.8,2|8,0:0|0:2,0:0:0:0:
416,135,204139,1,8,0:2:0:0:
416,135,204225,1,8,0:2:0:0:
313,73,204396,1,8,0:3:0:0:
243,214,204568,1,4,0:3:0:0:
331,162,204739,1,0,1:2:0:0:
505,293,204910,6,0,P|435:305|367:325,1,141.6,4|2,1:2|0:0,0:0:0:0:
302,384,205425,2,0,P|337:335|290:249,1,141.6,0|0,1:2|0:0,0:0:0:0:
169,159,205939,2,0,P|156:216|153:250,1,70.8,8|2,0:2|0:0,0:0:0:0:
154,228,206453,6,0,P|102:212|10:198,1,141.6,0|0,1:2|0:0,0:0:0:0:
74,355,206968,2,0,P|90:321|87:271,1,70.8,2|0,1:2|0:0,0:0:0:0:
57,88,207310,2,0,P|16:110|32:174,1,106.2,10|0,0:2|0:0,0:0:0:0:
16,198,207653,6,0,B|97:196|64:146|157:141,1,141.6,0|2,1:2|0:0,0:0:0:0:
191,71,208168,2,0,B|244:113|244:113|322:99,1,141.6,0|0,1:2|0:0,0:0:0:0:
389,62,208682,2,0,P|340:109|350:177,1,141.6,10|0,0:2|0:0,0:0:0:0:
469,232,209196,6,0,P|461:197|455:162,1,70.8,0|0,1:2|0:0,0:0:0:0:
374,319,209539,1,0,0:0:0:0:
374,319,209710,2,0,P|381:284|387:249,1,70.8,0|0,1:2|0:0,0:0:0:0:
267,192,210053,2,0,P|224:221|226:271,1,106.2,4|0,0:3|0:0,0:0:0:0:
253,299,210396,6,0,B|170:305|214:357|111:363,1,141.6,0|0,1:2|0:0,0:0:0:0:
48,326,210910,2,0,P|85:354|96:280,1,141.6,0|0,1:2|0:0,0:0:0:0:
163,170,211425,2,0,P|175:204|181:239,1,70.8,8|0,0:2|0:0,0:0:0:0:
18,192,211768,1,0,0:0:0:0:
18,192,211939,2,0,P|25:131|41:75,1,106.2,0|0,1:2|0:0,0:0:0:0:
48,74,212282,5,8,0:2:0:0:
48,74,212453,1,0,1:2:0:0:
148,9,212625,1,0,1:2:0:0:
148,9,212710,1,0,1:2:0:0:
148,9,212796,2,0,P|137:61|126:140,1,106.2,12|0,0:2|0:0,0:0:0:0:
186,165,213139,5,4,1:2:0:0:
316,92,213310,1,0,0:0:0:0:
300,263,213482,2,0,P|291:221|275:165,1,70.8,8|8,0:2|0:2,0:0:0:0:
224,82,213825,1,8,0:2:0:0:
364,180,213996,1,8,0:2:0:0:
375,21,214168,1,8,0:2:0:0:
209,237,214339,6,0,P|123:260|41:292,1,177,4|8,1:2|0:2,0:0:0:0:
9,279,214768,1,8,0:2:0:0:
9,279,214853,2,0,P|7:256|3:235,1,44.25,8|8,0:2|0:2,0:0:0:0:
79,137,215025,2,0,P|74:158|72:180,1,44.25,8|8,0:2|0:2,0:0:0:0:
171,333,215196,5,8,0:2:0:0:
210,351,215281,1,8,0:2:0:0:
254,350,215367,1,4,0:3:0:0:
292,329,215453,1,4,0:3:0:0:
317,293,215538,1,8,0:3:0:0:
347,279,215624,1,8,0:3:0:0:
380,279,215710,1,4,0:3:0:0:
411,290,215796,1,4,0:3:0:0:
435,313,215882,6,0,P|419:252|401:118,1,177,4|10,1:1|0:2,0:0:0:0:
504,26,216396,1,0,0:0:0:0:
504,26,216482,1,0,0:0:0:0:
504,26,216568,2,0,P|466:57|411:51,1,88.5,0|0,1:2|1:2,0:0:0:0:
302,0,216910,1,8,0:2:0:0:
402,140,217082,6,0,B|307:148|346:208|249:217,1,177,0|0,1:2|1:2,0:0:0:0:
91,288,217596,2,0,P|88:222|103:169,1,88.5,10|0,0:2|0:0,0:0:0:0:
105,174,217853,1,8,1:2:0:0:
105,174,217939,1,2,1:2:0:0:
249,216,218110,1,0,1:2:0:0:
132,65,218282,2,0,P|77:80|15:93,1,88.5,10|2,0:2|0:0,0:0:0:0:
91,288,218625,6,0,P|174:267|236:325,1,177,0|10,1:0|0:2,0:0:0:0:
404,260,219139,2,0,P|398:238|391:217,2,44.25,0|8|0,0:0|1:2|1:2,0:0:0:0:
437,363,219482,1,0,1:2:0:0:
503,227,219653,1,8,0:2:0:0:
286,180,219825,6,0,P|311:259|334:357,1,177,0|0,1:2|1:2,0:0:0:0:
449,159,220339,2,0,P|450:116|410:71,1,88.5,8|0,0:2|0:0,0:0:0:0:
402,65,220596,1,0,0:0:0:0:
402,65,220682,1,2,1:2:0:0:
286,180,220853,1,2,1:2:0:0:
138,102,221025,1,10,0:2:0:0:
232,10,221196,5,2,0:2:0:0:
232,10,221282,1,0,0:0:0:0:
232,10,221368,2,0,P|221:83|199:207,1,177,4|10,1:2|0:2,0:0:0:0:
57,79,221882,1,2,1:2:0:0:
57,79,221968,1,0,1:0:0:0:
57,79,222053,1,0,1:2:0:0:
0,192,222225,2,0,P|62:172|103:162,1,88.5,2|8,1:2|0:2,0:0:0:0:
252,320,222568,6,0,P|167:294|80:277,1,177,6|0,1:2|1:2,0:0:0:0:
230,106,223082,2,0,P|223:151|212:211,1,88.5,10|0,0:2|0:0,0:0:0:0:
233,222,223339,1,8,1:2:0:0:
233,222,223425,2,0,P|284:226|312:191,1,88.5,2|0,1:2|1:2,0:0:0:0:
495,144,223768,2,0,P|462:116|419:123,1,88.5,10|0,0:2|0:0,0:0:0:0:
378,103,224025,5,0,1:0:0:0:
378,103,224110,2,0,P|393:184|398:217,1,88.5,6|0,1:2|0:0,0:0:0:0:
470,354,224453,2,0,P|471:320|384:293,1,132.75,10|0,0:2|0:0,0:0:0:0:
356,279,224796,5,4,1:2:0:0:
192,357,224968,1,0,1:2:0:0:
255,243,225139,2,0,P|277:307|283:354,1,88.5,8|0,0:2|0:0,0:0:0:0:
67,186,225482,5,4,1:2:0:0:
161,262,225653,2,0,P|170:218|186:177,1,88.5,0|10,1:2|0:2,0:0:0:0:
204,155,225910,1,0,0:0:0:0:
204,155,225996,1,0,0:0:0:0:
147,53,226168,5,10,0:2:0:0:
173,33,226253,1,8,0:2:0:0:
206,27,226339,1,8,0:2:0:0:
237,36,226425,1,8,0:2:0:0:
262,57,226510,1,10,0:2:0:0:
286,78,226596,1,8,0:2:0:0:
318,86,226682,1,10,0:2:0:0:
350,80,226768,1,8,0:2:0:0:
378,61,226853,6,0,B|423:80|436:127|400:170|400:170|378:155|346:155,1,177,4|10,1:1|0:2,0:0:0:0:
223,272,227368,1,0,0:0:0:0:
223,272,227453,1,0,0:0:0:0:
223,272,227539,2,0,P|265:261|309:253,1,88.5,0|0,1:2|1:2,0:0:0:0:
157,184,227882,1,8,0:2:0:0:
83,365,228053,6,0,P|49:301|84:196,1,177,4|0,1:2|1:2,0:0:0:0:
247,148,228568,2,0,P|236:197|229:241,1,88.5,10|0,0:2|0:0,0:0:0:0:
227,269,228825,1,0,0:0:0:0:
227,269,228910,1,2,1:2:0:0:
296,369,229082,1,0,1:2:0:0:
134,282,229253,1,10,0:2:0:0:
331,202,229425,5,0,0:0:0:0:
331,202,229510,1,0,0:0:0:0:
331,202,229596,2,0,P|401:213|451:233,1,88.5,6|0,1:2|0:0,0:0:0:0:
446,233,229853,1,0,0:0:0:0:
446,233,229939,1,8,0:2:0:0:
509,69,230110,6,0,P|460:117|391:95,1,132.75,2|0,1:2|0:0,0:0:0:0:
324,111,230453,2,0,P|334:60|347:14,1,88.5,2|8,1:2|0:2,0:0:0:0:
224,185,230796,6,0,B|189:177|171:142|171:142|106:122|66:177,1,177,6|0,1:2|1:2,0:0:0:0:
33,152,231225,1,0,1:0:0:0:
33,152,231310,2,0,P|42:203|50:262,1,88.5,8|0,0:2|0:0,0:0:0:0:
4,363,231653,1,0,1:2:0:0:
136,248,231825,5,10,0:2:0:0:
136,248,231910,1,8,0:2:0:0:
136,248,231996,1,10,0:2:0:0:
253,359,232168,2,0,P|237:271|223:184,1,177,4|0,1:1|1:2,0:0:0:0:
388,104,232682,1,10,0:2:0:0:
345,221,232853,1,2,1:2:0:0:
296,38,233025,1,8,0:2:0:0:
475,157,233196,2,0,P|506:113|500:60,1,88.5,2|8,1:2|0:2,0:0:0:0:
272,125,233539,6,0,P|189:157|101:168,1,177,6|0,1:2|1:2,0:0:0:0:
3,21,234053,1,10,0:2:0:0:
176,74,234225,1,2,1:2:0:0:
26,210,234396,1,8,0:0:0:0:
57,100,234568,1,4,0:3:0:0:
57,100,234653,1,0,0:0:0:0:
57,100,234739,2,0,P|82:92|127:83,3,44.25,8|8|4|4,0:3|0:3|0:3|0:3,0:0:0:0:
181,154,235082,6,0,P|171:210|156:296,1,132.75,4|0,1:2|0:0,0:0:0:0:
134,355,235425,2,0,P|169:330|212:333,1,88.5,10|0,0:2|0:0,0:0:0:0:
240,360,235682,1,8,0:2:0:0:
240,360,235768,1,2,1:2:0:0:
391,282,235939,1,0,1:2:0:0:
282,214,236110,1,10,0:2:0:0:
446,376,236282,6,0,P|476:294|460:207,1,177,6|0,1:2|1:2,0:0:0:0:
348,104,236796,2,0,P|358:147|367:190,1,88.5,8|0,0:2|0:0,0:0:0:0:
485,69,237139,1,8,0:2:0:0:
267,130,237310,5,8,0:2:0:0:
267,130,237395,1,8,0:2:0:0:
267,130,237482,2,0,P|231:121|198:117,1,44.25,8|8,0:2|0:2,0:0:0:0:
25,81,237653,2,0,P|49:36|179:43,1,177,4|0,1:2|1:2,0:0:0:0:
140,235,238168,6,0,P|129:175|120:119,1,88.5,8|0,0:2|1:2,0:0:0:0:
311,54,238510,1,8,0:2:0:0:
292,232,238682,1,0,1:2:0:0:
223,119,238853,1,8,0:2:0:0:
462,186,239025,6,0,P|383:199|283:236,1,177,4|0,1:2|1:2,0:0:0:0:
134,352,239539,1,8,0:2:0:0:
178,191,239710,1,0,1:2:0:0:
178,191,239796,1,4,1:3:0:0:
178,191,239882,2,0,P|195:232|202:261,1,44.25,8|8,0:3|0:3,0:0:0:0:
50,336,240053,2,0,P|57:315|66:295,1,44.25,8|8,0:3|0:3,0:0:0:0:
259,305,240225,5,8,0:3:0:0:
259,305,240310,1,8,0:3:0:0:
259,305,240396,2,0,P|339:302|249:157,1,345.149984200288,4|8,1:1|0:2,0:0:0:0:
144,22,241596,5,8,0:3:0:0:
135,41,241681,1,8,0:3:0:0:
135,62,241767,1,4,0:3:0:0:
140,83,241853,1,4,0:3:0:0:
152,101,241939,6,0,P|204:86|300:66,1,132.75,4|0,1:2|0:0,0:0:0:0:
334,22,242282,2,0,P|325:80|322:120,1,88.5,10|0,0:2|0:0,0:0:0:0:
327,145,242539,1,0,0:0:0:0:
327,145,242625,1,2,1:2:0:0:
467,254,242796,1,0,1:2:0:0:
463,103,242968,1,10,0:2:0:0:
345,270,243139,6,0,B|305:231|252:255|252:255|239:298|175:313,1,177,6|0,1:2|1:2,0:0:0:0:
109,378,243653,2,0,P|103:322|86:260,1,88.5,8|0,0:2|0:0,0:0:0:0:
71,273,243910,1,0,0:0:0:0:
71,273,243996,1,0,1:2:0:0:
177,205,244168,1,0,1:2:0:0:
1,156,244339,1,10,0:2:0:0:
180,48,244510,1,0,0:0:0:0:
89,182,244682,6,0,P|79:132|65:86,1,88.5,4|0,1:2|0:0,0:0:0:0:
250,2,245025,2,0,P|300:5|331:43,1,88.5,10|0,0:2|0:0,0:0:0:0:
332,58,245282,1,8,0:2:0:0:
332,58,245368,1,2,1:2:0:0:
176,148,245539,1,0,1:2:0:0:
359,215,245710,1,10,0:2:0:0:
252,104,245882,6,0,P|267:191|281:282,1,177,6|0,1:2|1:2,0:0:0:0:
453,358,246396,2,0,P|412:323|374:331,1,88.5,8|0,0:2|0:0,0:0:0:0:
355,351,246653,1,0,0:0:0:0:
355,351,246739,1,0,1:2:0:0:
492,266,246910,1,0,1:2:0:0:
351,171,247082,1,10,0:2:0:0:
351,171,247168,1,0,0:0:0:0:
351,171,247253,2,0,P|357:205|362:239,1,44.25
237,331,247425,6,0,P|171:314|85:298,1,132.75,4|0,1:2|0:0,0:0:0:0:
41,323,247768,2,0,P|69:282|61:234,1,88.5,10|0,0:2|0:0,0:0:0:0:
45,223,248025,1,0,0:0:0:0:
45,223,248110,1,2,1:2:0:0:
210,168,248282,1,0,1:2:0:0:
110,54,248453,5,10,0:2:0:0:
110,54,248539,1,0,0:0:0:0:
110,54,248625,2,0,P|122:133|141:243,1,177,6|0,1:2|1:2,0:0:0:0:
292,87,249139,2,0,P|241:76|199:60,1,88.5,8|0,0:2|0:0,0:0:0:0:
193,43,249396,1,0,0:0:0:0:
193,43,249482,1,0,1:2:0:0:
210,168,249653,1,0,1:2:0:0:
357,34,249825,5,10,0:2:0:0:
357,34,249910,1,8,0:2:0:0:
357,34,249996,2,0,P|422:23|476:131,1,177,4|0,1:2|1:2,0:0:0:0:
417,284,250510,2,0,P|407:232|393:181,1,88.5,8|0,0:2|1:2,0:0:0:0:
388,172,250768,1,0,1:2:0:0:
388,172,250853,1,8,0:2:0:0:
302,260,251025,1,0,1:2:0:0:
172,130,251196,1,8,0:2:0:0:
34,310,251368,6,0,P|73:263|166:278,1,132.75,4|0,1:2|0:0,0:0:0:0:
228,233,251710,2,0,P|216:276|214:293,3,44.25,8|0|8|8,0:2|0:0|0:2|0:2,0:0:0:0:
333,376,252053,2,0,P|328:354|321:333,3,44.25,8|8|8|8,0:2|0:2|0:2|0:2,0:0:0:0:
398,201,252396,1,8,0:2:0:0:
430,195,252481,1,8,0:2:0:0:
460,207,252567,1,8,0:2:0:0:
478,235,252653,1,8,0:2:0:0:
478,267,252739,2,0,P|443:277|411:292,1,44.25,8|8,0:2|0:2,0:0:0:0:
256,192,253253,5,4,1:1:0:0:
256,192,253339,12,0,258396,0:0:0:0:
