osu file format v14

[General]
AudioFilename: audio.mp3
AudioLeadIn: 0
PreviewTime: 76
Countdown: 0
SampleSet: Soft
StackLeniency: 0.7
Mode: 0
LetterboxInBreaks: 0
WidescreenStoryboard: 1

[Editor]
DistanceSpacing: 1
BeatDivisor: 4
GridSize: 4
TimelineZoom: 1

[Metadata]
Title:Wii Sports Resort Theme
TitleUnicode:Wii Sports Resort Theme
Artist:Nagamatsu Ryo
ArtistUnicode:永松亮
Creator:Nyantiaz
Version:Normal
Source:Wii Sports Resort
Tags:スポーツ リゾート instrumental nintendo piano video game title screen
BeatmapID:2427131
BeatmapSetID:1163451

[Difficulty]
HPDrainRate:3.5
CircleSize:3
OverallDifficulty:4
ApproachRate:5
SliderMultiplier:1.2
SliderTickRate:1

[Events]
//Background and Video events
0,0,"wuhu island.jpg",0,0
//Break Periods
//Storyboard Layer 0 (Background)
//Storyboard Layer 1 (Fail)
//Storyboard Layer 2 (Pass)
//Storyboard Layer 3 (Foreground)
//Storyboard Layer 4 (Overlay)
//Storyboard Sound Samples

[TimingPoints]
137,483.870967741935,4,2,1,25,1,0
1830,-100,4,2,1,25,0,0
3524,-100,4,2,1,5,0,0
3994,480,4,2,1,25,1,0
3994,-100,4,2,1,35,0,0
5914,483.870967741935,4,2,1,25,1,0
7849,487.80487804878,4,2,1,25,1,0
11728,483.870967741935,4,2,1,25,1,0
11728,-100,4,2,1,50,0,0
27211,-100,4,2,1,45,0,0
34953,-100,4,2,1,50,0,0
42695,-100,4,2,1,40,0,0
58179,-100,4,2,1,50,0,0
77534,-100,4,2,1,35,0,0
81400,483.870967741935,4,2,1,25,1,0
81400,-100,4,2,1,35,0,0

[Colours]
Combo1 : 0,234,58
Combo2 : 0,255,255
Combo3 : 18,124,255
Combo4 : 0,255,128
SliderBorder : 255,255,255
SliderTrackOverride : 0,26,26

[HitObjects]
47,115,137,5,2,0:0:0:0:
47,115,378,2,0,L|121:112,2,60,0|2|0,0:0|0:0|0:0,0:0:0:0:
22,170,1104,2,0,L|25:230,1,60,2|0,0:0|0:0,0:0:0:0:
32,294,1588,1,2,0:0:0:0:
32,294,1830,1,2,0:0:0:0:
467,55,3994,6,0,P|430:72|342:63,1,120,4|2,0:0|0:0,0:0:0:0:
307,27,4714,2,0,L|313:170,1,120,2|0,0:0|0:0,0:0:0:0:
312,207,5434,1,0,0:0:0:0:
193,198,5914,1,4,0:3:0:0:
207,320,6397,1,2,0:0:0:0:
207,320,6639,2,0,P|297:351|391:324,1,180,2|2,0:0|0:0,0:0:0:0:
478,268,7849,6,0,L|474:133,1,120,4|2,0:0|0:0,0:0:0:0:
475,88,8580,2,0,P|402:82|349:100,1,120,2|0,0:0|0:0,0:0:0:0:
317,139,9312,1,2,0:0:0:0:
271,28,9800,2,0,P|198:34|145:16,1,120,4|2,0:3|0:0,0:0:0:0:
116,67,10531,1,2,0:0:0:0:
86,119,10775,2,0,P|91:161|93:194,1,60,4|4,0:3|0:3,0:0:0:0:
41,211,11263,2,0,P|36:253|34:286,1,60,4|4,0:3|0:3,0:0:0:0:
79,321,11728,6,0,L|208:319,1,120,4|8,0:0|0:0,0:0:0:0:
317,292,12695,2,0,L|446:294,1,120,2|8,0:0|0:0,0:0:0:0:
495,188,13663,2,0,P|507:131|498:79,1,90,2|0,0:0|0:0,0:0:0:0:
457,29,14389,1,0,0:0:0:0:
457,29,14631,2,0,P|391:35|338:32,1,120,2|8,0:0|0:0,0:0:0:0:
224,72,15598,6,0,P|212:129|221:181,1,90,2|0,0:0|0:0,0:0:0:0:
271,231,16324,1,0,0:0:0:0:
271,231,16566,1,2,0:0:0:0:
387,202,17050,2,0,L|381:270,1,60,8|0,0:0|0:0,0:0:0:0:
374,322,17534,5,2,0:0:0:0:
287,346,17897,2,0,P|246:347|216:340,2,60,0|2|2,0:0|0:0|0:0,0:0:0:0:
162,262,18986,2,0,L|87:260,1,60,8|0,0:0|0:0,0:0:0:0:
51,226,19469,6,0,L|48:102,1,120,2|8,0:0|0:0,0:0:0:0:
153,48,20437,2,0,L|150:167,1,120,2|8,0:0|0:0,0:0:0:0:
250,233,21405,2,0,P|294:239|355:223,2,90,4|4|4,0:0|0:0|0:0,0:0:0:0:
346,80,22857,1,8,0:0:0:0:
458,121,23340,6,0,P|453:180|456:228,1,90,2|0,0:0|0:0,0:0:0:0:
486,261,23945,2,0,L|482:332,1,60,0|2,0:0|0:0,0:0:0:0:
337,361,24792,1,8,0:0:0:0:
225,317,25276,2,0,P|158:300|121:302,1,90,4|4,0:0|0:0,0:0:0:0:
78,311,25881,1,4,0:0:0:0:
78,311,26123,1,4,0:0:0:0:
146,177,26727,1,4,0:0:0:0:
73,81,27211,6,0,P|122:58|188:69,1,120,4|2,0:0|0:0,0:0:0:0:
290,125,28179,2,0,P|339:148|405:137,1,120,8|2,0:0|0:0,0:0:0:0:
461,118,28905,1,0,0:0:0:0:
461,118,29147,2,0,P|454:177|459:245,1,120,2|2,0:0|0:0,0:0:0:0:
496,350,30115,2,0,P|454:363|378:348,1,120,8|2,0:0|0:3,0:0:0:0:
343,309,30840,1,0,0:0:0:0:
343,309,31082,5,2,0:0:0:0:
228,344,31566,1,8,0:0:0:0:
118,295,32050,2,0,P|124:240|118:175,1,120,2|8,0:0|0:0,0:0:0:0:
78,138,32776,1,0,0:0:0:0:
78,138,33018,2,0,P|119:143|206:132,1,120,2|8,0:0|0:0,0:0:0:0:
285,53,33986,2,0,L|351:55,1,60,2|0,0:0|0:0,0:0:0:0:
402,35,34469,1,4,0:3:0:0:
476,129,34953,6,0,P|457:176|453:240,1,90,4|0,0:0|0:0,0:0:0:0:
481,299,35679,1,0,0:0:0:0:
361,300,36162,1,0,0:0:0:0:
304,281,36405,2,0,L|302:346,1,60,8|0,0:0|0:0,0:0:0:0:
246,363,36889,2,0,L|150:364,1,90,2|0,0:0|0:0,0:0:0:0:
80,314,37615,2,0,B|95:255|95:255|79:174,1,120,0|0,0:0|0:0,0:0:0:0:
119,148,38340,2,0,L|185:152,1,60,8|0,0:0|0:0,0:0:0:0:
231,122,38824,6,0,L|297:118,2,60,4|0|8,0:0|0:0|0:0,0:0:0:0:
209,65,39550,1,4,0:0:0:0:
319,19,40034,2,0,L|378:22,1,60,0|8,0:0|0:0,0:0:0:0:
439,26,40518,1,4,0:0:0:0:
480,138,41002,2,0,L|421:134,1,60,4|4,0:3|0:3,0:0:0:0:
372,170,41486,1,4,0:0:0:0:
253,148,41969,2,0,L|235:213,1,60,0|8,0:0|0:0,0:0:0:0:
261,265,42453,1,0,0:0:0:0:
261,265,42695,6,0,P|264:323|255:390,1,120,4|0,0:0|0:0,0:0:0:0:
136,375,43663,2,0,P|133:317|139:292,1,60,2|0,0:0|0:0,0:0:0:0:
172,269,44147,2,0,P|175:211|169:186,1,60,8|0,0:0|0:0,0:0:0:0:
124,175,44631,2,0,P|49:167|3:130,1,120,2|0,0:0|0:0,0:0:0:0:
62,32,45598,2,0,P|137:40|183:77,1,120,2|8,0:0|0:0,0:0:0:0:
221,111,46324,1,0,0:0:0:0:
221,111,46566,6,0,P|282:102|352:83,1,120,2|0,0:0|0:0,0:0:0:0:
439,21,47534,2,0,P|458:54|464:81,1,60,2|0,0:0|0:0,0:0:0:0:
498,124,48018,2,0,P|479:157|473:184,1,60,8|0,0:0|0:0,0:0:0:0:
490,235,48502,1,2,0:0:0:0:
371,235,48985,1,2,0:0:0:0:
289,323,49469,2,0,L|159:320,1,120,2|2,0:0|0:0,0:0:0:0:
65,259,50437,6,0,P|81:173|74:129,1,120,4|0,0:0|0:0,0:0:0:0:
42,92,51163,1,0,0:0:0:0:
42,92,51405,2,0,L|120:85,1,60,2|0,0:0|0:0,0:0:0:0:
144,43,51889,2,0,L|222:50,1,60,8|0,0:0|0:0,0:0:0:0:
247,90,52373,2,0,L|240:219,1,120,2|0,0:0|0:0,0:0:0:0:
225,328,53340,1,2,0:0:0:0:
341,356,53824,1,8,0:0:0:0:
449,304,54308,6,0,L|451:235,1,60,2|2,0:0|0:0,0:0:0:0:
408,201,54792,2,0,L|406:132,1,60,2|2,0:0|0:0,0:0:0:0:
426,84,55276,2,0,P|368:89|303:77,1,120,2|8,0:0|0:0,0:0:0:0:
192,42,56244,2,0,L|190:111,1,60,4|0,0:0|0:0,0:0:0:0:
236,142,56727,2,0,L|238:211,1,60,8|0,0:0|0:0,0:0:0:0:
193,242,57211,2,0,L|191:311,1,60,2|0,0:0|0:0,0:0:0:0:
213,358,57695,1,8,0:0:0:0:
324,313,58179,6,0,P|382:329|448:316,1,120,4|8,0:0|0:0,0:0:0:0:
474,269,58905,1,0,0:0:0:0:
474,269,59147,1,2,0:0:0:0:
475,149,59630,1,8,0:0:0:0:
384,71,60115,2,0,P|326:55|260:68,1,120,2|8,0:0|0:0,0:0:0:0:
176,141,61082,2,0,L|173:206,1,60,2|0,0:0|0:0,0:0:0:0:
217,242,61566,2,0,L|220:307,1,60,8|0,0:0|0:0,0:0:0:0:
183,350,62050,6,0,P|127:352|60:337,1,120,2|8,0:0|0:0,0:0:0:0:
19,227,63018,2,0,L|17:160,1,60,2|0,0:0|0:0,0:0:0:0:
58,122,63502,2,0,L|60:55,1,60,8|0,0:0|0:0,0:0:0:0:
117,44,63986,5,2,0:0:0:0:
244,68,64469,1,8,0:0:0:0:
354,15,64953,1,2,0:0:0:0:
472,26,65436,1,8,0:0:0:0:
494,144,65921,6,0,P|477:186|476:243,2,90,2|2|0,0:0|0:0|0:0,0:0:0:0:
436,124,66889,2,0,P|380:126|313:111,1,120,2|8,0:0|0:0,0:0:0:0:
207,66,67857,2,0,L|124:68,1,60,2|0,0:0|0:0,0:0:0:0:
104,109,68340,2,0,L|1:107,2,90,8|2|0,0:0|0:0|0:0,0:0:0:0:
145,152,69308,2,0,L|143:212,1,60,8|0,0:0|0:0,0:0:0:0:
138,272,69792,5,4,0:0:0:0:
205,331,70155,2,0,P|272:340|340:329,1,120,2|2,0:0|0:0,0:0:0:0:
464,281,71244,2,0,L|466:217,1,60,8|0,0:0|0:0,0:0:0:0:
472,161,71727,1,4,0:0:0:0:
405,102,72090,2,0,P|338:93|270:104,1,120,2|4,0:0|0:0,0:0:0:0:
144,147,73179,2,0,L|72:148,1,60,4|0,0:0|0:0,0:0:0:0:
41,190,73663,6,0,P|52:237|41:314,1,120,4|8,0:0|0:0,0:0:0:0:
116,360,74510,2,0,P|162:347|285:361,1,150,0|4,0:0|0:3,0:0:0:0:
321,367,75357,1,0,0:0:0:0:
321,367,75598,2,0,L|317:247,1,120,2|8,0:0|0:0,0:0:0:0:
236,207,76445,2,0,L|244:45,1,150,0|8,0:0|0:0,0:0:0:0:
360,30,77534,6,0,P|428:45|471:40,2,90,2|0|0,0:0|0:0|0:0,0:0:0:0:
321,76,78502,1,2,0:0:0:0:
315,195,78985,1,2,0:0:0:0:
221,270,79469,2,0,P|153:255|110:260,2,90,2|0|0,0:0|0:0|0:0,0:0:0:0:
268,307,80437,1,2,0:0:0:0:
387,312,80920,1,8,0:3:0:0:
465,221,81400,5,4,0:0:0:0:
