osu file format v14

[General]
AudioFilename: audio.mp3
AudioLeadIn: 0
PreviewTime: 76
Countdown: 0
SampleSet: Soft
StackLeniency: 0.7
Mode: 0
LetterboxInBreaks: 0
WidescreenStoryboard: 0

[Editor]
DistanceSpacing: 1.2
BeatDivisor: 4
GridSize: 4
TimelineZoom: 1

[Metadata]
Title:Wii Sports Resort Theme
TitleUnicode:Wii Sports Resort Theme
Artist:Nagamatsu Ryo
ArtistUnicode:永松亮
Creator:Nyantiaz
Version:Hard
Source:Wii Sports Resort
Tags:スポーツ リゾート instrumental nintendo piano video game title screen
BeatmapID:2427130
BeatmapSetID:1163451

[Difficulty]
HPDrainRate:5
CircleSize:3.5
OverallDifficulty:6
ApproachRate:7
SliderMultiplier:1.6
SliderTickRate:1

[Events]
//Background and Video events
0,0,"wuhu island.jpg",0,0
//Break Periods
//Storyboard Layer 0 (Background)
//Storyboard Layer 1 (Fail)
//Storyboard Layer 2 (Pass)
//Storyboard Layer 3 (Foreground)
//Storyboard Layer 4 (Overlay)
//Storyboard Sound Samples

[TimingPoints]
137,483.870967741935,4,2,1,25,1,0
1830,-100,4,2,1,25,0,0
3524,-100,4,2,1,5,0,0
3994,480,4,2,1,25,1,0
3994,-100,4,2,1,35,0,0
5914,483.870967741935,4,2,1,25,1,0
7849,487.80487804878,4,2,1,25,1,0
11728,483.870967741935,4,2,1,25,1,0
11728,-100,4,2,1,50,0,0
27211,-100,4,2,1,45,0,0
34953,-100,4,2,1,50,0,0
42695,-105.263157894737,4,2,1,40,0,0
58179,-100,4,2,1,50,0,0
77534,-111.111111111111,4,2,1,35,0,0
81400,483.870967741935,4,2,1,25,1,0
81400,-100,4,2,1,35,0,0

[Colours]
Combo1 : 0,234,58
Combo2 : 0,255,255
Combo3 : 18,124,255
Combo4 : 0,255,128
SliderBorder : 255,255,255
SliderTrackOverride : 0,26,26

[HitObjects]
141,188,137,5,2,0:0:0:0:
61,197,378,2,0,L|40:84,2,80,0|2|0,0:0|0:0|0:0,0:0:0:0:
99,266,1104,2,0,P|134:275|205:257,1,80,2|0,0:0|0:0,0:0:0:0:
243,224,1588,1,2,0:0:0:0:
309,268,1830,5,2,0:0:0:0:
449,82,3994,6,0,P|400:54|308:112,1,160,4|2,0:0|0:0,0:0:0:0:
326,175,4714,1,0,0:0:0:0:
303,251,4954,2,0,P|296:304|300:344,2,80,2|0|0,0:0|0:0|0:0,0:0:0:0:
249,190,5674,1,0,0:0:0:0:
249,190,5794,1,4,0:3:0:0:
249,190,5914,6,0,L|163:193,1,80,4|0,0:3|0:0,0:0:0:0:
88,198,6397,2,0,L|83:138,1,40,2|0,0:0|0:0,0:0:0:0:
122,86,6760,2,0,P|84:77|19:109,2,80
159,101,7365,2,0,L|215:100,3,40,2|0|0|0,0:0|0:0|0:0|0:0,0:0:0:0:
234,80,7849,6,0,P|223:134|241:250,1,160,4|2,0:0|0:0,0:0:0:0:
298,288,8580,1,2,0:0:0:0:
368,250,8824,2,0,L|451:242,1,80,2|0,0:0|0:0,0:0:0:0:
495,178,9312,2,0,P|500:136|483:90,1,80,2|0,0:0|0:0,0:0:0:0:
457,75,9678,1,4,0:3:0:0:
457,75,9800,6,0,P|416:74|348:57,1,80,4|0,0:3|0:0,0:0:0:0:
341,48,10166,1,0,0:0:0:0:
341,48,10288,2,0,L|337:0,1,40,2|0,0:0|0:0,0:0:0:0:
258,21,10653,1,0,0:0:0:0:
258,21,10775,6,0,L|253:116,1,80,4|4,0:3|0:3,0:0:0:0:
212,124,11141,1,0,0:0:0:0:
212,124,11263,2,4,L|216:174,3,40,4|4|4|4,0:3|0:3|0:3|0:3,0:3:0:0:
224,215,11728,6,0,P|293:247|399:208,1,160,4|8,0:0|0:0,0:0:0:0:
446,181,12453,1,0,0:0:0:0:
405,104,12695,2,0,P|336:72|230:111,1,160,2|8,0:0|0:0,0:0:0:0:
198,155,13421,1,0,0:0:0:0:
125,107,13663,6,0,P|70:96|32:43,2,120,2|0|0,0:0|0:0|0:0,0:0:0:0:
198,155,14631,2,0,L|203:241,1,80,2|0,0:0|0:0,0:0:0:0:
126,279,15115,2,0,L|121:365,1,80,8|0,0:0|0:0,0:0:0:0:
208,369,15598,6,0,L|364:364,2,120,2|0|0,0:0|0:0|0:0,0:0:0:0:
121,358,16566,2,0,P|72:360|16:348,1,80,2|0,0:0|0:0,0:0:0:0:
11,272,17050,2,0,L|14:188,1,80,8|0,0:0|0:0,0:0:0:0:
87,143,17534,6,0,P|136:145|192:133,1,80,2|0,0:0|0:0,0:0:0:0:
206,121,17897,2,0,L|205:229,1,80,2|0,0:0|0:0,0:0:0:0:
248,278,18381,2,0,P|299:291|394:268,1,120,2|0,0:0|0:0,0:0:0:0:
431,223,18986,2,0,L|431:130,1,80,8|0,0:0|0:0,0:0:0:0:
361,89,19469,6,0,P|331:51|229:77,1,160,2|8,0:0|0:0,0:0:0:0:
183,144,20195,1,0,0:0:0:0:
101,110,20437,2,0,P|99:176|95:276,1,160,2|8,0:0|0:0,0:0:0:0:
66,353,21163,1,0,0:0:0:0:
150,328,21405,6,0,P|214:300|268:307,2,120,4|4|4,0:0|0:0|0:0,0:0:0:0:
303,376,22615,1,0,0:0:0:0:
370,319,22857,2,0,L|365:238,1,80,8|0,0:0|0:0,0:0:0:0:
313,167,23340,6,0,P|355:152|419:174,1,80,2|0,0:0|0:0,0:0:0:0:
426,180,23703,2,0,L|427:94,1,80
365,36,24187,2,0,P|305:45|226:25,1,120,2|0,0:0|0:0,0:0:0:0:
165,69,24792,2,0,L|165:155,1,80,8|0,0:0|0:0,0:0:0:0:
165,237,25276,5,4,0:0:0:0:
293,204,25639,2,0,P|289:243|293:283,1,80,4|4,0:0|0:0,0:0:0:0:
350,350,26123,1,4,0:0:0:0:
145,337,26727,2,0,P|87:340|40:330,1,80,4|0,0:0|0:0,0:0:0:0:
12,266,27211,6,0,L|12:186,1,80,4|0,0:0|0:0,0:0:0:0:
74,136,27695,1,2,0:0:0:0:
74,136,27816,2,0,P|132:133|179:143,1,80
193,142,28179,2,0,L|197:58,1,80,8|0,0:0|0:0,0:0:0:0:
275,78,28663,2,0,L|278:157,1,80,2|0,0:0|0:0,0:0:0:0:
347,218,29147,5,2,0:0:0:0:
347,218,29268,1,0,0:0:0:0:
347,218,29389,2,0,P|386:208|396:205,1,40
408,174,29631,2,0,L|404:122,2,40,2|0|0,0:0|0:0|0:0,0:0:0:0:
488,204,30115,1,8,0:0:0:0:
488,204,30236,2,0,P|485:259|486:291,1,80
499,321,30598,2,0,P|457:317|397:336,1,80,2|0,0:3|0:0,0:0:0:0:
344,350,31082,6,0,P|302:354|242:335,1,80,2|0,0:0|0:0,0:0:0:0:
213,284,31566,1,8,0:0:0:0:
213,284,31687,2,0,L|213:184,1,80
213,163,32050,2,0,P|167:169|124:159,1,80,2|0,0:0|0:0,0:0:0:0:
81,102,32534,2,0,P|59:136|61:199,1,80,8|0,0:0|0:0,0:0:0:0:
80,250,33018,6,0,P|102:284|100:347,1,80,2|0,0:0|0:0,0:0:0:0:
87,358,33381,1,0,0:0:0:0:
87,358,33502,2,0,L|40:351,2,40,8|0|0,0:0|0:0|0:0,0:0:0:0:
164,376,33986,2,0,L|253:366,1,80,2|0,0:0|0:0,0:0:0:0:
272,338,34348,1,4,0:3:0:0:
272,338,34469,2,4,L|266:287,2,40,4|4|4,0:3|0:3|0:3,0:3:0:0:
348,361,34953,6,0,P|425:366|468:318,2,120,4|0|0,0:0|0:0|0:0,0:0:0:0:
270,318,35921,2,0,L|262:235,1,80,2|0,0:0|0:0,0:0:0:0:
191,185,36405,2,0,L|199:102,1,80,8|0,0:0|0:0,0:0:0:0:
254,36,36889,6,0,P|205:17|134:50,2,120,2|0|0,0:0|0:0|0:0,0:0:0:0:
325,88,37857,2,0,P|374:92|419:85,1,80,2|0,0:0|0:0,0:0:0:0:
484,123,38340,2,0,L|485:205,1,80,8|0,0:0|0:0,0:0:0:0:
423,265,38824,6,0,P|383:261|343:265,1,80,4|0,0:0|0:0,0:0:0:0:
286,332,39308,1,8,0:0:0:0:
194,285,39550,2,0,B|131:313|131:313|31:291,1,160,4|0,0:0|0:0,0:0:0:0:
1,200,40276,1,8,0:0:0:0:
48,110,40518,6,0,B|111:82|111:82|211:104,1,160,4|4,0:0|0:3,0:0:0:0:
247,99,41123,1,4,0:3:0:0:
247,99,41244,2,4,L|255:47,2,40,4|4|4,0:3|0:3|0:3,0:3:0:0:
301,196,41727,2,0,P|342:199|412:177,1,80,4|0,0:0|0:0,0:0:0:0:
468,130,42211,1,4,0:3:0:0:
468,130,42332,1,4,0:3:0:0:
468,130,42453,1,4,0:3:0:0:
490,223,42695,6,0,P|487:288|497:340,2,113.999996955872,4|0|0,0:0|0:0|0:0,0:0:0:0:
482,147,43663,2,0,P|492:108|488:44,1,75.9999979705811,2|0,0:0|0:0,0:0:0:0:
424,37,44147,2,0,P|378:40|332:31,1,75.9999979705811,8|0,0:0|0:0,0:0:0:0:
272,29,44631,6,0,L|127:33,2,113.999996955872,2|0|0,0:0|0:0|0:0,0:0:0:0:
308,95,45598,2,0,P|303:136|303:180,1,75.9999979705811,2|0,0:0|0:0,0:0:0:0:
269,189,45961,1,0,0:0:0:0:
269,189,46082,2,0,P|274:230|274:274,1,75.9999979705811,8|0,0:0|0:0,0:0:0:0:
215,312,46566,6,0,P|139:321|82:291,2,113.999996955872,2|0|0,0:0|0:0|0:0,0:0:0:0:
274,264,47534,2,0,P|315:260|364:271,1,75.9999979705811,2|0,0:0|0:0,0:0:0:0:
409,312,48018,2,0,P|450:316|499:305,1,75.9999979705811,8|0,0:0|0:0,0:0:0:0:
504,236,48502,6,0,L|495:92,1,113.999996955872,2|0,0:0|0:0,0:0:0:0:
493,84,48986,2,0,P|451:81|407:98,1,75.9999979705811,2|0,0:0|0:0,0:0:0:0:
346,114,49469,2,0,L|336:252,1,113.999996955872,2|0,0:0|0:0,0:0:0:0:
307,251,49953,2,0,P|265:254|221:237,1,75.9999979705811,2|0,0:0|0:0,0:0:0:0:
159,223,50437,6,0,P|107:219|40:265,2,113.999996955872,4|0|0,0:0|0:0|0:0,0:0:0:0:
233,244,51405,2,0,L|237:168,1,75.9999979705811,2|0,0:0|0:0,0:0:0:0:
174,125,51889,2,0,L|179:41,1,75.9999979705811,8|0,0:0|0:0,0:0:0:0:
248,19,52373,6,0,B|298:31|298:31|390:25,2,113.999996955872,2|0|0,0:0|0:0|0:0,0:0:0:0:
178,49,53340,2,0,P|148:44|71:59,1,75.9999979705811,2|0,0:0|0:0,0:0:0:0:
69,60,53703,1,0,0:0:0:0:
69,60,53824,2,0,L|69:151,1,75.9999979705811,8|0,0:0|0:0,0:0:0:0:
122,190,54308,5,2,0:0:0:0:
47,220,54550,2,0,L|2:217,2,37.9999989852906,2|0|2,0:0|0:0|0:0,0:0:0:0:
59,299,55034,2,0,L|14:296,2,37.9999989852906,2|0|2,0:0|0:0|0:0,0:0:0:0:
74,378,55518,2,0,L|29:375,2,37.9999989852906,2|0|8,0:0|0:0|0:0,0:0:0:0:
162,349,56002,1,0,0:0:0:0:
162,349,56123,1,0,0:0:0:0:
162,349,56244,6,0,P|204:336|260:336,1,75.9999979705811,4|0,0:0|0:0,0:0:0:0:
277,333,56607,1,0,0:0:0:0:
277,333,56727,1,8,0:0:0:0:
364,362,56969,2,0,L|417:358,2,37.9999989852906,0|0|2,0:0|0:0|0:0,0:0:0:0:
404,259,57453,2,0,L|457:263,2,37.9999989852906,0|0|2,0:0|0:0|0:0,0:0:0:0:
305,216,57937,1,0,0:0:0:0:
305,216,58058,1,0,0:0:0:0:
305,216,58179,6,0,P|237:215|143:185,1,160,4|8,0:0|0:0,0:0:0:0:
115,166,58784,1,0,0:0:0:0:
142,93,59026,1,0,0:0:0:0:
142,93,59147,2,0,L|135:39,2,40,2|0|0,0:0|0:0|0:0,0:0:0:0:
221,106,59631,2,0,P|296:81|348:78,1,120,8|0,0:0|0:0,0:0:0:0:
371,97,60115,6,0,P|393:133|435:165,1,80,2|0,0:0|0:0,0:0:0:0:
481,211,60598,1,8,0:0:0:0:
481,211,60719,2,0,P|451:237|430:271,1,80
429,311,61082,1,2,0:0:0:0:
351,291,61324,1,0,0:0:0:0:
293,345,61566,1,8,0:0:0:0:
293,345,61808,1,0,0:0:0:0:
226,301,62050,6,0,L|218:209,1,80,2|0,0:0|0:0,0:0:0:0:
157,169,62534,1,8,0:0:0:0:
157,169,62655,2,0,L|165:77,1,80,2|0,0:0|0:0,0:0:0:0:
169,49,63018,1,2,0:0:0:0:
243,77,63260,1,0,0:0:0:0:
315,44,63502,1,8,0:0:0:0:
315,44,63744,1,0,0:0:0:0:
386,80,63986,6,0,P|379:120|390:190,1,80,2|0,0:0|0:0,0:0:0:0:
439,215,64469,2,0,P|446:255|435:325,1,80,8|0,0:0|0:0,0:0:0:0:
411,319,64832,1,0,0:0:0:0:
411,319,64953,2,0,L|412:369,2,40,2|0|0,0:0|0:0|0:0,0:0:0:0:
337,287,65437,2,0,P|289:286|237:300,1,80,8|0,0:0|0:0,0:0:0:0:
206,353,65921,6,0,P|182:320|181:262,1,80,2|0,0:0|0:0,0:0:0:0:
192,244,66284,2,0,P|136:236|89:222,1,80,2|0,0:0|0:0,0:0:0:0:
99,192,66647,1,0,0:0:0:0:
24,156,66889,1,2,0:0:0:0:
68,89,67131,1,0,0:0:0:0:
30,18,67373,1,8,0:0:0:0:
30,18,67615,1,0,0:0:0:0:
109,8,67857,6,0,L|192:17,1,80,2|0,0:0|0:0,0:0:0:0:
255,60,68340,2,0,L|248:133,1,40,8|0,0:0|0:0,0:0:0:0:
199,161,68703,2,0,L|206:283,1,120
269,329,69308,2,0,P|319:334|362:316,1,80,8|0,0:0|0:0,0:0:0:0:
415,283,69792,6,0,L|422:174,1,80,4|0,0:0|0:0,0:0:0:0:
424,163,70155,1,2,0:0:0:0:
345,178,70397,1,0,0:0:0:0:
282,127,70639,2,0,P|225:110|169:120,1,80,2|0,0:0|0:0,0:0:0:0:
134,148,71123,1,0,0:0:0:0:
134,148,71244,1,8,0:0:0:0:
56,128,71486,1,0,0:0:0:0:
10,194,71727,6,0,P|23:244|30:275,1,80,4|0,0:0|0:0,0:0:0:0:
24,311,72090,1,2,0:0:0:0:
102,297,72332,1,0,0:0:0:0:
168,341,72574,2,0,P|211:341|249:316,1,80,4|0,0:0|0:0,0:0:0:0:
307,276,73058,1,0,0:0:0:0:
307,276,73179,1,4,0:0:0:0:
375,316,73421,1,0,0:0:0:0:
446,280,73663,6,0,P|453:224|459:187,1,80,4|0,0:0|0:0,0:0:0:0:
404,139,74147,1,8,0:0:0:0:
404,139,74268,2,0,P|397:83|391:46,1,80
319,27,74752,1,2,0:0:0:0:
319,27,74873,1,0,0:0:0:0:
248,64,75115,2,0,P|197:68|161:56,1,80,4|0,0:3|0:0,0:0:0:0:
106,11,75598,6,0,P|92:48|99:99,1,80,2|0,0:0|0:0,0:0:0:0:
123,123,75961,1,0,0:0:0:0:
123,123,76082,2,0,L|123:166,1,40,8|0,0:0|0:0,0:0:0:0:
73,226,76445,1,0,0:0:0:0:
73,226,76566,2,0,L|69:322,1,80,2|0,0:3|0:0,0:0:0:0:
126,363,77050,1,8,0:0:0:0:
195,323,77292,1,2,0:0:0:0:
195,323,77413,1,2,0:0:0:0:
195,323,77534,6,0,B|242:343|242:343|330:325,2,107.999996704102,2|0|0,0:0|0:0|0:0,0:0:0:0:
164,248,78502,2,0,P|173:201|144:96,1,143.999995605469,2|2,0:0|0:0,0:0:0:0:
103,45,79227,1,2,0:0:0:0:
103,45,79348,1,2,0:0:0:0:
103,45,79469,6,0,B|56:25|56:25|-32:43,2,107.999996704102,2|0|0,0:0|0:0|0:0,0:0:0:0:
151,108,80437,2,2,L|299:98,1,143.999995605469,2|8,0:0|0:3,0:0:0:0:
454,85,81400,5,4,0:0:0:0:
