osu file format v14

[General]
AudioFilename: audio.ogg
AudioLeadIn: 0
PreviewTime: 27606
Countdown: 0
SampleSet: Soft
StackLeniency: 0.7
Mode: 3
LetterboxInBreaks: 0
SpecialStyle: 0
WidescreenStoryboard: 1

[Editor]
DistanceSpacing: 1.5
BeatDivisor: 4
GridSize: 4
TimelineZoom: 2

[Metadata]
Title:Cat Loving
TitleUnicode:キャットラビング
Artist:Nachoneko
ArtistUnicode:甘城なつき
Creator:[GB]Sanae
Version:Ysg's Normal
Source:
Tags:Amashiro Natsuki 香椎モイミ feat. 可不 Kashii Moimi feat. kafu japanese pop jpop j-pop vocaloid cover ML-ysg Xinhong1003
BeatmapID:4322637
BeatmapSetID:2066219

[Difficulty]
HPDrainRate:7
CircleSize:4
OverallDifficulty:7
ApproachRate:5
SliderMultiplier:1.4
SliderTickRate:1

[Events]
//Background and Video events
0,0,"3dnWxbf.jpg",0,0
//Break Periods
//Storyboard Layer 0 (Background)
//Storyboard Layer 1 (Fail)
//Storyboard Layer 2 (Pass)
//Storyboard Layer 3 (Foreground)
//Storyboard Layer 4 (Overlay)
//Storyboard Sound Samples

[TimingPoints]
1472,368.098159509202,4,2,1,100,1,0

[HitObjects]
192,192,1472,128,0,1840:0:0:0:0:
448,192,1656,1,0,0:0:0:0:
320,192,1840,128,0,2208:0:0:0:0:
64,192,2024,1,0,0:0:0:0:
448,192,2208,128,0,2576:0:0:0:0:
192,192,2392,1,0,0:0:0:0:
64,192,2576,128,0,2944:0:0:0:0:
320,192,2760,1,0,0:0:0:0:
192,192,2944,128,0,3128:0:0:0:0:
448,192,3128,128,0,3312:0:0:0:0:
64,192,3312,128,0,3496:0:0:0:0:
320,192,3496,128,0,3680:0:0:0:0:
192,192,3680,128,0,4048:0:0:0:0:
448,192,4048,1,0,0:0:0:0:
64,192,4048,1,0,0:0:0:0:
320,192,4232,1,0,0:0:0:0:
64,192,4416,1,0,0:0:0:0:
192,192,4416,1,0,0:0:0:0:
448,192,4600,1,0,0:0:0:0:
192,192,4784,1,0,0:0:0:0:
320,192,4968,1,0,0:0:0:0:
64,192,5152,128,0,5521:0:0:0:0:
448,192,5521,1,0,0:0:0:0:
192,192,5705,1,0,0:0:0:0:
320,192,5889,1,0,0:0:0:0:
64,192,6073,1,0,0:0:0:0:
448,192,6257,1,0,0:0:0:0:
192,192,6441,1,0,0:0:0:0:
320,192,6625,128,0,6993:0:0:0:0:
64,192,6993,1,0,0:0:0:0:
192,192,7177,1,0,0:0:0:0:
448,192,7361,1,0,0:0:0:0:
320,192,7545,1,0,0:0:0:0:
192,192,7729,1,0,0:0:0:0:
64,192,7913,1,0,0:0:0:0:
448,192,8097,128,0,8465:0:0:0:0:
192,192,8465,1,0,0:0:0:0:
320,192,8649,1,0,0:0:0:0:
64,192,8833,1,0,0:0:0:0:
448,192,9018,1,0,0:0:0:0:
64,192,9202,1,0,0:0:0:0:
320,192,9386,1,0,0:0:0:0:
192,192,9570,128,0,9938:0:0:0:0:
448,192,9938,1,0,0:0:0:0:
320,192,10122,1,0,0:0:0:0:
64,192,10306,1,0,0:0:0:0:
192,192,10306,1,0,0:0:0:0:
448,192,10490,1,0,0:0:0:0:
64,192,10674,1,0,0:0:0:0:
320,192,10858,1,0,0:0:0:0:
192,192,11042,128,0,11410:0:0:0:0:
320,192,11410,1,0,0:0:0:0:
64,192,11594,1,0,0:0:0:0:
448,192,11778,1,0,0:0:0:0:
192,192,11962,1,0,0:0:0:0:
320,192,12146,1,0,0:0:0:0:
64,192,12330,1,0,0:0:0:0:
448,192,12514,128,0,12883:0:0:0:0:
192,192,12883,1,0,0:0:0:0:
320,192,13067,1,0,0:0:0:0:
64,192,13251,1,0,0:0:0:0:
192,192,13435,1,0,0:0:0:0:
448,192,13619,1,0,0:0:0:0:
320,192,13803,1,0,0:0:0:0:
64,192,13987,128,0,14355:0:0:0:0:
448,192,14355,1,0,0:0:0:0:
192,192,14539,1,0,0:0:0:0:
320,192,14723,1,0,0:0:0:0:
64,192,14907,1,0,0:0:0:0:
320,192,15091,1,0,0:0:0:0:
192,192,15275,1,0,0:0:0:0:
448,192,15459,128,0,15827:0:0:0:0:
64,192,15827,1,0,0:0:0:0:
192,192,15827,1,0,0:0:0:0:
320,192,16011,1,0,0:0:0:0:
192,192,16195,1,0,0:0:0:0:
448,192,16195,1,0,0:0:0:0:
64,192,16379,1,0,0:0:0:0:
448,192,16564,1,0,0:0:0:0:
64,192,16748,128,0,17116:0:0:0:0:
192,192,16748,1,0,0:0:0:0:
320,192,17116,1,0,0:0:0:0:
192,192,17300,1,0,0:0:0:0:
448,192,17300,1,0,0:0:0:0:
64,192,17484,1,0,0:0:0:0:
320,192,17668,1,0,0:0:0:0:
448,192,17668,1,0,0:0:0:0:
192,192,17852,1,0,0:0:0:0:
320,192,18036,1,0,0:0:0:0:
192,192,18220,128,0,18588:0:0:0:0:
64,192,18220,1,0,0:0:0:0:
448,192,18588,1,0,0:0:0:0:
320,192,18772,1,0,0:0:0:0:
64,192,18772,1,0,0:0:0:0:
192,192,18956,1,0,0:0:0:0:
448,192,19140,1,0,0:0:0:0:
320,192,19140,1,0,0:0:0:0:
64,192,19324,1,0,0:0:0:0:
448,192,19508,1,0,0:0:0:0:
64,192,19692,128,0,20060:0:0:0:0:
192,192,19692,1,0,0:0:0:0:
448,192,20060,1,0,0:0:0:0:
320,192,20245,1,0,0:0:0:0:
192,192,20245,1,0,0:0:0:0:
64,192,20429,1,0,0:0:0:0:
448,192,20613,1,0,0:0:0:0:
320,192,20613,1,0,0:0:0:0:
192,192,20797,1,0,0:0:0:0:
64,192,20981,1,0,0:0:0:0:
448,192,20981,1,0,0:0:0:0:
320,192,21165,1,0,0:0:0:0:
192,192,21349,1,0,0:0:0:0:
64,192,21349,1,0,0:0:0:0:
320,192,21533,1,0,0:0:0:0:
448,192,21717,1,0,0:0:0:0:
192,192,21717,1,0,0:0:0:0:
192,192,22085,1,0,0:0:0:0:
64,192,22085,1,0,0:0:0:0:
448,192,22269,1,0,0:0:0:0:
64,192,22453,1,0,0:0:0:0:
192,192,22637,1,0,0:0:0:0:
448,192,22637,128,0,23005:0:0:0:0:
64,192,23005,1,0,0:0:0:0:
192,192,23189,1,0,0:0:0:0:
320,192,23189,1,0,0:0:0:0:
448,192,23373,1,0,0:0:0:0:
192,192,23557,1,0,0:0:0:0:
64,192,23557,1,0,0:0:0:0:
320,192,23741,1,0,0:0:0:0:
192,192,23925,1,0,0:0:0:0:
448,192,24110,1,0,0:0:0:0:
320,192,24110,128,0,24478:0:0:0:0:
64,192,24478,1,0,0:0:0:0:
448,192,24662,1,0,0:0:0:0:
192,192,24662,1,0,0:0:0:0:
320,192,24846,1,0,0:0:0:0:
448,192,25030,1,0,0:0:0:0:
64,192,25030,1,0,0:0:0:0:
192,192,25214,1,0,0:0:0:0:
448,192,25398,1,0,0:0:0:0:
64,192,25582,1,0,0:0:0:0:
192,192,25582,1,0,0:0:0:0:
320,192,25766,1,0,0:0:0:0:
448,192,25950,1,0,0:0:0:0:
64,192,26134,1,0,0:0:0:0:
192,192,26134,1,0,0:0:0:0:
320,192,26318,1,0,0:0:0:0:
448,192,26502,1,0,0:0:0:0:
192,192,26502,1,0,0:0:0:0:
64,192,26686,1,0,0:0:0:0:
448,192,26870,1,0,0:0:0:0:
320,192,26870,1,0,0:0:0:0:
192,192,27054,1,0,0:0:0:0:
320,192,27238,1,0,0:0:0:0:
64,192,27238,128,0,27606:0:0:0:0:
448,192,27606,128,0,27791:0:0:0:0:
320,192,27791,128,0,27975:0:0:0:0:
192,192,27975,1,0,0:0:0:0:
64,192,27975,1,0,0:0:0:0:
448,192,28159,1,0,0:0:0:0:
320,192,28343,1,0,0:0:0:0:
64,192,28343,1,0,0:0:0:0:
192,192,28527,1,0,0:0:0:0:
448,192,28711,128,0,29079:0:0:0:0:
64,192,29079,1,0,0:0:0:0:
192,192,29079,1,0,0:0:0:0:
320,192,29263,128,0,29631:0:0:0:0:
64,192,29447,1,0,0:0:0:0:
192,192,29631,1,0,0:0:0:0:
448,192,29815,1,0,0:0:0:0:
320,192,29815,1,0,0:0:0:0:
192,192,29999,1,0,0:0:0:0:
64,192,30183,128,0,30551:0:0:0:0:
448,192,30551,128,0,30919:0:0:0:0:
192,192,30551,1,0,0:0:0:0:
320,192,30919,1,0,0:0:0:0:
64,192,30919,1,0,0:0:0:0:
320,192,31103,1,0,0:0:0:0:
192,192,31287,1,0,0:0:0:0:
448,192,31287,1,0,0:0:0:0:
192,192,31471,1,0,0:0:0:0:
64,192,31656,1,0,0:0:0:0:
448,192,31656,1,0,0:0:0:0:
448,192,31840,1,0,0:0:0:0:
320,192,32024,1,0,0:0:0:0:
64,192,32024,1,0,0:0:0:0:
64,192,32208,1,0,0:0:0:0:
192,192,32392,1,0,0:0:0:0:
448,192,32392,1,0,0:0:0:0:
448,192,32576,1,0,0:0:0:0:
320,192,32760,1,0,0:0:0:0:
64,192,32760,1,0,0:0:0:0:
320,192,32944,1,0,0:0:0:0:
192,192,33128,128,0,33496:0:0:0:0:
64,192,33128,1,0,0:0:0:0:
448,192,33496,1,0,0:0:0:0:
320,192,33496,128,0,33864:0:0:0:0:
192,192,33864,1,0,0:0:0:0:
64,192,33864,1,0,0:0:0:0:
320,192,34048,1,0,0:0:0:0:
448,192,34232,1,0,0:0:0:0:
192,192,34232,1,0,0:0:0:0:
64,192,34416,1,0,0:0:0:0:
320,192,34600,128,0,34968:0:0:0:0:
64,192,34968,1,0,0:0:0:0:
192,192,34968,1,0,0:0:0:0:
448,192,35152,128,0,35521:0:0:0:0:
64,192,35337,1,0,0:0:0:0:
192,192,35521,1,0,0:0:0:0:
320,192,35705,1,0,0:0:0:0:
448,192,35705,1,0,0:0:0:0:
192,192,35889,1,0,0:0:0:0:
64,192,36073,128,0,36441:0:0:0:0:
320,192,36441,1,0,0:0:0:0:
448,192,36441,128,0,36809:0:0:0:0:
192,192,36809,1,0,0:0:0:0:
64,192,36809,1,0,0:0:0:0:
192,192,36993,1,0,0:0:0:0:
320,192,37177,1,0,0:0:0:0:
448,192,37177,1,0,0:0:0:0:
320,192,37361,1,0,0:0:0:0:
192,192,37545,1,0,0:0:0:0:
64,192,37545,1,0,0:0:0:0:
64,192,37729,1,0,0:0:0:0:
320,192,37913,1,0,0:0:0:0:
448,192,37913,1,0,0:0:0:0:
448,192,38097,1,0,0:0:0:0:
192,192,38281,1,0,0:0:0:0:
64,192,38281,1,0,0:0:0:0:
192,192,38465,1,0,0:0:0:0:
320,192,38649,1,0,0:0:0:0:
64,192,38649,1,0,0:0:0:0:
320,192,38833,1,0,0:0:0:0:
192,192,39018,1,0,0:0:0:0:
448,192,39018,128,0,39386:0:0:0:0:
64,192,39386,128,0,39754:0:0:0:0:
320,192,39386,1,0,0:0:0:0:
192,192,39754,1,0,0:0:0:0:
448,192,39754,1,0,0:0:0:0:
320,192,39938,1,0,0:0:0:0:
64,192,40122,1,0,0:0:0:0:
192,192,40122,1,0,0:0:0:0:
448,192,40306,1,0,0:0:0:0:
64,192,40490,1,0,0:0:0:0:
320,192,40674,1,0,0:0:0:0:
192,192,40858,1,0,0:0:0:0:
448,192,40858,1,0,0:0:0:0:
64,192,41042,1,0,0:0:0:0:
320,192,41226,1,0,0:0:0:0:
448,192,41226,1,0,0:0:0:0:
320,192,41410,1,0,0:0:0:0:
64,192,41594,1,0,0:0:0:0:
192,192,41594,1,0,0:0:0:0:
192,192,41778,1,0,0:0:0:0:
320,192,41962,1,0,0:0:0:0:
448,192,41962,128,0,42330:0:0:0:0:
192,192,42330,1,0,0:0:0:0:
64,192,42330,128,0,42698:0:0:0:0:
448,192,42698,1,0,0:0:0:0:
320,192,42883,1,0,0:0:0:0:
64,192,43067,1,0,0:0:0:0:
192,192,43067,1,0,0:0:0:0:
448,192,43251,1,0,0:0:0:0:
320,192,43435,1,0,0:0:0:0:
192,192,43619,1,0,0:0:0:0:
64,192,43803,1,0,0:0:0:0:
448,192,43803,1,0,0:0:0:0:
320,192,43987,128,0,44171:0:0:0:0:
192,192,43987,1,0,0:0:0:0:
64,192,44355,128,0,44723:0:0:0:0:
448,192,44723,1,0,0:0:0:0:
192,192,44907,128,0,45275:0:0:0:0:
320,192,45275,128,0,45459:0:0:0:0:
64,192,45459,128,0,45643:0:0:0:0:
448,192,45643,1,0,0:0:0:0:
192,192,45643,1,0,0:0:0:0:
320,192,46011,1,0,0:0:0:0:
192,192,46195,1,0,0:0:0:0:
320,192,46379,1,0,0:0:0:0:
192,192,46564,1,0,0:0:0:0:
448,192,46748,1,0,0:0:0:0:
64,192,46932,128,0,47116:0:0:0:0:
320,192,47116,1,0,0:0:0:0:
192,192,47300,128,0,47484:0:0:0:0:
448,192,47484,1,0,0:0:0:0:
64,192,47668,1,0,0:0:0:0:
320,192,47852,1,0,0:0:0:0:
192,192,48036,1,0,0:0:0:0:
448,192,48220,128,0,48588:0:0:0:0:
64,192,48588,1,0,0:0:0:0:
192,192,48956,1,0,0:0:0:0:
448,192,49140,1,0,0:0:0:0:
192,192,49324,1,0,0:0:0:0:
448,192,49508,128,0,49692:0:0:0:0:
64,192,49692,1,0,0:0:0:0:
320,192,49876,128,0,50060:0:0:0:0:
192,192,50060,1,0,0:0:0:0:
64,192,50245,128,0,50429:0:0:0:0:
448,192,50429,1,0,0:0:0:0:
192,192,50613,1,0,0:0:0:0:
320,192,50797,1,0,0:0:0:0:
64,192,50981,1,0,0:0:0:0:
448,192,51165,128,0,51349:0:0:0:0:
192,192,51533,1,0,0:0:0:0:
320,192,51533,1,0,0:0:0:0:
64,192,51901,1,0,0:0:0:0:
192,192,52085,1,0,0:0:0:0:
448,192,52269,1,0,0:0:0:0:
320,192,52453,1,0,0:0:0:0:
64,192,52637,1,0,0:0:0:0:
192,192,52821,128,0,53005:0:0:0:0:
448,192,53005,1,0,0:0:0:0:
320,192,53189,128,0,53373:0:0:0:0:
64,192,53373,1,0,0:0:0:0:
448,192,53557,1,0,0:0:0:0:
320,192,53741,1,0,0:0:0:0:
64,192,53925,1,0,0:0:0:0:
192,192,54110,128,0,54478:0:0:0:0:
448,192,54478,1,0,0:0:0:0:
320,192,54846,1,0,0:0:0:0:
64,192,55030,1,0,0:0:0:0:
320,192,55214,1,0,0:0:0:0:
64,192,55398,128,0,55582:0:0:0:0:
448,192,55582,1,0,0:0:0:0:
320,192,55582,1,0,0:0:0:0:
192,192,55766,128,0,56134:0:0:0:0:
64,192,55766,1,0,0:0:0:0:
448,192,56134,128,0,56502:0:0:0:0:
64,192,56502,1,0,0:0:0:0:
320,192,56686,128,0,57054:0:0:0:0:
192,192,57054,1,0,0:0:0:0:
64,192,57054,1,0,0:0:0:0:
448,192,57238,1,0,0:0:0:0:
320,192,57422,1,0,0:0:0:0:
192,192,57422,1,0,0:0:0:0:
64,192,57791,128,0,58159:0:0:0:0:
448,192,58159,128,0,58527:0:0:0:0:
192,192,58527,1,0,0:0:0:0:
64,192,58711,1,0,0:0:0:0:
320,192,58895,1,0,0:0:0:0:
192,192,59079,128,0,59447:0:0:0:0:
448,192,59263,1,0,0:0:0:0:
320,192,59447,128,0,59815:0:0:0:0:
64,192,59631,1,0,0:0:0:0:
448,192,59815,1,0,0:0:0:0:
192,192,59999,1,0,0:0:0:0:
320,192,60183,1,0,0:0:0:0:
64,192,60367,1,0,0:0:0:0:
192,192,60551,1,0,0:0:0:0:
320,192,60735,128,0,61103:0:0:0:0:
64,192,61103,1,0,0:0:0:0:
448,192,61287,1,0,0:0:0:0:
192,192,61471,1,0,0:0:0:0:
320,192,61656,1,0,0:0:0:0:
64,192,61840,1,0,0:0:0:0:
192,192,62024,1,0,0:0:0:0:
448,192,62208,1,0,0:0:0:0:
320,192,62392,1,0,0:0:0:0:
64,192,62576,128,0,62760:0:0:0:0:
448,192,62944,128,0,63312:0:0:0:0:
192,192,63312,1,0,0:0:0:0:
64,192,63312,1,0,0:0:0:0:
320,192,63680,1,0,0:0:0:0:
192,192,63864,1,0,0:0:0:0:
448,192,64048,1,0,0:0:0:0:
320,192,64232,1,0,0:0:0:0:
64,192,64416,1,0,0:0:0:0:
192,192,64600,1,0,0:0:0:0:
320,192,64784,1,0,0:0:0:0:
448,192,64968,1,0,0:0:0:0:
192,192,65152,1,0,0:0:0:0:
64,192,65337,128,0,65521:0:0:0:0:
448,192,65521,1,0,0:0:0:0:
320,192,65705,1,0,0:0:0:0:
192,192,65889,1,0,0:0:0:0:
448,192,66073,1,0,0:0:0:0:
64,192,66257,1,0,0:0:0:0:
192,192,66441,1,0,0:0:0:0:
448,192,66625,1,0,0:0:0:0:
320,192,66809,1,0,0:0:0:0:
192,192,66993,1,0,0:0:0:0:
64,192,67177,1,0,0:0:0:0:
448,192,67361,1,0,0:0:0:0:
192,192,67545,128,0,67729:0:0:0:0:
320,192,67729,1,0,0:0:0:0:
64,192,67913,128,0,68281:0:0:0:0:
448,192,68097,1,0,0:0:0:0:
320,192,68281,128,0,68649:0:0:0:0:
192,192,68465,1,0,0:0:0:0:
448,192,68649,1,0,0:0:0:0:
192,192,68833,1,0,0:0:0:0:
64,192,68833,1,0,0:0:0:0:
320,192,69018,1,0,0:0:0:0:
448,192,69202,1,0,0:0:0:0:
64,192,69202,1,0,0:0:0:0:
192,192,69386,1,0,0:0:0:0:
448,192,69570,1,0,0:0:0:0:
64,192,69754,128,0,70122:0:0:0:0:
192,192,69754,1,0,0:0:0:0:
320,192,70122,1,0,0:0:0:0:
192,192,70306,1,0,0:0:0:0:
448,192,70306,1,0,0:0:0:0:
64,192,70490,1,0,0:0:0:0:
320,192,70674,1,0,0:0:0:0:
448,192,70674,1,0,0:0:0:0:
64,192,70858,1,0,0:0:0:0:
320,192,71042,1,0,0:0:0:0:
64,192,71226,1,0,0:0:0:0:
192,192,71226,128,0,71594:0:0:0:0:
320,192,71594,1,0,0:0:0:0:
64,192,71778,1,0,0:0:0:0:
448,192,71778,1,0,0:0:0:0:
192,192,71962,1,0,0:0:0:0:
320,192,72146,1,0,0:0:0:0:
448,192,72146,1,0,0:0:0:0:
64,192,72330,1,0,0:0:0:0:
448,192,72514,1,0,0:0:0:0:
192,192,72698,1,0,0:0:0:0:
64,192,72698,128,0,73067:0:0:0:0:
320,192,73067,1,0,0:0:0:0:
192,192,73251,1,0,0:0:0:0:
448,192,73251,1,0,0:0:0:0:
64,192,73435,1,0,0:0:0:0:
320,192,73619,1,0,0:0:0:0:
192,192,73619,1,0,0:0:0:0:
448,192,73803,1,0,0:0:0:0:
64,192,73987,1,0,0:0:0:0:
192,192,73987,1,0,0:0:0:0:
320,192,74171,1,0,0:0:0:0:
64,192,74355,1,0,0:0:0:0:
448,192,74355,1,0,0:0:0:0:
192,192,74539,1,0,0:0:0:0:
448,192,74723,1,0,0:0:0:0:
320,192,74723,1,0,0:0:0:0:
192,192,74907,1,0,0:0:0:0:
448,192,75091,1,0,0:0:0:0:
64,192,75091,1,0,0:0:0:0:
320,192,75275,1,0,0:0:0:0:
64,192,75459,1,0,0:0:0:0:
320,192,75643,1,0,0:0:0:0:
448,192,75643,128,0,76011:0:0:0:0:
192,192,76011,1,0,0:0:0:0:
64,192,76195,1,0,0:0:0:0:
320,192,76195,1,0,0:0:0:0:
448,192,76379,1,0,0:0:0:0:
192,192,76564,1,0,0:0:0:0:
64,192,76564,1,0,0:0:0:0:
320,192,76748,1,0,0:0:0:0:
192,192,76932,1,0,0:0:0:0:
320,192,77116,128,0,77484:0:0:0:0:
448,192,77116,1,0,0:0:0:0:
64,192,77484,1,0,0:0:0:0:
192,192,77668,1,0,0:0:0:0:
448,192,77668,1,0,0:0:0:0:
320,192,77852,1,0,0:0:0:0:
448,192,78036,1,0,0:0:0:0:
64,192,78036,1,0,0:0:0:0:
192,192,78220,1,0,0:0:0:0:
448,192,78404,1,0,0:0:0:0:
192,192,78588,1,0,0:0:0:0:
64,192,78588,1,0,0:0:0:0:
320,192,78772,1,0,0:0:0:0:
64,192,78956,1,0,0:0:0:0:
192,192,79140,1,0,0:0:0:0:
448,192,79140,1,0,0:0:0:0:
320,192,79324,1,0,0:0:0:0:
448,192,79508,1,0,0:0:0:0:
64,192,79508,1,0,0:0:0:0:
192,192,79692,1,0,0:0:0:0:
320,192,79876,1,0,0:0:0:0:
64,192,79876,1,0,0:0:0:0:
448,192,80060,1,0,0:0:0:0:
192,192,80245,128,0,80613:0:0:0:0:
320,192,80245,1,0,0:0:0:0:
448,192,80613,1,0,0:0:0:0:
64,192,80797,1,0,0:0:0:0:
320,192,80981,1,0,0:0:0:0:
192,192,81165,1,0,0:0:0:0:
448,192,81349,1,0,0:0:0:0:
64,192,81533,1,0,0:0:0:0:
320,192,81717,128,0,81901:0:0:0:0:
192,192,82085,1,0,0:0:0:0:
448,192,82269,128,0,82637:0:0:0:0:
64,192,82453,1,0,0:0:0:0:
192,192,82637,1,0,0:0:0:0:
320,192,82821,1,0,0:0:0:0:
64,192,83005,1,0,0:0:0:0:
192,192,83189,128,0,83557:0:0:0:0:
320,192,83557,128,0,83925:0:0:0:0:
64,192,83925,1,0,0:0:0:0:
192,192,84110,1,0,0:0:0:0:
448,192,84294,1,0,0:0:0:0:
320,192,84478,1,0,0:0:0:0:
192,192,84662,1,0,0:0:0:0:
64,192,84846,1,0,0:0:0:0:
320,192,85030,1,0,0:0:0:0:
448,192,85214,128,0,85582:0:0:0:0:
64,192,85398,1,0,0:0:0:0:
192,192,85582,1,0,0:0:0:0:
320,192,85766,1,0,0:0:0:0:
448,192,85950,1,0,0:0:0:0:
192,192,86134,128,0,86318:0:0:0:0:
320,192,86502,128,0,86686:0:0:0:0:
64,192,86870,1,0,0:0:0:0:
192,192,87054,1,0,0:0:0:0:
448,192,87238,1,0,0:0:0:0:
320,192,87422,1,0,0:0:0:0:
192,192,87606,128,0,87791:0:0:0:0:
448,192,87975,1,0,0:0:0:0:
64,192,88159,128,0,88527:0:0:0:0:
320,192,88343,1,0,0:0:0:0:
448,192,88527,1,0,0:0:0:0:
192,192,88711,1,0,0:0:0:0:
320,192,88895,1,0,0:0:0:0:
448,192,89079,128,0,89263:0:0:0:0:
192,192,89447,128,0,89815:0:0:0:0:
320,192,89815,1,0,0:0:0:0:
448,192,89999,1,0,0:0:0:0:
192,192,90183,1,0,0:0:0:0:
64,192,90367,1,0,0:0:0:0:
448,192,90551,128,0,90735:0:0:0:0:
320,192,90735,128,0,90919:0:0:0:0:
192,192,90919,128,0,91103:0:0:0:0:
64,192,91103,128,0,91287:0:0:0:0:
448,192,91287,1,0,0:0:0:0:
320,192,91471,1,0,0:0:0:0:
64,192,91656,1,0,0:0:0:0:
192,192,91840,1,0,0:0:0:0:
320,192,92024,128,0,92208:0:0:0:0:
192,192,92760,1,0,0:0:0:0:
448,192,92944,1,0,0:0:0:0:
64,192,93128,1,0,0:0:0:0:
320,192,93312,1,0,0:0:0:0:
192,192,93496,128,0,93680:0:0:0:0:
448,192,93680,1,0,0:0:0:0:
64,192,93864,1,0,0:0:0:0:
320,192,94048,1,0,0:0:0:0:
192,192,94232,1,0,0:0:0:0:
448,192,94416,1,0,0:0:0:0:
64,192,94600,1,0,0:0:0:0:
320,192,94784,1,0,0:0:0:0:
192,192,94968,128,0,95337:0:0:0:0:
448,192,95337,1,0,0:0:0:0:
64,192,95521,128,0,95889:0:0:0:0:
320,192,95705,1,0,0:0:0:0:
192,192,95889,1,0,0:0:0:0:
448,192,96073,1,0,0:0:0:0:
320,192,96257,1,0,0:0:0:0:
64,192,96441,128,0,96625:0:0:0:0:
192,192,96625,128,0,96809:0:0:0:0:
320,192,96809,128,0,97177:0:0:0:0:
64,192,97177,1,0,0:0:0:0:
448,192,97177,1,0,0:0:0:0:
64,192,97361,1,0,0:0:0:0:
320,192,97545,1,0,0:0:0:0:
192,192,97545,1,0,0:0:0:0:
320,192,97729,1,0,0:0:0:0:
192,192,97913,1,0,0:0:0:0:
448,192,97913,1,0,0:0:0:0:
192,192,98097,1,0,0:0:0:0:
448,192,98281,1,0,0:0:0:0:
64,192,98281,1,0,0:0:0:0:
448,192,98465,1,0,0:0:0:0:
320,192,98649,1,0,0:0:0:0:
64,192,98649,1,0,0:0:0:0:
320,192,98833,1,0,0:0:0:0:
448,192,99018,1,0,0:0:0:0:
192,192,99018,1,0,0:0:0:0:
192,192,99202,1,0,0:0:0:0:
320,192,99386,1,0,0:0:0:0:
64,192,99386,128,0,99570:0:0:0:0:
192,192,99754,1,0,0:0:0:0:
448,192,99754,128,0,99938:0:0:0:0:
192,192,100122,1,0,0:0:0:0:
64,192,100122,1,0,0:0:0:0:
320,192,100306,1,0,0:0:0:0:
64,192,100490,1,0,0:0:0:0:
448,192,100490,1,0,0:0:0:0:
192,192,100674,1,0,0:0:0:0:
320,192,100858,128,0,101226:0:0:0:0:
64,192,101226,1,0,0:0:0:0:
192,192,101226,1,0,0:0:0:0:
448,192,101410,1,0,0:0:0:0:
320,192,101594,1,0,0:0:0:0:
64,192,101778,1,0,0:0:0:0:
192,192,101962,1,0,0:0:0:0:
448,192,101962,1,0,0:0:0:0:
320,192,102146,1,0,0:0:0:0:
64,192,102330,128,0,102514:0:0:0:0:
448,192,102698,128,0,102883:0:0:0:0:
192,192,102698,1,0,0:0:0:0:
320,192,103067,1,0,0:0:0:0:
64,192,103067,1,0,0:0:0:0:
320,192,103251,1,0,0:0:0:0:
192,192,103435,1,0,0:0:0:0:
448,192,103435,1,0,0:0:0:0:
192,192,103619,1,0,0:0:0:0:
64,192,103803,1,0,0:0:0:0:
448,192,103803,1,0,0:0:0:0:
448,192,103987,1,0,0:0:0:0:
320,192,104171,1,0,0:0:0:0:
64,192,104171,1,0,0:0:0:0:
64,192,104355,1,0,0:0:0:0:
192,192,104539,1,0,0:0:0:0:
448,192,104539,1,0,0:0:0:0:
192,192,104723,1,0,0:0:0:0:
320,192,104907,1,0,0:0:0:0:
64,192,104907,1,0,0:0:0:0:
320,192,105091,1,0,0:0:0:0:
192,192,105275,1,0,0:0:0:0:
448,192,105275,128,0,105459:0:0:0:0:
320,192,105643,1,0,0:0:0:0:
64,192,105643,128,0,106011:0:0:0:0:
192,192,106011,1,0,0:0:0:0:
320,192,106011,1,0,0:0:0:0:
448,192,106195,1,0,0:0:0:0:
192,192,106379,1,0,0:0:0:0:
64,192,106379,1,0,0:0:0:0:
320,192,106564,1,0,0:0:0:0:
64,192,106748,1,0,0:0:0:0:
192,192,106932,1,0,0:0:0:0:
448,192,107116,1,0,0:0:0:0:
320,192,107116,1,0,0:0:0:0:
64,192,107300,1,0,0:0:0:0:
192,192,107484,1,0,0:0:0:0:
320,192,107484,1,0,0:0:0:0:
320,192,107668,1,0,0:0:0:0:
448,192,107852,1,0,0:0:0:0:
64,192,107852,1,0,0:0:0:0:
64,192,108036,1,0,0:0:0:0:
192,192,108220,1,0,0:0:0:0:
320,192,108220,128,0,108588:0:0:0:0:
64,192,108588,128,0,108956:0:0:0:0:
448,192,108588,1,0,0:0:0:0:
192,192,108956,1,0,0:0:0:0:
320,192,109140,1,0,0:0:0:0:
64,192,109324,1,0,0:0:0:0:
448,192,109324,1,0,0:0:0:0:
192,192,109508,1,0,0:0:0:0:
320,192,109692,1,0,0:0:0:0:
448,192,109876,1,0,0:0:0:0:
192,192,110060,1,0,0:0:0:0:
64,192,110060,1,0,0:0:0:0:
320,192,110245,1,0,0:0:0:0:
448,192,110245,1,0,0:0:0:0:
64,192,110429,128,0,110797:0:0:0:0:
448,192,110797,128,0,111165:0:0:0:0:
192,192,111165,128,0,111533:0:0:0:0:
320,192,111533,128,0,111901:0:0:0:0:
64,192,111901,128,0,112269:0:0:0:0:
448,192,111901,1,0,0:0:0:0:
192,192,112269,1,0,0:0:0:0:
320,192,112269,128,0,112637:0:0:0:0:
192,192,112637,128,0,113005:0:0:0:0:
448,192,112637,1,0,0:0:0:0:
448,192,113005,1,0,0:0:0:0:
320,192,113005,1,0,0:0:0:0:
192,192,113189,1,0,0:0:0:0:
64,192,113189,1,0,0:0:0:0:
320,192,113557,1,0,0:0:0:0:
64,192,113741,128,0,114110:0:0:0:0:
192,192,113741,1,0,0:0:0:0:
448,192,114110,128,0,114294:0:0:0:0:
320,192,114110,128,0,114294:0:0:0:0:
192,192,114478,1,0,0:0:0:0:
64,192,114478,1,0,0:0:0:0:
