osu file format v14

[General]
AudioFilename: audio.ogg
AudioLeadIn: 0
PreviewTime: 27606
Countdown: 0
SampleSet: Soft
StackLeniency: 0.7
Mode: 3
LetterboxInBreaks: 0
SpecialStyle: 0
WidescreenStoryboard: 1

[Editor]
DistanceSpacing: 1.5
BeatDivisor: 4
GridSize: 4
TimelineZoom: 2

[Metadata]
Title:Cat Loving
TitleUnicode:キャットラビング
Artist:Nachoneko
ArtistUnicode:甘城なつき
Creator:[GB]Sanae
Version:XinH's Hard
Source:
Tags:Amashiro Natsuki 香椎モイミ feat. 可不 Kashii Moimi feat. kafu japanese pop jpop j-pop vocaloid cover ML-ysg Xinhong1003
BeatmapID:4322635
BeatmapSetID:2066219

[Difficulty]
HPDrainRate:7.5
CircleSize:4
OverallDifficulty:7.5
ApproachRate:5
SliderMultiplier:1.4
SliderTickRate:1

[Events]
//Background and Video events
0,0,"3dnWxbf.jpg",0,0
//Break Periods
//Storyboard Layer 0 (Background)
//Storyboard Layer 1 (Fail)
//Storyboard Layer 2 (Pass)
//Storyboard Layer 3 (Foreground)
//Storyboard Layer 4 (Overlay)
//Storyboard Sound Samples

[TimingPoints]
1472,368.098159509202,4,2,1,100,1,0

[HitObjects]
64,192,1472,5,0,0:0:0:0:
320,192,1472,128,0,1840:0:0:0:0:
64,192,1656,128,0,1840:0:0:0:0:
448,192,1840,1,0,0:0:0:0:
192,192,1840,128,0,2208:0:0:0:0:
448,192,2024,128,0,2208:0:0:0:0:
320,192,2208,1,0,0:0:0:0:
64,192,2208,128,0,2576:0:0:0:0:
320,192,2392,128,0,2576:0:0:0:0:
192,192,2576,1,0,0:0:0:0:
448,192,2576,128,0,2944:0:0:0:0:
192,192,2760,128,0,2944:0:0:0:0:
64,192,2944,128,0,3312:0:0:0:0:
320,192,2944,128,0,3128:0:0:0:0:
448,192,3128,1,0,0:0:0:0:
192,192,3220,1,0,0:0:0:0:
448,192,3312,1,0,0:0:0:0:
64,192,3496,1,0,0:0:0:0:
320,192,3496,128,0,3680:0:0:0:0:
64,192,3680,128,0,3864:0:0:0:0:
448,192,3680,128,0,4232:0:0:0:0:
64,192,4048,1,0,0:0:0:0:
192,192,4048,1,0,0:0:0:0:
320,192,4140,1,0,0:0:0:0:
192,192,4232,128,0,4416:0:0:0:0:
448,192,4416,128,0,4600:0:0:0:0:
320,192,4416,1,0,0:0:0:0:
64,192,4416,1,0,0:0:0:0:
192,192,4600,128,0,4784:0:0:0:0:
64,192,4784,128,0,4968:0:0:0:0:
448,192,4784,1,0,0:0:0:0:
320,192,4968,128,0,5152:0:0:0:0:
448,192,5152,128,0,5337:0:0:0:0:
192,192,5152,1,0,0:0:0:0:
64,192,5337,1,0,0:0:0:0:
192,192,5521,1,0,0:0:0:0:
448,192,5521,1,0,0:0:0:0:
320,192,5705,128,0,5889:0:0:0:0:
64,192,5889,128,0,6073:0:0:0:0:
192,192,5889,1,0,0:0:0:0:
320,192,6073,128,0,6257:0:0:0:0:
448,192,6257,128,0,6441:0:0:0:0:
64,192,6257,1,0,0:0:0:0:
192,192,6441,128,0,6625:0:0:0:0:
64,192,6625,128,0,6809:0:0:0:0:
320,192,6625,1,0,0:0:0:0:
448,192,6809,1,0,0:0:0:0:
320,192,6993,1,0,0:0:0:0:
64,192,6993,1,0,0:0:0:0:
192,192,7177,128,0,7361:0:0:0:0:
448,192,7361,128,0,7545:0:0:0:0:
320,192,7361,1,0,0:0:0:0:
64,192,7545,128,0,7729:0:0:0:0:
192,192,7729,128,0,7913:0:0:0:0:
448,192,7729,1,0,0:0:0:0:
320,192,7913,128,0,8097:0:0:0:0:
448,192,8097,128,0,8465:0:0:0:0:
64,192,8097,1,0,0:0:0:0:
320,192,8281,1,0,0:0:0:0:
192,192,8465,128,0,8649:0:0:0:0:
64,192,8465,1,0,0:0:0:0:
448,192,8649,128,0,8833:0:0:0:0:
320,192,8833,128,0,9018:0:0:0:0:
64,192,8833,1,0,0:0:0:0:
192,192,9018,128,0,9202:0:0:0:0:
448,192,9202,128,0,9386:0:0:0:0:
320,192,9202,1,0,0:0:0:0:
192,192,9386,128,0,9570:0:0:0:0:
64,192,9570,128,0,9754:0:0:0:0:
448,192,9570,1,0,0:0:0:0:
320,192,9754,1,0,0:0:0:0:
192,192,9938,1,0,0:0:0:0:
64,192,9938,1,0,0:0:0:0:
320,192,10122,128,0,10306:0:0:0:0:
448,192,10306,128,0,10490:0:0:0:0:
192,192,10306,1,0,0:0:0:0:
64,192,10306,1,0,0:0:0:0:
320,192,10490,128,0,10674:0:0:0:0:
192,192,10674,128,0,10858:0:0:0:0:
64,192,10674,1,0,0:0:0:0:
448,192,10858,128,0,11042:0:0:0:0:
64,192,11042,128,0,11226:0:0:0:0:
320,192,11042,1,0,0:0:0:0:
192,192,11226,1,0,0:0:0:0:
320,192,11410,1,0,0:0:0:0:
448,192,11410,1,0,0:0:0:0:
192,192,11594,128,0,11778:0:0:0:0:
64,192,11778,128,0,11962:0:0:0:0:
448,192,11778,1,0,0:0:0:0:
192,192,11962,128,0,12146:0:0:0:0:
320,192,12146,128,0,12330:0:0:0:0:
448,192,12146,1,0,0:0:0:0:
64,192,12330,128,0,12514:0:0:0:0:
448,192,12514,128,0,12698:0:0:0:0:
192,192,12514,1,0,0:0:0:0:
320,192,12698,1,0,0:0:0:0:
192,192,12883,1,0,0:0:0:0:
64,192,12883,1,0,0:0:0:0:
320,192,13067,128,0,13251:0:0:0:0:
192,192,13251,128,0,13435:0:0:0:0:
448,192,13251,1,0,0:0:0:0:
320,192,13435,128,0,13619:0:0:0:0:
64,192,13619,128,0,13803:0:0:0:0:
448,192,13619,1,0,0:0:0:0:
192,192,13803,128,0,13987:0:0:0:0:
320,192,13987,128,0,14171:0:0:0:0:
64,192,13987,1,0,0:0:0:0:
192,192,14171,1,0,0:0:0:0:
448,192,14355,128,0,14539:0:0:0:0:
64,192,14355,1,0,0:0:0:0:
320,192,14539,128,0,14723:0:0:0:0:
192,192,14723,128,0,14907:0:0:0:0:
448,192,14723,1,0,0:0:0:0:
320,192,14907,128,0,15091:0:0:0:0:
64,192,15091,128,0,15275:0:0:0:0:
192,192,15091,1,0,0:0:0:0:
448,192,15275,128,0,15459:0:0:0:0:
192,192,15459,128,0,15643:0:0:0:0:
320,192,15459,1,0,0:0:0:0:
448,192,15643,1,0,0:0:0:0:
64,192,15827,128,0,16195:0:0:0:0:
192,192,15827,1,0,0:0:0:0:
320,192,15919,1,0,0:0:0:0:
448,192,16011,1,0,0:0:0:0:
192,192,16195,1,0,0:0:0:0:
448,192,16195,1,0,0:0:0:0:
320,192,16195,128,0,16287:0:0:0:0:
64,192,16379,1,0,0:0:0:0:
192,192,16379,128,0,16471:0:0:0:0:
320,192,16564,128,0,16656:0:0:0:0:
320,192,16748,1,0,0:0:0:0:
192,192,16748,1,0,0:0:0:0:
64,192,16748,128,0,16932:0:0:0:0:
448,192,16932,1,0,0:0:0:0:
64,192,17116,128,0,17208:0:0:0:0:
448,192,17116,1,0,0:0:0:0:
320,192,17300,1,0,0:0:0:0:
192,192,17300,128,0,17392:0:0:0:0:
64,192,17300,1,0,0:0:0:0:
320,192,17484,128,0,17576:0:0:0:0:
192,192,17668,1,0,0:0:0:0:
64,192,17668,1,0,0:0:0:0:
448,192,17668,128,0,17760:0:0:0:0:
320,192,17852,1,0,0:0:0:0:
192,192,17852,128,0,17944:0:0:0:0:
448,192,18036,128,0,18128:0:0:0:0:
320,192,18220,1,0,0:0:0:0:
448,192,18220,1,0,0:0:0:0:
64,192,18220,128,0,18404:0:0:0:0:
192,192,18404,1,0,0:0:0:0:
320,192,18496,1,0,0:0:0:0:
448,192,18588,1,0,0:0:0:0:
192,192,18588,128,0,18680:0:0:0:0:
320,192,18772,1,0,0:0:0:0:
64,192,18772,1,0,0:0:0:0:
448,192,18772,128,0,18864:0:0:0:0:
320,192,18956,128,0,19048:0:0:0:0:
192,192,19140,1,0,0:0:0:0:
448,192,19140,1,0,0:0:0:0:
64,192,19140,128,0,19232:0:0:0:0:
448,192,19324,1,0,0:0:0:0:
320,192,19324,128,0,19416:0:0:0:0:
64,192,19508,128,0,19600:0:0:0:0:
64,192,19692,1,0,0:0:0:0:
320,192,19692,1,0,0:0:0:0:
192,192,19692,128,0,19876:0:0:0:0:
448,192,19876,1,0,0:0:0:0:
448,192,20060,1,0,0:0:0:0:
192,192,20060,128,0,20152:0:0:0:0:
192,192,20245,1,0,0:0:0:0:
320,192,20245,1,0,0:0:0:0:
64,192,20245,128,0,20337:0:0:0:0:
320,192,20429,128,0,20521:0:0:0:0:
448,192,20613,1,0,0:0:0:0:
192,192,20613,1,0,0:0:0:0:
64,192,20613,1,0,0:0:0:0:
64,192,20797,128,0,20981:0:0:0:0:
448,192,20981,1,0,0:0:0:0:
192,192,20981,128,0,21165:0:0:0:0:
448,192,21165,128,0,21349:0:0:0:0:
320,192,21349,1,0,0:0:0:0:
64,192,21349,128,0,21533:0:0:0:0:
320,192,21533,128,0,21717:0:0:0:0:
448,192,21717,128,0,22085:0:0:0:0:
64,192,21717,1,0,0:0:0:0:
192,192,21901,1,0,0:0:0:0:
320,192,22085,1,0,0:0:0:0:
192,192,22085,1,0,0:0:0:0:
64,192,22085,128,0,22177:0:0:0:0:
448,192,22269,1,0,0:0:0:0:
320,192,22269,128,0,22361:0:0:0:0:
64,192,22453,128,0,22545:0:0:0:0:
320,192,22637,1,0,0:0:0:0:
64,192,22637,1,0,0:0:0:0:
448,192,22637,128,0,22821:0:0:0:0:
192,192,22821,1,0,0:0:0:0:
448,192,23005,1,0,0:0:0:0:
192,192,23005,128,0,23097:0:0:0:0:
448,192,23189,1,0,0:0:0:0:
320,192,23189,1,0,0:0:0:0:
64,192,23189,128,0,23281:0:0:0:0:
320,192,23373,128,0,23465:0:0:0:0:
192,192,23557,1,0,0:0:0:0:
448,192,23557,1,0,0:0:0:0:
64,192,23557,128,0,23649:0:0:0:0:
192,192,23741,1,0,0:0:0:0:
320,192,23741,128,0,23833:0:0:0:0:
64,192,23925,128,0,24018:0:0:0:0:
64,192,24110,1,0,0:0:0:0:
320,192,24110,1,0,0:0:0:0:
448,192,24110,128,0,24294:0:0:0:0:
192,192,24294,1,0,0:0:0:0:
320,192,24386,1,0,0:0:0:0:
448,192,24478,1,0,0:0:0:0:
192,192,24478,128,0,24570:0:0:0:0:
64,192,24662,1,0,0:0:0:0:
320,192,24662,1,0,0:0:0:0:
448,192,24662,128,0,24754:0:0:0:0:
320,192,24846,128,0,24938:0:0:0:0:
64,192,25030,1,0,0:0:0:0:
448,192,25030,1,0,0:0:0:0:
192,192,25030,128,0,25122:0:0:0:0:
64,192,25214,1,0,0:0:0:0:
320,192,25214,128,0,25306:0:0:0:0:
448,192,25398,128,0,25490:0:0:0:0:
64,192,25582,1,0,0:0:0:0:
448,192,25582,1,0,0:0:0:0:
192,192,25582,128,0,25674:0:0:0:0:
320,192,25766,128,0,25858:0:0:0:0:
320,192,25950,1,0,0:0:0:0:
64,192,25950,128,0,26042:0:0:0:0:
64,192,26134,1,0,0:0:0:0:
448,192,26134,1,0,0:0:0:0:
192,192,26134,128,0,26226:0:0:0:0:
448,192,26318,128,0,26410:0:0:0:0:
320,192,26502,1,0,0:0:0:0:
192,192,26502,1,0,0:0:0:0:
64,192,26502,128,0,26686:0:0:0:0:
320,192,26686,128,0,26870:0:0:0:0:
192,192,26870,1,0,0:0:0:0:
448,192,26870,128,0,27054:0:0:0:0:
192,192,27054,128,0,27238:0:0:0:0:
448,192,27238,1,0,0:0:0:0:
64,192,27238,128,0,27606:0:0:0:0:
448,192,27422,1,0,0:0:0:0:
192,192,27606,1,0,0:0:0:0:
448,192,27698,1,0,0:0:0:0:
320,192,27791,1,0,0:0:0:0:
192,192,27883,1,0,0:0:0:0:
320,192,27975,1,0,0:0:0:0:
448,192,27975,128,0,28159:0:0:0:0:
64,192,27975,1,0,0:0:0:0:
192,192,28159,128,0,28343:0:0:0:0:
320,192,28343,128,0,28527:0:0:0:0:
448,192,28343,1,0,0:0:0:0:
64,192,28527,128,0,28711:0:0:0:0:
448,192,28711,128,0,28895:0:0:0:0:
192,192,28711,1,0,0:0:0:0:
320,192,28895,1,0,0:0:0:0:
192,192,29079,128,0,29263:0:0:0:0:
64,192,29079,1,0,0:0:0:0:
320,192,29263,128,0,29631:0:0:0:0:
192,192,29447,1,0,0:0:0:0:
448,192,29447,1,0,0:0:0:0:
64,192,29631,128,0,29815:0:0:0:0:
448,192,29815,128,0,29999:0:0:0:0:
320,192,29815,1,0,0:0:0:0:
192,192,29999,128,0,30183:0:0:0:0:
64,192,30183,128,0,30367:0:0:0:0:
320,192,30183,1,0,0:0:0:0:
448,192,30367,1,0,0:0:0:0:
192,192,30551,128,0,30735:0:0:0:0:
320,192,30551,1,0,0:0:0:0:
448,192,30735,1,0,0:0:0:0:
320,192,30919,128,0,31103:0:0:0:0:
64,192,30919,1,0,0:0:0:0:
192,192,31103,128,0,31287:0:0:0:0:
320,192,31287,128,0,31471:0:0:0:0:
448,192,31287,1,0,0:0:0:0:
192,192,31471,128,0,31564:0:0:0:0:
320,192,31564,128,0,31656:0:0:0:0:
64,192,31656,1,0,0:0:0:0:
192,192,31656,1,0,0:0:0:0:
448,192,31840,128,0,32024:0:0:0:0:
64,192,32024,128,0,32208:0:0:0:0:
320,192,32024,1,0,0:0:0:0:
192,192,32208,128,0,32576:0:0:0:0:
320,192,32392,1,0,0:0:0:0:
448,192,32392,1,0,0:0:0:0:
64,192,32576,128,0,32760:0:0:0:0:
320,192,32760,128,0,32944:0:0:0:0:
192,192,32760,1,0,0:0:0:0:
448,192,32944,128,0,33128:0:0:0:0:
320,192,33128,128,0,33312:0:0:0:0:
64,192,33128,1,0,0:0:0:0:
448,192,33312,1,0,0:0:0:0:
64,192,33496,128,0,33680:0:0:0:0:
192,192,33496,1,0,0:0:0:0:
320,192,33588,1,0,0:0:0:0:
448,192,33680,1,0,0:0:0:0:
64,192,33864,1,0,0:0:0:0:
320,192,33864,128,0,34048:0:0:0:0:
192,192,33864,1,0,0:0:0:0:
448,192,34048,128,0,34232:0:0:0:0:
192,192,34232,128,0,34416:0:0:0:0:
64,192,34232,1,0,0:0:0:0:
320,192,34416,128,0,34600:0:0:0:0:
64,192,34600,128,0,34784:0:0:0:0:
448,192,34600,1,0,0:0:0:0:
320,192,34784,1,0,0:0:0:0:
192,192,34968,128,0,35152:0:0:0:0:
448,192,34968,1,0,0:0:0:0:
64,192,35152,128,0,35521:0:0:0:0:
192,192,35337,1,0,0:0:0:0:
448,192,35337,1,0,0:0:0:0:
320,192,35521,128,0,35705:0:0:0:0:
192,192,35705,128,0,35889:0:0:0:0:
64,192,35705,1,0,0:0:0:0:
448,192,35889,128,0,36073:0:0:0:0:
320,192,36073,128,0,36257:0:0:0:0:
192,192,36073,1,0,0:0:0:0:
448,192,36257,1,0,0:0:0:0:
64,192,36441,128,0,36625:0:0:0:0:
320,192,36441,1,0,0:0:0:0:
192,192,36625,1,0,0:0:0:0:
448,192,36809,128,0,36993:0:0:0:0:
320,192,36809,1,0,0:0:0:0:
64,192,36993,128,0,37177:0:0:0:0:
448,192,37177,128,0,37361:0:0:0:0:
192,192,37177,1,0,0:0:0:0:
64,192,37361,128,0,37453:0:0:0:0:
448,192,37453,128,0,37729:0:0:0:0:
192,192,37545,1,0,0:0:0:0:
320,192,37545,1,0,0:0:0:0:
64,192,37729,128,0,37913:0:0:0:0:
192,192,37913,128,0,38097:0:0:0:0:
448,192,37913,1,0,0:0:0:0:
320,192,38097,128,0,38465:0:0:0:0:
64,192,38281,1,0,0:0:0:0:
192,192,38281,1,0,0:0:0:0:
64,192,38465,128,0,38649:0:0:0:0:
448,192,38465,1,0,0:0:0:0:
448,192,38649,128,0,38833:0:0:0:0:
320,192,38649,1,0,0:0:0:0:
320,192,38833,128,0,39018:0:0:0:0:
192,192,38833,1,0,0:0:0:0:
192,192,39018,128,0,39202:0:0:0:0:
64,192,39018,1,0,0:0:0:0:
320,192,39202,1,0,0:0:0:0:
64,192,39386,128,0,39754:0:0:0:0:
448,192,39386,1,0,0:0:0:0:
192,192,39478,1,0,0:0:0:0:
320,192,39570,1,0,0:0:0:0:
192,192,39754,1,0,0:0:0:0:
448,192,39754,128,0,39938:0:0:0:0:
320,192,39754,1,0,0:0:0:0:
192,192,39938,128,0,40122:0:0:0:0:
448,192,40122,128,0,40306:0:0:0:0:
64,192,40122,1,0,0:0:0:0:
192,192,40306,128,0,40398:0:0:0:0:
448,192,40398,128,0,40674:0:0:0:0:
320,192,40490,1,0,0:0:0:0:
64,192,40490,1,0,0:0:0:0:
192,192,40674,128,0,40858:0:0:0:0:
320,192,40858,128,0,41042:0:0:0:0:
448,192,40858,1,0,0:0:0:0:
64,192,41042,128,0,41226:0:0:0:0:
192,192,41226,128,0,41410:0:0:0:0:
320,192,41226,1,0,0:0:0:0:
448,192,41410,128,0,41594:0:0:0:0:
64,192,41594,128,0,41778:0:0:0:0:
192,192,41594,1,0,0:0:0:0:
320,192,41778,128,0,41962:0:0:0:0:
448,192,41962,128,0,42146:0:0:0:0:
64,192,41962,1,0,0:0:0:0:
320,192,42146,1,0,0:0:0:0:
192,192,42330,128,0,42698:0:0:0:0:
448,192,42330,1,0,0:0:0:0:
64,192,42514,1,0,0:0:0:0:
320,192,42698,128,0,42883:0:0:0:0:
448,192,42698,1,0,0:0:0:0:
64,192,42883,128,0,43067:0:0:0:0:
320,192,43067,128,0,43251:0:0:0:0:
192,192,43067,1,0,0:0:0:0:
64,192,43251,128,0,43343:0:0:0:0:
320,192,43343,128,0,43619:0:0:0:0:
192,192,43435,1,0,0:0:0:0:
448,192,43435,1,0,0:0:0:0:
64,192,43619,128,0,43803:0:0:0:0:
448,192,43803,128,0,44171:0:0:0:0:
320,192,43803,1,0,0:0:0:0:
192,192,43987,128,0,44171:0:0:0:0:
64,192,43987,128,0,44171:0:0:0:0:
320,192,44355,128,0,44723:0:0:0:0:
192,192,44723,128,0,44907:0:0:0:0:
320,192,44907,128,0,45275:0:0:0:0:
64,192,45275,1,0,0:0:0:0:
192,192,45367,1,0,0:0:0:0:
448,192,45459,1,0,0:0:0:0:
320,192,45551,1,0,0:0:0:0:
448,192,45643,1,0,0:0:0:0:
192,192,45643,1,0,0:0:0:0:
64,192,45643,1,0,0:0:0:0:
320,192,45827,1,0,0:0:0:0:
64,192,46011,1,0,0:0:0:0:
192,192,46011,128,0,46103:0:0:0:0:
320,192,46195,128,0,46287:0:0:0:0:
448,192,46379,1,0,0:0:0:0:
64,192,46379,128,0,46471:0:0:0:0:
192,192,46564,128,0,46656:0:0:0:0:
448,192,46748,1,0,0:0:0:0:
320,192,46748,128,0,46840:0:0:0:0:
192,192,46932,128,0,47024:0:0:0:0:
64,192,47116,1,0,0:0:0:0:
448,192,47116,1,0,0:0:0:0:
320,192,47300,128,0,47392:0:0:0:0:
192,192,47484,1,0,0:0:0:0:
448,192,47484,1,0,0:0:0:0:
320,192,47668,128,0,47760:0:0:0:0:
448,192,47852,1,0,0:0:0:0:
64,192,47852,128,0,47944:0:0:0:0:
192,192,48036,128,0,48128:0:0:0:0:
448,192,48128,1,0,0:0:0:0:
64,192,48220,1,0,0:0:0:0:
320,192,48220,128,0,48312:0:0:0:0:
192,192,48404,1,0,0:0:0:0:
64,192,48588,1,0,0:0:0:0:
448,192,48588,1,0,0:0:0:0:
320,192,48772,1,0,0:0:0:0:
192,192,48956,1,0,0:0:0:0:
64,192,48956,128,0,49048:0:0:0:0:
448,192,49140,128,0,49232:0:0:0:0:
320,192,49324,1,0,0:0:0:0:
192,192,49324,128,0,49416:0:0:0:0:
448,192,49508,128,0,49600:0:0:0:0:
192,192,49692,1,0,0:0:0:0:
64,192,49692,1,0,0:0:0:0:
320,192,49876,128,0,49968:0:0:0:0:
448,192,50060,1,0,0:0:0:0:
64,192,50060,1,0,0:0:0:0:
192,192,50245,128,0,50337:0:0:0:0:
320,192,50429,1,0,0:0:0:0:
448,192,50429,1,0,0:0:0:0:
64,192,50613,128,0,50705:0:0:0:0:
192,192,50797,1,0,0:0:0:0:
320,192,50797,128,0,50889:0:0:0:0:
64,192,50981,128,0,51073:0:0:0:0:
192,192,51073,1,0,0:0:0:0:
320,192,51165,1,0,0:0:0:0:
448,192,51165,128,0,51257:0:0:0:0:
192,192,51349,1,0,0:0:0:0:
64,192,51533,1,0,0:0:0:0:
320,192,51533,1,0,0:0:0:0:
448,192,51533,1,0,0:0:0:0:
192,192,51717,1,0,0:0:0:0:
64,192,51901,1,0,0:0:0:0:
320,192,51901,128,0,51993:0:0:0:0:
448,192,52085,128,0,52177:0:0:0:0:
64,192,52269,1,0,0:0:0:0:
192,192,52269,128,0,52361:0:0:0:0:
320,192,52453,128,0,52545:0:0:0:0:
448,192,52637,1,0,0:0:0:0:
192,192,52637,128,0,52729:0:0:0:0:
64,192,52821,128,0,52913:0:0:0:0:
320,192,53005,1,0,0:0:0:0:
448,192,53005,1,0,0:0:0:0:
192,192,53189,128,0,53281:0:0:0:0:
320,192,53281,1,0,0:0:0:0:
448,192,53373,1,0,0:0:0:0:
64,192,53373,1,0,0:0:0:0:
320,192,53557,128,0,53649:0:0:0:0:
192,192,53741,1,0,0:0:0:0:
64,192,53741,128,0,53833:0:0:0:0:
320,192,53925,128,0,54018:0:0:0:0:
192,192,54018,1,0,0:0:0:0:
64,192,54110,1,0,0:0:0:0:
448,192,54110,128,0,54202:0:0:0:0:
192,192,54294,1,0,0:0:0:0:
320,192,54478,1,0,0:0:0:0:
448,192,54478,1,0,0:0:0:0:
64,192,54662,1,0,0:0:0:0:
320,192,54846,1,0,0:0:0:0:
192,192,54846,128,0,54938:0:0:0:0:
448,192,55030,128,0,55122:0:0:0:0:
192,192,55214,1,0,0:0:0:0:
64,192,55214,128,0,55306:0:0:0:0:
320,192,55398,128,0,55490:0:0:0:0:
448,192,55582,1,0,0:0:0:0:
64,192,55582,1,0,0:0:0:0:
192,192,55674,1,0,0:0:0:0:
320,192,55674,1,0,0:0:0:0:
64,192,55766,128,0,56502:0:0:0:0:
448,192,55766,128,0,55950:0:0:0:0:
320,192,56134,128,0,56318:0:0:0:0:
192,192,56502,128,0,56686:0:0:0:0:
64,192,56686,128,0,57054:0:0:0:0:
320,192,57054,1,0,0:0:0:0:
448,192,57054,1,0,0:0:0:0:
192,192,57146,1,0,0:0:0:0:
64,192,57146,1,0,0:0:0:0:
320,192,57238,1,0,0:0:0:0:
448,192,57422,1,0,0:0:0:0:
192,192,57422,1,0,0:0:0:0:
64,192,57422,1,0,0:0:0:0:
320,192,57606,1,0,0:0:0:0:
192,192,57791,128,0,57975:0:0:0:0:
64,192,57791,1,0,0:0:0:0:
448,192,57975,1,0,0:0:0:0:
192,192,58159,128,0,58343:0:0:0:0:
320,192,58159,1,0,0:0:0:0:
64,192,58343,1,0,0:0:0:0:
192,192,58527,128,0,58711:0:0:0:0:
448,192,58527,1,0,0:0:0:0:
320,192,58711,128,0,58895:0:0:0:0:
64,192,58895,128,0,59079:0:0:0:0:
192,192,58895,1,0,0:0:0:0:
448,192,59079,128,0,59263:0:0:0:0:
320,192,59263,1,0,0:0:0:0:
192,192,59263,1,0,0:0:0:0:
448,192,59447,128,0,59631:0:0:0:0:
320,192,59631,1,0,0:0:0:0:
64,192,59631,1,0,0:0:0:0:
192,192,59815,128,0,59999:0:0:0:0:
320,192,59999,128,0,60183:0:0:0:0:
448,192,59999,1,0,0:0:0:0:
64,192,60183,128,0,60367:0:0:0:0:
448,192,60367,128,0,60551:0:0:0:0:
320,192,60367,1,0,0:0:0:0:
192,192,60551,128,0,60735:0:0:0:0:
320,192,60735,128,0,61103:0:0:0:0:
64,192,60735,1,0,0:0:0:0:
192,192,60919,1,0,0:0:0:0:
448,192,61103,1,0,0:0:0:0:
64,192,61103,1,0,0:0:0:0:
192,192,61287,128,0,61471:0:0:0:0:
448,192,61471,128,0,61656:0:0:0:0:
320,192,61471,1,0,0:0:0:0:
192,192,61656,128,0,61840:0:0:0:0:
320,192,61840,128,0,62024:0:0:0:0:
448,192,61840,1,0,0:0:0:0:
64,192,62024,128,0,62208:0:0:0:0:
192,192,62208,128,0,62392:0:0:0:0:
320,192,62208,1,0,0:0:0:0:
448,192,62392,128,0,62576:0:0:0:0:
320,192,62576,128,0,62760:0:0:0:0:
64,192,62576,1,0,0:0:0:0:
192,192,62760,1,0,0:0:0:0:
64,192,62944,128,0,63312:0:0:0:0:
448,192,62944,1,0,0:0:0:0:
320,192,63128,1,0,0:0:0:0:
192,192,63312,1,0,0:0:0:0:
320,192,63312,1,0,0:0:0:0:
448,192,63312,1,0,0:0:0:0:
64,192,63496,1,0,0:0:0:0:
192,192,63680,128,0,63864:0:0:0:0:
320,192,63680,1,0,0:0:0:0:
448,192,63864,128,0,64048:0:0:0:0:
64,192,64048,128,0,64232:0:0:0:0:
320,192,64048,1,0,0:0:0:0:
192,192,64232,128,0,64416:0:0:0:0:
448,192,64416,128,0,64600:0:0:0:0:
64,192,64416,1,0,0:0:0:0:
320,192,64600,128,0,64784:0:0:0:0:
192,192,64784,128,0,64968:0:0:0:0:
448,192,64784,1,0,0:0:0:0:
64,192,64968,128,0,65152:0:0:0:0:
320,192,65152,128,0,65337:0:0:0:0:
448,192,65152,1,0,0:0:0:0:
192,192,65337,128,0,65521:0:0:0:0:
64,192,65521,1,0,0:0:0:0:
320,192,65521,1,0,0:0:0:0:
448,192,65705,128,0,65889:0:0:0:0:
64,192,65889,128,0,66073:0:0:0:0:
192,192,65889,1,0,0:0:0:0:
448,192,66073,1,0,0:0:0:0:
320,192,66257,128,0,66441:0:0:0:0:
64,192,66257,1,0,0:0:0:0:
192,192,66441,128,0,66625:0:0:0:0:
448,192,66625,128,0,66809:0:0:0:0:
320,192,66625,1,0,0:0:0:0:
64,192,66809,128,0,66993:0:0:0:0:
192,192,66993,128,0,67177:0:0:0:0:
448,192,66993,1,0,0:0:0:0:
320,192,67177,128,0,67361:0:0:0:0:
448,192,67361,128,0,67545:0:0:0:0:
192,192,67361,1,0,0:0:0:0:
64,192,67545,128,0,67729:0:0:0:0:
320,192,67729,1,0,0:0:0:0:
448,192,67729,1,0,0:0:0:0:
192,192,67913,128,0,68281:0:0:0:0:
64,192,68097,1,0,0:0:0:0:
448,192,68097,1,0,0:0:0:0:
320,192,68281,128,0,68649:0:0:0:0:
192,192,68465,1,0,0:0:0:0:
448,192,68465,1,0,0:0:0:0:
64,192,68649,128,0,68833:0:0:0:0:
448,192,68833,128,0,69018:0:0:0:0:
320,192,68833,1,0,0:0:0:0:
192,192,69018,1,0,0:0:0:0:
64,192,69202,1,0,0:0:0:0:
448,192,69202,1,0,0:0:0:0:
320,192,69202,128,0,69294:0:0:0:0:
448,192,69386,1,0,0:0:0:0:
192,192,69386,128,0,69478:0:0:0:0:
320,192,69570,128,0,69662:0:0:0:0:
320,192,69754,1,0,0:0:0:0:
192,192,69754,1,0,0:0:0:0:
64,192,69754,128,0,69938:0:0:0:0:
448,192,69938,1,0,0:0:0:0:
192,192,70122,1,0,0:0:0:0:
448,192,70122,128,0,70214:0:0:0:0:
192,192,70306,1,0,0:0:0:0:
320,192,70306,1,0,0:0:0:0:
64,192,70306,128,0,70398:0:0:0:0:
320,192,70490,128,0,70582:0:0:0:0:
192,192,70674,1,0,0:0:0:0:
64,192,70674,1,0,0:0:0:0:
448,192,70674,128,0,70766:0:0:0:0:
320,192,70858,1,0,0:0:0:0:
64,192,70858,128,0,70950:0:0:0:0:
448,192,71042,128,0,71134:0:0:0:0:
448,192,71226,1,0,0:0:0:0:
320,192,71226,1,0,0:0:0:0:
192,192,71226,128,0,71410:0:0:0:0:
64,192,71410,1,0,0:0:0:0:
320,192,71502,1,0,0:0:0:0:
192,192,71594,1,0,0:0:0:0:
64,192,71594,128,0,71686:0:0:0:0:
192,192,71778,1,0,0:0:0:0:
448,192,71778,1,0,0:0:0:0:
320,192,71778,128,0,71870:0:0:0:0:
448,192,71962,128,0,72054:0:0:0:0:
192,192,72146,1,0,0:0:0:0:
64,192,72146,1,0,0:0:0:0:
320,192,72146,128,0,72238:0:0:0:0:
448,192,72330,1,0,0:0:0:0:
64,192,72330,128,0,72422:0:0:0:0:
320,192,72514,128,0,72606:0:0:0:0:
320,192,72698,1,0,0:0:0:0:
448,192,72698,1,0,0:0:0:0:
192,192,72698,128,0,72883:0:0:0:0:
64,192,72883,1,0,0:0:0:0:
448,192,73067,1,0,0:0:0:0:
64,192,73067,128,0,73159:0:0:0:0:
192,192,73251,1,0,0:0:0:0:
320,192,73251,1,0,0:0:0:0:
448,192,73251,128,0,73343:0:0:0:0:
192,192,73435,128,0,73527:0:0:0:0:
320,192,73619,1,0,0:0:0:0:
448,192,73619,1,0,0:0:0:0:
64,192,73619,128,0,73803:0:0:0:0:
320,192,73803,128,0,73987:0:0:0:0:
192,192,73987,1,0,0:0:0:0:
448,192,73987,128,0,74171:0:0:0:0:
192,192,74171,128,0,74355:0:0:0:0:
64,192,74355,1,0,0:0:0:0:
320,192,74355,128,0,74539:0:0:0:0:
64,192,74539,128,0,74723:0:0:0:0:
448,192,74723,1,0,0:0:0:0:
192,192,74723,128,0,75091:0:0:0:0:
320,192,74907,1,0,0:0:0:0:
64,192,75091,1,0,0:0:0:0:
448,192,75091,1,0,0:0:0:0:
320,192,75091,128,0,75183:0:0:0:0:
192,192,75275,1,0,0:0:0:0:
64,192,75275,128,0,75367:0:0:0:0:
320,192,75459,128,0,75551:0:0:0:0:
192,192,75643,1,0,0:0:0:0:
320,192,75643,1,0,0:0:0:0:
448,192,75643,128,0,75827:0:0:0:0:
64,192,75827,1,0,0:0:0:0:
448,192,76011,1,0,0:0:0:0:
64,192,76011,128,0,76103:0:0:0:0:
320,192,76195,1,0,0:0:0:0:
448,192,76195,1,0,0:0:0:0:
192,192,76195,128,0,76287:0:0:0:0:
320,192,76379,128,0,76471:0:0:0:0:
192,192,76564,1,0,0:0:0:0:
64,192,76564,1,0,0:0:0:0:
448,192,76564,128,0,76656:0:0:0:0:
320,192,76748,1,0,0:0:0:0:
64,192,76748,128,0,76840:0:0:0:0:
448,192,76932,128,0,77024:0:0:0:0:
448,192,77116,1,0,0:0:0:0:
192,192,77116,1,0,0:0:0:0:
320,192,77116,128,0,77300:0:0:0:0:
64,192,77300,1,0,0:0:0:0:
192,192,77392,1,0,0:0:0:0:
320,192,77484,1,0,0:0:0:0:
64,192,77484,128,0,77576:0:0:0:0:
320,192,77668,1,0,0:0:0:0:
448,192,77668,1,0,0:0:0:0:
192,192,77668,128,0,77760:0:0:0:0:
448,192,77852,128,0,77944:0:0:0:0:
192,192,78036,1,0,0:0:0:0:
320,192,78036,1,0,0:0:0:0:
64,192,78036,128,0,78128:0:0:0:0:
448,192,78220,1,0,0:0:0:0:
192,192,78220,128,0,78312:0:0:0:0:
320,192,78404,128,0,78496:0:0:0:0:
320,192,78588,1,0,0:0:0:0:
64,192,78588,1,0,0:0:0:0:
448,192,78588,128,0,78680:0:0:0:0:
192,192,78772,128,0,78864:0:0:0:0:
192,192,78956,1,0,0:0:0:0:
448,192,78956,128,0,79048:0:0:0:0:
448,192,79140,1,0,0:0:0:0:
320,192,79140,1,0,0:0:0:0:
64,192,79140,128,0,79232:0:0:0:0:
320,192,79324,128,0,79416:0:0:0:0:
64,192,79508,1,0,0:0:0:0:
448,192,79508,1,0,0:0:0:0:
192,192,79508,128,0,79692:0:0:0:0:
448,192,79692,128,0,79876:0:0:0:0:
64,192,79876,1,0,0:0:0:0:
320,192,79876,128,0,80060:0:0:0:0:
64,192,80060,128,0,80245:0:0:0:0:
192,192,80245,1,0,0:0:0:0:
448,192,80245,128,0,80613:0:0:0:0:
192,192,80429,1,0,0:0:0:0:
320,192,80613,1,0,0:0:0:0:
64,192,80613,1,0,0:0:0:0:
448,192,80797,128,0,80981:0:0:0:0:
320,192,80981,1,0,0:0:0:0:
192,192,80981,128,0,81165:0:0:0:0:
448,192,81165,128,0,81349:0:0:0:0:
320,192,81349,128,0,81533:0:0:0:0:
64,192,81349,1,0,0:0:0:0:
192,192,81533,128,0,81717:0:0:0:0:
64,192,81717,128,0,81901:0:0:0:0:
448,192,81717,1,0,0:0:0:0:
192,192,81901,1,0,0:0:0:0:
320,192,82085,128,0,82269:0:0:0:0:
64,192,82085,1,0,0:0:0:0:
448,192,82269,128,0,82637:0:0:0:0:
64,192,82453,1,0,0:0:0:0:
192,192,82453,1,0,0:0:0:0:
320,192,82637,128,0,82821:0:0:0:0:
64,192,82821,128,0,83005:0:0:0:0:
448,192,82821,1,0,0:0:0:0:
192,192,83005,128,0,83189:0:0:0:0:
448,192,83189,128,0,83373:0:0:0:0:
320,192,83189,1,0,0:0:0:0:
64,192,83373,1,0,0:0:0:0:
320,192,83557,128,0,83741:0:0:0:0:
192,192,83557,1,0,0:0:0:0:
448,192,83741,1,0,0:0:0:0:
192,192,83925,128,0,84110:0:0:0:0:
64,192,83925,1,0,0:0:0:0:
320,192,84110,128,0,84294:0:0:0:0:
192,192,84294,128,0,84478:0:0:0:0:
448,192,84294,1,0,0:0:0:0:
320,192,84478,128,0,84570:0:0:0:0:
192,192,84570,128,0,84846:0:0:0:0:
448,192,84662,1,0,0:0:0:0:
64,192,84662,1,0,0:0:0:0:
320,192,84846,128,0,85030:0:0:0:0:
448,192,85030,128,0,85214:0:0:0:0:
192,192,85030,1,0,0:0:0:0:
64,192,85214,128,0,85582:0:0:0:0:
320,192,85398,1,0,0:0:0:0:
448,192,85398,1,0,0:0:0:0:
192,192,85582,128,0,85766:0:0:0:0:
320,192,85766,128,0,85950:0:0:0:0:
64,192,85766,1,0,0:0:0:0:
448,192,85950,128,0,86134:0:0:0:0:
192,192,86134,128,0,86318:0:0:0:0:
64,192,86134,1,0,0:0:0:0:
448,192,86318,1,0,0:0:0:0:
320,192,86502,128,0,86686:0:0:0:0:
192,192,86502,1,0,0:0:0:0:
448,192,86686,1,0,0:0:0:0:
64,192,86870,128,0,87054:0:0:0:0:
320,192,86870,1,0,0:0:0:0:
448,192,87054,128,0,87238:0:0:0:0:
192,192,87238,128,0,87422:0:0:0:0:
64,192,87238,1,0,0:0:0:0:
320,192,87422,128,0,87606:0:0:0:0:
448,192,87606,128,0,87791:0:0:0:0:
192,192,87606,1,0,0:0:0:0:
64,192,87791,1,0,0:0:0:0:
192,192,87975,128,0,88159:0:0:0:0:
448,192,87975,1,0,0:0:0:0:
64,192,88159,128,0,88527:0:0:0:0:
320,192,88343,1,0,0:0:0:0:
448,192,88343,1,0,0:0:0:0:
192,192,88527,128,0,88711:0:0:0:0:
448,192,88711,128,0,88895:0:0:0:0:
64,192,88711,1,0,0:0:0:0:
320,192,88895,128,0,89079:0:0:0:0:
64,192,89079,128,0,89263:0:0:0:0:
192,192,89079,1,0,0:0:0:0:
320,192,89263,1,0,0:0:0:0:
448,192,89447,128,0,89631:0:0:0:0:
192,192,89447,1,0,0:0:0:0:
64,192,89631,1,0,0:0:0:0:
448,192,89815,1,0,0:0:0:0:
192,192,89815,128,0,89999:0:0:0:0:
320,192,89999,1,0,0:0:0:0:
448,192,89999,128,0,90183:0:0:0:0:
64,192,90183,1,0,0:0:0:0:
320,192,90183,128,0,90367:0:0:0:0:
64,192,90367,1,0,0:0:0:0:
192,192,90367,128,0,90459:0:0:0:0:
320,192,90459,128,0,90551:0:0:0:0:
448,192,90551,1,0,0:0:0:0:
192,192,90551,1,0,0:0:0:0:
64,192,90643,1,0,0:0:0:0:
320,192,90735,1,0,0:0:0:0:
192,192,90827,1,0,0:0:0:0:
64,192,90919,1,0,0:0:0:0:
448,192,90919,1,0,0:0:0:0:
320,192,91011,1,0,0:0:0:0:
192,192,91103,1,0,0:0:0:0:
448,192,91195,1,0,0:0:0:0:
320,192,91287,1,0,0:0:0:0:
64,192,91287,1,0,0:0:0:0:
192,192,91471,128,0,91656:0:0:0:0:
448,192,91656,1,0,0:0:0:0:
320,192,91656,128,0,91840:0:0:0:0:
64,192,91840,128,0,92024:0:0:0:0:
192,192,92024,1,0,0:0:0:0:
448,192,92024,128,0,92208:0:0:0:0:
192,192,92208,1,0,0:0:0:0:
320,192,92392,1,0,0:0:0:0:
64,192,92760,128,0,92944:0:0:0:0:
448,192,92944,128,0,93128:0:0:0:0:
192,192,93128,128,0,93312:0:0:0:0:
320,192,93312,128,0,93496:0:0:0:0:
64,192,93496,128,0,93680:0:0:0:0:
320,192,93680,1,0,0:0:0:0:
448,192,93680,1,0,0:0:0:0:
448,192,93864,1,0,0:0:0:0:
64,192,93864,1,0,0:0:0:0:
192,192,94048,128,0,94232:0:0:0:0:
448,192,94232,1,0,0:0:0:0:
320,192,94232,128,0,94416:0:0:0:0:
64,192,94416,128,0,94600:0:0:0:0:
192,192,94600,128,0,94784:0:0:0:0:
320,192,94600,1,0,0:0:0:0:
448,192,94784,128,0,94968:0:0:0:0:
320,192,94968,128,0,95152:0:0:0:0:
64,192,94968,1,0,0:0:0:0:
192,192,95152,1,0,0:0:0:0:
448,192,95337,128,0,95521:0:0:0:0:
320,192,95337,1,0,0:0:0:0:
64,192,95521,128,0,95889:0:0:0:0:
448,192,95705,1,0,0:0:0:0:
320,192,95705,1,0,0:0:0:0:
320,192,95889,1,0,0:0:0:0:
448,192,95889,1,0,0:0:0:0:
192,192,96073,1,0,0:0:0:0:
64,192,96073,1,0,0:0:0:0:
192,192,96257,1,0,0:0:0:0:
64,192,96257,1,0,0:0:0:0:
320,192,96441,1,0,0:0:0:0:
448,192,96441,1,0,0:0:0:0:
192,192,96533,1,0,0:0:0:0:
320,192,96625,1,0,0:0:0:0:
192,192,96717,1,0,0:0:0:0:
320,192,96809,128,0,97177:0:0:0:0:
192,192,97177,1,0,0:0:0:0:
448,192,97177,1,0,0:0:0:0:
64,192,97177,128,0,97361:0:0:0:0:
320,192,97361,128,0,97545:0:0:0:0:
64,192,97545,128,0,97729:0:0:0:0:
448,192,97545,1,0,0:0:0:0:
320,192,97729,128,0,97821:0:0:0:0:
64,192,97821,128,0,98097:0:0:0:0:
192,192,97913,1,0,0:0:0:0:
448,192,97913,1,0,0:0:0:0:
320,192,98097,128,0,98281:0:0:0:0:
192,192,98281,128,0,98465:0:0:0:0:
64,192,98281,1,0,0:0:0:0:
448,192,98465,128,0,98833:0:0:0:0:
192,192,98649,1,0,0:0:0:0:
64,192,98649,1,0,0:0:0:0:
320,192,98833,128,0,99018:0:0:0:0:
192,192,99018,128,0,99202:0:0:0:0:
448,192,99018,1,0,0:0:0:0:
64,192,99202,128,0,99386:0:0:0:0:
320,192,99386,128,0,99570:0:0:0:0:
192,192,99386,1,0,0:0:0:0:
448,192,99570,1,0,0:0:0:0:
192,192,99754,128,0,99938:0:0:0:0:
64,192,99754,1,0,0:0:0:0:
320,192,99846,1,0,0:0:0:0:
448,192,99938,1,0,0:0:0:0:
320,192,100122,128,0,100306:0:0:0:0:
64,192,100122,1,0,0:0:0:0:
192,192,100122,1,0,0:0:0:0:
448,192,100306,128,0,100490:0:0:0:0:
64,192,100490,128,0,100674:0:0:0:0:
320,192,100490,1,0,0:0:0:0:
192,192,100674,128,0,100858:0:0:0:0:
320,192,100858,128,0,101042:0:0:0:0:
448,192,100858,1,0,0:0:0:0:
192,192,101042,1,0,0:0:0:0:
448,192,101226,128,0,101410:0:0:0:0:
64,192,101226,1,0,0:0:0:0:
192,192,101410,128,0,101594:0:0:0:0:
448,192,101594,128,0,101778:0:0:0:0:
64,192,101594,1,0,0:0:0:0:
320,192,101778,128,0,101962:0:0:0:0:
192,192,101962,128,0,102146:0:0:0:0:
448,192,101962,1,0,0:0:0:0:
64,192,102146,128,0,102330:0:0:0:0:
192,192,102330,128,0,102514:0:0:0:0:
448,192,102330,1,0,0:0:0:0:
64,192,102514,1,0,0:0:0:0:
320,192,102698,128,0,102883:0:0:0:0:
192,192,102698,1,0,0:0:0:0:
448,192,102883,1,0,0:0:0:0:
192,192,103067,128,0,103251:0:0:0:0:
64,192,103067,1,0,0:0:0:0:
448,192,103251,128,0,103435:0:0:0:0:
192,192,103435,128,0,103619:0:0:0:0:
320,192,103435,1,0,0:0:0:0:
448,192,103619,128,0,103711:0:0:0:0:
192,192,103711,128,0,103987:0:0:0:0:
320,192,103803,1,0,0:0:0:0:
64,192,103803,1,0,0:0:0:0:
448,192,103987,128,0,104171:0:0:0:0:
320,192,104171,128,0,104355:0:0:0:0:
192,192,104171,1,0,0:0:0:0:
64,192,104355,128,0,104723:0:0:0:0:
448,192,104539,1,0,0:0:0:0:
192,192,104539,1,0,0:0:0:0:
320,192,104723,1,0,0:0:0:0:
448,192,104723,128,0,104907:0:0:0:0:
192,192,104907,1,0,0:0:0:0:
320,192,104907,128,0,105091:0:0:0:0:
192,192,105091,128,0,105275:0:0:0:0:
64,192,105183,1,0,0:0:0:0:
320,192,105275,1,0,0:0:0:0:
448,192,105275,128,0,105459:0:0:0:0:
192,192,105459,1,0,0:0:0:0:
448,192,105643,1,0,0:0:0:0:
64,192,105643,128,0,106011:0:0:0:0:
192,192,105735,1,0,0:0:0:0:
320,192,105827,1,0,0:0:0:0:
448,192,106011,1,0,0:0:0:0:
192,192,106011,1,0,0:0:0:0:
320,192,106011,128,0,106195:0:0:0:0:
192,192,106195,128,0,106379:0:0:0:0:
320,192,106379,128,0,106564:0:0:0:0:
448,192,106379,1,0,0:0:0:0:
192,192,106564,128,0,106656:0:0:0:0:
320,192,106656,128,0,106932:0:0:0:0:
64,192,106748,1,0,0:0:0:0:
448,192,106748,1,0,0:0:0:0:
192,192,106932,128,0,107116:0:0:0:0:
64,192,107116,128,0,107300:0:0:0:0:
320,192,107116,1,0,0:0:0:0:
448,192,107300,128,0,107484:0:0:0:0:
320,192,107484,128,0,107668:0:0:0:0:
64,192,107484,1,0,0:0:0:0:
192,192,107668,128,0,107852:0:0:0:0:
448,192,107852,128,0,108036:0:0:0:0:
320,192,107852,1,0,0:0:0:0:
64,192,108036,128,0,108220:0:0:0:0:
320,192,108220,128,0,108404:0:0:0:0:
192,192,108220,1,0,0:0:0:0:
64,192,108404,1,0,0:0:0:0:
192,192,108588,128,0,108956:0:0:0:0:
448,192,108588,1,0,0:0:0:0:
64,192,108772,1,0,0:0:0:0:
448,192,108956,128,0,109140:0:0:0:0:
320,192,108956,1,0,0:0:0:0:
64,192,109140,128,0,109324:0:0:0:0:
448,192,109324,128,0,109508:0:0:0:0:
192,192,109324,1,0,0:0:0:0:
64,192,109508,128,0,109600:0:0:0:0:
448,192,109600,128,0,109876:0:0:0:0:
320,192,109692,1,0,0:0:0:0:
192,192,109692,1,0,0:0:0:0:
64,192,109876,128,0,110060:0:0:0:0:
320,192,110060,1,0,0:0:0:0:
448,192,110060,1,0,0:0:0:0:
192,192,110152,1,0,0:0:0:0:
64,192,110152,1,0,0:0:0:0:
320,192,110245,1,0,0:0:0:0:
192,192,110429,128,0,110797:0:0:0:0:
448,192,110797,128,0,111165:0:0:0:0:
64,192,111165,128,0,111533:0:0:0:0:
192,192,111349,128,0,111533:0:0:0:0:
320,192,111533,128,0,111901:0:0:0:0:
448,192,111901,128,0,112085:0:0:0:0:
192,192,111901,1,0,0:0:0:0:
64,192,112085,128,0,112269:0:0:0:0:
320,192,112269,128,0,112453:0:0:0:0:
448,192,112269,1,0,0:0:0:0:
192,192,112453,128,0,112637:0:0:0:0:
64,192,112637,128,0,112821:0:0:0:0:
320,192,112637,1,0,0:0:0:0:
448,192,112821,128,0,113005:0:0:0:0:
320,192,112913,1,0,0:0:0:0:
192,192,113005,1,0,0:0:0:0:
64,192,113005,1,0,0:0:0:0:
320,192,113097,1,0,0:0:0:0:
448,192,113097,1,0,0:0:0:0:
192,192,113189,1,0,0:0:0:0:
64,192,113189,1,0,0:0:0:0:
320,192,113557,1,0,0:0:0:0:
448,192,113557,1,0,0:0:0:0:
192,192,113741,128,0,114110:0:0:0:0:
320,192,113741,128,0,114110:0:0:0:0:
64,192,114110,1,0,0:0:0:0:
448,192,114110,1,0,0:0:0:0:
320,192,114478,1,0,0:0:0:0:
192,192,114478,1,0,0:0:0:0:
