osu file format v14

[General]
AudioFilename: VOX Diamond Nee-san.mp3
AudioLeadIn: 0
PreviewTime: 30609
Countdown: 0
SampleSet: Soft
StackLeniency: 0.7
Mode: 0
LetterboxInBreaks: 1
WidescreenStoryboard: 1

[Editor]
DistanceSpacing: 1
BeatDivisor: 4
GridSize: 4
TimelineZoom: 2.3

[Metadata]
Title:VOX Diamond Nee-san
TitleUnicode:VOX Diamond姉さん
Artist:Naa
ArtistUnicode:Naa
Creator:HICCA
Version:Extra tic
Source:Nico Nico Douga
Tags:+チック姉さん plastic +tic elder sister t+pazolite hicari
BeatmapID:1393777
BeatmapSetID:658047

[Difficulty]
HPDrainRate:6
CircleSize:4
OverallDifficulty:8.5
ApproachRate:9.6
SliderMultiplier:1.9
SliderTickRate:1

[Events]
//Background and Video events
0,0,"BG.jpg",0,0
Video,0,"VOX Diamond Nee-san.avi"
//Break Periods
2,64409,72609
//Storyboard Layer 0 (Background)
//Storyboard Layer 1 (Fail)
//Storyboard Layer 2 (Pass)
//Storyboard Layer 3 (Foreground)
//Storyboard Sound Samples

[TimingPoints]
6609,300,4,2,1,50,1,0
6609,-133.333333333333,4,2,1,50,0,0
16209,-100,4,2,1,70,0,0
24609,-66.6666666666667,4,1,1,80,0,0
25509,-50,4,1,1,40,0,0
25809,-80,4,1,1,80,0,0
30609,-66.6666666666667,4,1,1,80,0,0
33009,-100,4,1,1,70,0,0
35109,-66.6666666666667,4,1,1,40,0,0
35409,-100,4,1,1,70,0,0
39609,-80,4,1,1,70,0,0
40509,-80,4,1,1,80,0,0
42609,-83.3333333333333,4,1,1,75,0,0
42909,-86.9565217391304,4,1,1,70,0,0
43209,-86.9565217391304,4,1,1,65,0,0
43509,-95.2380952380952,4,1,1,60,0,0
43809,-100,4,1,1,55,0,0
44709,-80,4,1,1,40,0,0
45009,-200,4,2,1,50,0,0
49209,-100,4,2,1,40,0,0
49809,-200,4,2,1,50,0,0
54609,-133.333333333333,4,2,1,60,0,0
73809,-100,4,2,1,70,0,0
82209,-200,4,2,1,60,0,0
83409,-133.333333333333,4,2,1,65,0,0
84309,-66.6666666666667,4,1,1,70,0,0
84609,-80,4,1,1,80,0,0
93009,-76.9230769230769,4,1,1,85,0,0
93309,-74.0740740740741,4,1,1,85,0,0
93609,-71.4285714285714,4,1,1,85,0,0
93909,-68.9655172413793,4,1,1,85,0,0
94209,-66.6666666666667,4,1,1,90,0,1
103509,-50,4,1,1,90,0,1
103809,-80,4,1,1,80,0,0
112809,-76.9230769230769,4,1,1,82,0,0
112959,-74.0740740740741,4,1,1,84,0,0
113109,-71.4285714285714,4,1,1,86,0,0
113259,-68.9655172413793,4,1,1,88,0,0
113409,-66.6666666666667,4,1,1,90,0,1
123009,-100,4,1,1,80,0,0

[HitObjects]
69,67,6609,5,2,0:0:0:0:
148,199,6759,1,0,0:0:0:0:
148,199,6909,1,0,0:0:0:0:
162,46,7059,1,2,0:0:0:0:
60,161,7209,1,0,0:0:0:0:
210,127,7359,1,0,0:0:0:0:
210,127,7434,1,0,0:0:0:0:
210,127,7509,2,0,P|160:128|119:110,1,71.2500027179719,2|0,0:0|0:0,0:0:0:0:
256,30,7809,5,0,0:0:0:0:
358,126,7959,2,0,P|359:176|341:217,1,71.2500027179719,0|2,0:0|0:0,0:0:0:0:
269,153,8259,1,0,0:0:0:0:
441,168,8409,2,0,L|512:163,1,71.2500027179719,2|0,0:0|0:0,0:0:0:0:
392,42,8709,2,0,L|320:37,1,71.2500027179719,2|0,0:0|0:0,0:0:0:0:
210,127,9009,5,2,0:0:0:0:
203,264,9159,1,0,0:0:0:0:
203,264,9309,1,0,0:0:0:0:
54,224,9459,1,2,0:0:0:0:
127,357,9609,2,0,P|166:348|222:355,1,71.2500027179719,0|0,0:0|0:0,0:0:0:0:
236,367,9834,1,0,0:0:0:0:
236,367,9909,2,0,P|261:342|279:311,1,71.2500027179719,2|0,0:0|0:0,0:0:0:0:
222,195,10209,5,0,0:0:0:0:
370,267,10359,2,0,L|285:267,2,71.2500027179719,2|0|0,0:0|0:0|0:0,0:0:0:0:
466,226,10809,2,0,P|477:275|465:313,1,71.2500027179719,2|0,0:0|0:0,0:0:0:0:
466,226,11034,2,0,P|455:177|467:139,1,71.2500027179719,2|0,0:0|0:0,0:0:0:0:
465,136,11259,1,0,0:0:0:0:
467,316,11409,5,2,0:0:0:0:
318,248,11559,1,0,0:0:0:0:
318,248,11709,1,0,0:0:0:0:
326,345,11859,1,2,0:0:0:0:
310,151,12009,1,0,0:0:0:0:
239,279,12159,1,0,0:0:0:0:
239,279,12234,1,0,0:0:0:0:
239,279,12309,2,0,L|149:269,1,71.2500027179719,2|0,0:0|0:0,0:0:0:0:
76,246,12609,5,0,0:0:0:0:
130,350,12759,1,2,0:0:0:0:
184,204,12909,2,0,P|216:190|259:196,1,71.2500027179719,0|0,0:0|0:0,0:0:0:0:
326,345,13209,2,0,P|297:324|281:284,1,71.2500027179719,2|0,0:0|0:0,0:0:0:0:
378,152,13509,2,0,P|374:186|347:220,1,71.2500027179719,2|0,0:0|0:0,0:0:0:0:
251,192,13809,5,2,0:0:0:0:
131,131,13959,1,0,0:0:0:0:
131,131,14109,1,0,0:0:0:0:
265,89,14259,1,2,0:0:0:0:
353,215,14409,2,0,L|437:207,1,71.2500027179719,0|0,0:0|0:0,0:0:0:0:
491,158,14634,1,0,0:0:0:0:
491,158,14709,2,0,L|420:164,1,71.2500027179719,2|0,0:0|0:0,0:0:0:0:
348,69,15009,5,0,0:0:0:0:
309,194,15159,1,2,0:0:0:0:
231,48,15309,2,0,B|275:48|275:48|317:29,1,71.2500027179719,0|0,0:0|0:0,0:0:0:0:
86,96,15609,2,0,P|81:131|88:166,1,71.2500027179719,2|0,0:0|0:0,0:0:0:0:
152,48,15834,2,0,P|123:26|89:15,1,71.2500027179719,2|0,0:0|0:0,0:0:0:0:
162,130,16059,2,0,L|209:123,1,35.625001358986,0|0,0:0|0:0,0:0:0:0:
256,114,16209,5,10,0:0:0:0:
183,239,16359,2,0,P|139:222|94:234,1,95,0|0,0:0|0:0,0:0:0:0:
147,340,16659,1,2,0:0:0:0:
170,335,16734,1,0,0:0:0:0:
193,330,16809,1,0,0:0:0:0:
320,271,16959,1,0,0:0:0:0:
343,276,17034,1,0,0:0:0:0:
366,281,17109,1,2,0:0:0:0:
238,188,17259,1,0,0:0:0:0:
273,354,17409,5,0,0:0:0:0:
139,268,17559,1,2,0:0:0:0:
142,244,17634,1,0,0:0:0:0:
148,220,17709,2,0,L|255:181,1,95,0|0,0:0|0:0,0:0:0:0:
348,209,18009,5,2,0:0:0:0:
375,345,18159,1,0,0:0:0:0:
361,194,18309,5,2,0:0:0:0:
361,352,18459,1,0,0:0:0:0:
462,261,18609,6,0,B|474:315|474:315|460:352,2,95,10|0|0,0:0|0:0|0:0,0:0:0:0:
322,222,19059,2,0,L|379:180,1,47.5,2|0,0:0|0:0,0:0:0:0:
383,305,19209,1,0,0:0:0:0:
252,359,19359,1,0,0:0:0:0:
223,355,19434,1,0,0:0:0:0:
194,351,19509,1,2,0:0:0:0:
63,292,19659,1,0,0:0:0:0:
172,190,19809,5,0,0:0:0:0:
141,352,19959,1,2,0:0:0:0:
135,324,20034,1,0,0:0:0:0:
129,296,20109,1,0,0:0:0:0:
40,187,20259,1,0,0:0:0:0:
205,257,20409,5,2,0:0:0:0:
254,199,20559,1,0,0:0:0:0:
244,123,20709,1,2,0:0:0:0:
197,63,20859,1,0,0:0:0:0:
108,30,21009,6,0,L|202:17,1,95,8|0,0:0|0:0,0:0:0:0:
74,124,21309,2,0,L|168:111,1,95,0|0,0:0|0:0,0:0:0:0:
405,89,21609,6,0,L|299:76,1,95,8|0,0:0|0:0,0:0:0:0:
448,177,21909,2,0,L|342:164,1,95,0|0,0:0|0:0,0:0:0:0:
303,174,22134,1,0,0:0:0:0:
303,174,22209,2,0,P|276:231|296:271,1,95,8|0,0:0|0:0,0:0:0:0:
376,331,22509,1,0,0:0:0:0:
481,224,22659,1,0,0:0:0:0:
481,224,22734,1,0,0:0:0:0:
481,224,22809,5,8,0:0:0:0:
299,255,22959,1,0,0:0:0:0:
390,163,23109,1,0,0:0:0:0:
309,333,23259,2,0,P|309:311|302:272,1,47.5,0|0,0:0|0:0,0:0:0:0:
252,193,23409,5,8,0:0:0:0:
138,232,23559,1,0,0:0:0:0:
65,135,23709,1,8,0:0:0:0:
136,36,23859,1,0,0:0:0:0:
251,73,24009,1,8,0:0:0:0:
256,81,24084,1,8,0:0:0:0:
257,90,24159,1,8,0:0:0:0:
255,99,24234,1,8,0:0:0:0:
251,107,24309,1,8,0:0:0:0:
245,114,24384,1,8,0:0:0:0:
237,119,24459,1,8,0:0:0:0:
228,122,24534,1,8,0:0:0:0:
215,123,24609,6,0,L|226:264,1,142.500005435944,4|4,0:0|0:0,0:0:0:0:
165,324,24834,1,4,0:0:0:0:
94,276,24909,2,0,P|92:237|106:203,1,71.2500027179719,4|0,0:0|0:0,0:0:0:0:
161,104,25059,1,4,0:0:0:0:
358,252,25209,6,0,B|322:244|322:244|287:247,1,71.2500027179719,4|0,0:0|0:0,0:0:0:0:
69,328,25359,2,0,B|91:299|91:299|120:280,1,71.2500027179719,4|0,0:0|0:0,0:0:0:0:
329,344,25509,6,0,P|449:291|412:166,1,285,2|0,0:0|0:0,0:0:0:0:
366,163,25809,6,0,P|342:110|369:60,1,118.75,0|0,0:0|0:0,0:0:0:0:
226,116,26109,1,8,0:0:0:0:
278,274,26259,1,0,0:0:0:0:
458,211,26409,2,0,P|434:173|342:178,1,118.75,2|0,0:0|0:0,0:0:0:0:
326,187,26634,1,2,0:0:0:0:
326,186,26709,2,0,P|275:215|216:212,1,118.75,8|0,0:0|0:0,0:0:0:0:
121,137,27009,5,0,0:0:0:0:
262,19,27159,2,0,B|270:50|270:50|257:62|257:62|271:129,1,118.75,0|8,0:0|0:0,0:0:0:0:
326,186,27384,2,0,B|318:155|318:155|331:143|331:143|316:75,1,118.75,0|0,0:0|0:0,0:0:0:0:
199,62,27609,1,2,0:0:0:0:
130,254,27759,2,0,P|200:235|248:255,1,118.75,2|8,0:0|0:0,0:0:0:0:
70,358,28059,2,0,P|59:334|60:276,1,59.375,0|0,0:0|0:0,0:0:0:0:
52,271,28209,5,2,0:0:0:0:
54,241,28284,1,2,0:0:0:0:
65,213,28359,1,2,0:0:0:0:
85,192,28434,1,2,0:0:0:0:
102,167,28509,2,0,P|93:91|34:69,1,118.75,8|0,0:0|0:0,0:0:0:0:
18,148,28809,5,0,0:0:0:0:
179,83,28959,1,0,0:0:0:0:
173,222,29109,1,8,0:0:0:0:
314,93,29259,1,0,0:0:0:0:
282,284,29409,5,2,0:0:0:0:
124,299,29559,1,0,0:0:0:0:
288,192,29709,1,8,0:0:0:0:
462,279,29859,1,0,0:0:0:0:
330,356,30009,6,0,P|279:366|193:322,1,118.75,2|0,0:0|0:0,0:0:0:0:
288,192,30309,2,0,L|284:256,3,59.375,8|0|2|0,0:0|0:0|0:0|0:0,0:0:0:0:
282,284,30609,5,2,0:0:0:0:
316,277,30684,1,0,0:0:0:0:
350,270,30759,1,8,0:0:0:0:
385,263,30834,1,0,0:0:0:0:
420,256,30909,1,0,0:0:0:0:
352,96,31059,1,10,0:0:0:0:
254,223,31209,6,0,P|228:213|177:215,1,71.2500027179719,2|0,0:0|0:0,0:0:0:0:
87,252,31359,2,0,P|108:234|132:189,1,71.2500027179719,8|0,0:0|0:0,0:0:0:0:
145,92,31509,2,0,B|149:119|172:158|172:158|217:163|241:151,1,142.500005435944,0|10,0:0|0:0,0:0:0:0:
352,96,31809,5,2,0:0:0:0:
441,204,31959,1,10,0:0:0:0:
432,253,32034,1,0,0:0:0:0:
423,302,32109,1,0,0:0:0:0:
451,94,32259,1,10,0:0:0:0:
323,231,32409,6,0,P|286:233|252:222,1,71.2500027179719,2|0,0:0|0:0,0:0:0:0:
157,155,32559,2,0,P|121:152|87:162,1,71.2500027179719,8|0,0:0|0:0,0:0:0:0:
89,301,32709,6,0,P|122:311|158:308,1,71.2500027179719,2|0,0:0|0:0,0:0:0:0:
253,222,32859,2,0,P|288:219|322:229,1,71.2500027179719,8|0,0:0|0:0,0:0:0:0:
364,364,33009,6,2,B|323:364|271:337|271:337|234:334|182:365,2,190,2|0|0,0:0|0:0|0:0,0:0:0:0:
449,307,33759,1,2,0:0:0:0:
322,229,33909,2,0,P|304:186|323:144,1,95,2|0,0:0|0:0,0:0:0:0:
444,65,34209,6,0,L|304:53,1,95,8|0,0:0|0:0,0:0:0:0:
200,150,34509,6,0,L|340:162,1,95,8|0,0:0|0:0,0:0:0:0:
206,18,34809,6,0,B|178:61|178:61|205:172,1,142.5,8|0,0:0|0:0,0:0:0:0:
294,158,35109,6,0,P|234:75|132:85,1,213.750008153916,4|0,0:0|0:0,0:0:0:0:
85,124,35409,5,0,0:0:0:0:
56,194,35509,1,0,0:0:0:0:
89,262,35609,1,0,0:0:0:0:
164,266,35709,2,0,P|195:241|284:274,1,126.666666666667,10|2,0:0|0:0,0:0:0:0:
307,286,36009,6,0,P|324:237|299:152,1,126.666666666667,0|0,0:0|0:0,0:0:0:0:
251,130,36309,2,0,L|187:126,1,63.3333333333333,10|2,0:0|0:0,0:0:0:0:
126,122,36509,1,2,0:0:0:0:
44,234,36609,6,0,L|180:224,1,126.666666666667,0|0,0:0|0:0,0:0:0:0:
234,216,36909,1,10,0:0:0:0:
151,40,37109,1,2,0:0:0:0:
75,33,37209,1,4,0:0:0:0:
251,130,37409,1,0,0:0:0:0:
326,118,37509,2,0,P|337:67|404:47,1,126.666666666667,10|2,0:0|0:0,0:0:0:0:
486,139,37809,6,0,P|475:190|408:210,1,126.666666666667,2|0,0:0|0:0,0:0:0:0:
407,128,38109,1,8,0:0:0:0:
273,253,38309,1,0,0:0:0:0:
281,328,38409,1,2,0:0:0:0:
464,373,38609,1,2,0:0:0:0:
505,305,38709,2,0,B|497:270|478:244|478:244|445:233|423:218,1,126.666666666667,10|0,0:0|0:0,0:0:0:0:
354,178,39009,1,0,0:0:0:0:
281,198,39109,1,0,0:0:0:0:
208,173,39209,1,0,0:0:0:0:
186,100,39309,6,0,P|221:58|248:106,1,126.666666666667,10|0,0:0|0:0,0:0:0:0:
150,125,39609,2,0,P|126:171|97:194,1,79.1666666666667,2|0,0:0|0:0,0:0:0:0:
40,119,39809,1,0,0:0:0:0:
114,51,39909,6,0,L|172:39,1,59.375,10|0,0:0|0:0,0:0:0:0:
264,72,40059,6,0,L|322:83,1,59.375,8|0,0:0|0:0,0:0:0:0:
423,34,40209,5,0,0:0:0:0:
421,51,40284,1,0,0:0:0:0:
419,68,40359,1,0,0:0:0:0:
418,85,40434,1,0,0:0:0:0:
418,103,40509,6,0,L|438:220,1,118.75,8|0,0:0|0:0,0:0:0:0:
240,299,40809,2,0,L|260:181,1,118.75,8|0,0:0|0:0,0:0:0:0:
462,351,41109,2,0,P|408:326|349:324,1,118.75,8|0,0:0|0:0,0:0:0:0:
300,356,41334,1,0,0:0:0:0:
300,356,41409,6,0,P|229:374|165:351,1,118.75,8|0,0:0|0:0,0:0:0:0:
9,142,41709,2,0,B|100:126|100:126|140:133,1,118.75,8|0,0:0|0:0,0:0:0:0:
181,239,42009,1,8,0:0:0:0:
69,309,42159,1,8,0:0:0:0:
326,270,42309,1,8,0:0:0:0:
93,219,42459,1,8,0:0:0:0:
212,39,42609,6,0,P|236:106|226:173,1,113.999996520996,8|0,0:0|0:0,0:0:0:0:
350,79,42909,6,0,P|344:135|314:185,1,109.250002083778,8|0,0:0|0:0,0:0:0:0:
450,182,43209,6,0,P|416:227|365:255,1,109.250002083778,8|0,0:0|0:0,0:0:0:0:
484,320,43509,6,0,P|431:342|373:341,1,99.7499969558717,8|0,0:0|0:0,0:0:0:0:
265,321,43809,5,8,0:0:0:0:
166,344,43959,1,2,0:0:0:0:
80,236,44109,1,2,0:0:0:0:
179,251,44259,1,2,0:0:0:0:
80,377,44409,2,0,P|75:353|75:329,1,47.5,2|0,0:0|0:0,0:0:0:0:
129,236,44559,2,0,P|128:212|124:188,1,47.5,2|0,0:0|0:0,0:0:0:0:
68,80,44709,6,0,B|55:53|71:28|97:18|123:29|131:44|143:73|132:109|117:132,1,178.125,4|0,0:0|0:0,0:0:0:0:
111,171,45009,6,0,P|88:171|64:161,1,47.5,2|0,0:0|0:0,0:0:0:0:
200,75,45309,2,0,P|214:126|211:177,1,95,2|0,0:0|0:0,0:0:0:0:
171,262,45759,1,2,0:0:0:0:
45,243,45909,2,0,P|67:234|90:234,1,47.5,2|0,0:0|0:0,0:0:0:0:
134,344,46209,6,0,B|180:354|180:354|229:335,1,95,2|0,0:0|0:0,0:0:0:0:
208,180,46659,2,0,B|162:170|162:170|113:189,1,95,2|0,0:0|0:0,0:0:0:0:
207,92,47109,2,0,L|295:118,1,71.25,2|0,0:0|0:0,0:0:0:0:
295,118,47409,5,2,0:0:0:0:
326,204,47559,1,0,0:0:0:0:
412,173,47709,1,2,0:0:0:0:
381,87,47859,2,0,L|323:107,1,47.5,2|0,0:0|0:0,0:0:0:0:
445,257,48159,2,0,L|489:272,2,47.5,2|2|0,0:0|0:0|0:0,0:0:0:0:
325,204,48609,2,0,P|322:157|309:120,1,71.25,2|0,0:0|0:0,0:0:0:0:
295,118,48909,2,0,P|323:80|355:56,1,71.25,0|0,0:0|0:0,0:0:0:0:
382,50,49209,6,2,B|425:34|462:62|464:102|464:102|364:130|502:186|433:244|413:270,1,285,4|0,0:0|0:0,0:0:0:0:
409,280,49809,6,0,L|340:278,1,47.5,2|0,0:0|0:0,0:0:0:0:
248,311,50109,1,2,0:0:0:0:
412,370,50259,2,0,L|459:368,1,47.5,0|0,0:0|0:0,0:0:0:0:
490,265,50559,1,2,0:0:0:0:
383,207,50709,1,2,0:0:0:0:
316,302,50859,1,0,0:0:0:0:
313,167,51009,6,0,P|344:132|390:126,1,95,8|0,0:0|0:0,0:0:0:0:
490,265,51459,2,0,P|443:259|412:224,1,95,8|0,0:0|0:0,0:0:0:0:
486,122,51909,2,0,L|486:187,1,47.5,8|0,0:0|0:0,0:0:0:0:
405,307,52209,5,2,0:0:0:0:
202,280,52509,1,8,0:0:0:0:
360,332,52809,1,0,0:0:0:0:
247,255,53109,1,0,0:0:0:0:
315,357,53259,5,8,0:0:0:0:
292,230,53559,1,8,0:0:0:0:
360,332,53709,5,0,0:0:0:0:
247,255,53859,1,8,0:0:0:0:
405,307,54009,5,8,0:0:0:0:
202,280,54309,1,8,0:0:0:0:
202,280,54609,6,0,L|202:369,1,71.2500027179719,2|0,0:0|0:0,0:0:0:0:
96,240,54909,2,0,L|96:312,1,71.2500027179719,2|0,0:0|0:0,0:0:0:0:
289,189,55209,2,0,L|289:260,1,71.2500027179719,0|2,0:0|0:0,0:0:0:0:
186,202,55509,1,2,0:0:0:0:
186,109,55659,1,0,0:0:0:0:
106,156,55809,6,0,L|34:156,1,71.2500027179719,2|0,0:0|0:0,0:0:0:0:
163,40,56109,2,0,L|234:40,1,71.2500027179719,2|2,0:0|0:0,0:0:0:0:
268,40,56334,1,0,0:0:0:0:
268,40,56409,1,0,0:0:0:0:
268,132,56559,1,2,0:0:0:0:
452,134,56709,2,0,L|380:134,1,71.2500027179719,2|0,0:0|0:0,0:0:0:0:
268,224,57009,5,2,0:0:0:0:
389,224,57159,1,0,0:0:0:0:
186,273,57309,2,0,L|186:177,1,71.2500027179719,2|2,0:0|0:0,0:0:0:0:
299,350,57609,2,0,L|227:350,1,71.2500027179719,0|2,0:0|0:0,0:0:0:0:
328,278,57909,1,0,0:0:0:0:
376,382,58059,1,2,0:0:0:0:
461,307,58209,5,2,0:0:0:0:
461,282,58359,1,0,0:0:0:0:
461,257,58509,1,0,0:0:0:0:
461,232,58659,1,0,0:0:0:0:
461,207,58809,5,2,0:0:0:0:
461,194,58884,1,0,0:0:0:0:
461,182,58959,1,0,0:0:0:0:
461,169,59034,1,0,0:0:0:0:
461,156,59109,2,2,L|461:41,1,106.875004076958,2|0,0:0|0:0,0:0:0:0:
462,36,59409,6,0,L|371:36,1,71.2500027179719,2|0,0:0|0:0,0:0:0:0:
377,192,59709,2,0,L|305:192,1,71.2500027179719,2|2,0:0|0:0,0:0:0:0:
404,11,60009,2,0,L|332:11,1,71.2500027179719,0|2,0:0|0:0,0:0:0:0:
211,121,60309,1,2,0:0:0:0:
211,21,60459,1,0,0:0:0:0:
333,123,60609,6,0,L|333:265,1,142.500005435944,8|0,0:0|0:0,0:0:0:0:
291,287,60984,1,0,0:0:0:0:
291,287,61059,2,0,L|290:209,1,71.2500027179719,8|0,0:0|0:0,0:0:0:0:
416,184,61359,1,8,0:0:0:0:
272,80,61509,2,0,L|272:151,1,71.2500027179719,8|0,0:0|0:0,0:0:0:0:
187,265,61809,5,2,0:0:0:0:
66,265,61959,1,0,0:0:0:0:
261,265,62109,2,0,L|346:265,1,71.2500027179719,8|0,0:0|0:0,0:0:0:0:
102,85,62409,2,0,L|30:85,1,71.2500027179719,8|0,0:0|0:0,0:0:0:0:
66,265,62709,2,0,L|65:330,1,35.625001358986,8|0,0:0|0:0,0:0:0:0:
65,336,62859,1,8,0:0:0:0:
256,192,63009,12,0,64209,0:0:0:0:
320,334,73809,5,2,0:0:0:0:
398,228,73959,1,0,0:0:0:0:
398,228,74109,1,8,0:0:0:0:
252,207,74259,2,0,L|157:208,1,95,0|2,0:0|0:0,0:0:0:0:
213,347,74559,1,2,0:0:0:0:
124,311,74709,1,8,0:0:0:0:
320,334,74859,2,0,L|367:334,1,47.5,0|0,0:0|0:0,0:0:0:0:
416,354,75009,6,0,P|381:310|375:260,1,95,2|0,0:0|0:0,0:0:0:0:
494,113,75309,2,0,P|473:165|433:195,1,95,8|2,0:0|0:0,0:0:0:0:
252,173,75609,1,0,0:0:0:0:
252,173,75759,1,2,0:0:0:0:
401,116,75909,1,8,0:0:0:0:
375,273,76059,1,0,0:0:0:0:
240,143,76209,6,0,P|229:97|242:51,1,95,2|0,0:0|0:0,0:0:0:0:
400,115,76509,2,0,P|413:161|402:207,1,95,8|0,0:0|0:0,0:0:0:0:
375,273,76734,1,0,0:0:0:0:
375,273,76809,2,0,L|255:259,1,95,2|0,0:0|0:0,0:0:0:0:
188,202,77109,1,8,0:0:0:0:
81,296,77259,1,0,0:0:0:0:
18,132,77409,6,0,L|112:120,2,95,2|0|8,0:0|0:0|0:0,0:0:0:0:
176,52,77859,1,2,0:0:0:0:
188,202,78009,1,0,0:0:0:0:
38,214,78159,1,2,0:0:0:0:
188,202,78309,2,0,L|282:190,1,95,8|0,0:0|0:0,0:0:0:0:
332,165,78534,1,0,0:0:0:0:
332,165,78609,6,0,P|352:154|381:161,1,47.5,2|0,0:0|0:0,0:0:0:0:
410,272,78759,2,0,P|390:283|361:276,1,47.5,0|0,0:0|0:0,0:0:0:0:
486,212,78909,2,0,B|499:263|499:263|492:316,1,95,8|0,0:0|0:0,0:0:0:0:
375,376,79209,1,2,0:0:0:0:
250,239,79359,1,0,0:0:0:0:
287,235,79434,1,0,0:0:0:0:
324,231,79509,1,8,0:0:0:0:
435,342,79659,1,2,0:0:0:0:
375,157,79809,6,0,L|375:62,1,95,2|0,0:0|0:0,0:0:0:0:
329,6,80034,1,0,0:0:0:0:
329,6,80109,2,0,P|362:21|388:28,1,47.5,8|0,0:0|0:0,0:0:0:0:
465,140,80259,2,0,P|459:192|427:226,1,95,2|0,0:0|0:0,0:0:0:0:
321,257,80559,1,2,0:0:0:0:
286,74,80709,2,0,P|334:53|379:63,1,95,8|0,0:0|0:0,0:0:0:0:
208,162,81009,6,0,L|190:68,1,95,2|0,0:0|0:0,0:0:0:0:
54,129,81309,1,8,0:0:0:0:
49,171,81384,1,0,0:0:0:0:
44,213,81459,1,0,0:0:0:0:
40,255,81534,1,0,0:0:0:0:
36,297,81609,1,2,0:0:0:0:
212,179,81759,1,0,0:0:0:0:
157,369,81909,2,0,L|147:314,3,47.5,8|0|0|0,0:0|0:0|0:0|0:0,0:0:0:0:
135,260,82209,5,2,0:0:0:0:
248,312,82359,2,0,L|294:303,1,47.5,2|0,0:0|0:0,0:0:0:0:
370,230,82659,2,0,L|361:183,1,47.5,0|2,0:0|0:0,0:0:0:0:
166,190,82959,2,0,L|174:236,1,47.5,2|0,0:0|0:0,0:0:0:0:
287,109,83259,2,0,L|246:116,1,23.75,0|0,0:0|0:0,0:0:0:0:
241,117,83409,5,2,0:0:0:0:
124,190,83559,2,0,L|137:267,1,71.2500027179719,2|0,0:0|0:0,0:0:0:0:
288,360,83859,2,0,L|348:310,1,71.2500027179719,0|2,0:0|0:0,0:0:0:0:
354,132,84159,2,0,L|320:120,1,35.625001358986,2|0,0:0|0:0,0:0:0:0:
241,117,84309,6,0,B|302:149|335:128|335:128|323:86|348:52|387:41|411:60,1,213.750008153916,4|0,0:0|0:0,0:0:0:0:
460,82,84609,5,0,0:0:0:0:
418,255,84759,1,0,0:0:0:0:
288,186,84909,1,8,0:0:0:0:
482,200,85059,2,0,P|500:271|472:322,1,118.75,2|0,0:0|0:0,0:0:0:0:
434,341,85284,1,0,0:0:0:0:
434,341,85359,2,0,L|313:332,1,118.75,0|8,0:0|0:0,0:0:0:0:
212,273,85659,1,2,0:0:0:0:
46,360,85809,6,0,P|80:316|50:269,1,118.75,2|0,0:0|0:0,0:0:0:0:
253,209,86109,2,0,B|194:225|194:225|137:213,1,118.75,8|2,0:0|0:0,0:0:0:0:
199,348,86409,1,0,0:0:0:0:
190,128,86559,1,2,0:0:0:0:
351,248,86709,2,0,P|324:296|362:338,1,118.75,8|0,0:0|0:0,0:0:0:0:
434,341,86934,1,0,0:0:0:0:
434,341,87009,6,0,P|471:298|458:196,1,118.75,2|0,0:0|0:0,0:0:0:0:
398,147,87309,1,8,0:0:0:0:
232,258,87459,2,0,L|362:247,1,118.75,2|0,0:0|0:0,0:0:0:0:
373,57,87759,1,0,0:0:0:0:
373,57,87834,1,0,0:0:0:0:
373,57,87909,1,8,0:0:0:0:
423,237,88059,1,2,0:0:0:0:
264,115,88209,5,2,0:0:0:0:
391,127,88359,1,0,0:0:0:0:
139,168,88509,5,8,0:0:0:0:
129,60,88659,1,2,0:0:0:0:
320,177,88809,5,0,0:0:0:0:
310,285,88959,1,2,0:0:0:0:
254,7,89109,5,8,0:0:0:0:
264,115,89259,1,0,0:0:0:0:
148,249,89409,6,0,P|154:227|146:185,1,59.375,2|0,0:0|0:0,0:0:0:0:
56,32,89559,2,0,P|50:60|56:89,1,59.375,0|0,0:0|0:0,0:0:0:0:
85,128,89709,1,8,0:0:0:0:
128,109,89784,1,0,0:0:0:0:
175,103,89859,1,0,0:0:0:0:
220,116,89934,1,0,0:0:0:0:
257,145,90009,6,0,P|289:151|327:151,1,59.375,2|0,0:0|0:0,0:0:0:0:
466,125,90159,2,0,P|435:136|398:144,1,59.375,2|0,0:0|0:0,0:0:0:0:
260,55,90309,2,0,L|263:114,1,59.375,8|0,0:0|0:0,0:0:0:0:
431,244,90459,2,0,L|435:185,1,59.375,0|0,0:0|0:0,0:0:0:0:
263,247,90609,6,0,B|236:246|206:232|206:232|175:245|148:248,1,118.75,2|0,0:0|0:0,0:0:0:0:
88,273,90834,1,0,0:0:0:0:
88,273,90909,2,0,L|29:263,1,59.375,8|0,0:0|0:0,0:0:0:0:
209,346,91059,2,0,L|150:336,3,59.375,2|0|0|0,0:0|0:0|0:0|0:0,0:0:0:0:
303,346,91359,2,0,L|361:336,1,59.375,2|0,0:0|0:0,0:0:0:0:
420,325,91509,1,8,0:0:0:0:
430,297,91584,1,0,0:0:0:0:
435,267,91659,1,0,0:0:0:0:
433,237,91734,1,0,0:0:0:0:
424,208,91809,6,0,P|408:151|414:92,1,118.75,2|0,0:0|0:0,0:0:0:0:
274,172,92109,2,0,L|282:230,1,59.375,8|0,0:0|0:0,0:0:0:0:
265,288,92259,1,0,0:0:0:0:
130,103,92409,2,0,B|102:122|102:122|54:91|-18:115,1,118.75,2|0,0:0|0:0,0:0:0:0:
38,184,92634,1,0,0:0:0:0:
38,184,92709,2,0,P|95:217|164:193,1,118.75,8|0,0:0|0:0,0:0:0:0:
216,154,92934,1,0,0:0:0:0:
216,154,93009,6,0,B|218:89|218:89|203:32,1,123.499994346619,4|0,0:0|0:0,0:0:0:0:
461,183,93309,2,0,L|308:172,1,128.250000489235,4|0,0:0|0:0,0:0:0:0:
75,87,93609,6,0,P|98:70|171:56,1,66.4999979705811,4|0,0:0|0:0,0:0:0:0:
274,172,93759,2,0,P|277:200|252:270,1,66.4999979705811,4|0,0:0|0:0,0:0:0:0:
100,301,93909,2,0,B|67:294|45:266|45:266|115:232|183:282,1,206.625006305695,4|0,0:0|0:0,0:0:0:0:
203,350,94209,6,0,P|277:364|349:338,1,142.500005435944,4|8,0:0|0:0,0:0:0:0:
411,104,94509,1,0,0:0:0:0:
446,330,94659,1,8,0:0:0:0:
224,267,94809,2,0,B|180:243|180:243|90:265,1,142.500005435944,0|8,0:0|0:0,0:0:0:0:
49,301,95034,1,0,0:0:0:0:
49,301,95109,2,0,P|29:271|23:236,1,71.2500027179719,0|0,0:0|0:0,0:0:0:0:
182,121,95259,2,0,P|176:155|156:185,1,71.2500027179719,8|0,0:0|0:0,0:0:0:0:
46,56,95409,6,0,L|116:45,1,71.2500027179719,0|0,0:0|0:0,0:0:0:0:
144,207,95559,2,0,L|214:197,1,71.2500027179719,8|0,0:0|0:0,0:0:0:0:
260,36,95709,6,0,L|330:25,1,71.2500027179719,0|0,0:0|0:0,0:0:0:0:
358,226,95859,2,0,L|428:216,1,71.2500027179719,8|0,0:0|0:0,0:0:0:0:
271,99,96009,5,2,0:0:0:0:
177,249,96159,1,10,0:0:0:0:
443,143,96309,5,2,0:0:0:0:
290,384,96459,1,10,0:0:0:0:
454,320,96609,5,0,0:0:0:0:
453,320,96759,2,0,P|476:254|445:192,1,142.500005435944,8|2,0:0|0:0,0:0:0:0:
445,192,96984,1,0,0:0:0:0:
445,192,97059,1,8,0:0:0:0:
173,308,97209,1,0,0:0:0:0:
224,331,97284,1,0,0:0:0:0:
280,335,97359,1,8,0:0:0:0:
333,316,97434,1,0,0:0:0:0:
363,268,97509,1,2,0:0:0:0:
107,248,97659,1,8,0:0:0:0:
197,15,97809,6,0,P|211:94|205:157,1,142.500005435944,2|10,0:0|0:0,0:0:0:0:
182,230,98034,1,2,0:0:0:0:
227,295,98109,2,0,P|299:266|403:281,1,142.500005435944,2|10,0:0|0:0,0:0:0:0:
117,92,98409,5,2,0:0:0:0:
178,347,98559,1,10,0:0:0:0:
367,167,98709,5,2,0:0:0:0:
117,92,98859,1,10,0:0:0:0:
178,347,99009,6,0,P|131:287|27:292,1,142.500005435944,0|8,0:0|0:0,0:0:0:0:
286,328,99309,1,0,0:0:0:0:
261,154,99459,1,8,0:0:0:0:
454,231,99609,1,0,0:0:0:0:
447,56,99759,1,8,0:0:0:0:
447,56,99834,1,0,0:0:0:0:
447,56,99909,2,0,B|401:122|401:122|396:183,1,142.500005435944,0|8,0:0|0:0,0:0:0:0:
409,352,100209,5,0,0:0:0:0:
512,129,100359,2,0,L|370:115,1,142.500005435944,8|0,0:0|0:0,0:0:0:0:
85,220,100659,2,0,L|226:233,1,142.500005435944,8|0,0:0|0:0,0:0:0:0:
226,233,100884,1,0,0:0:0:0:
226,233,100959,1,8,0:0:0:0:
72,38,101109,2,0,P|-1:112|1:216,1,213.750008153916,8|0,0:0|0:0,0:0:0:0:
29,310,101409,6,0,P|94:338|163:325,1,142.500005435944,0|8,0:0|0:0,0:0:0:0:
288,123,101709,1,0,0:0:0:0:
316,333,101859,1,8,0:0:0:0:
127,179,102009,2,0,L|115:36,1,142.500005435944,0|8,0:0|0:0,0:0:0:0:
454,42,102309,2,0,L|442:184,1,142.500005435944,0|8,0:0|0:0,0:0:0:0:
378,356,102609,5,0,0:0:0:0:
378,356,102684,1,0,0:0:0:0:
378,356,102759,1,8,0:0:0:0:
378,356,102834,1,0,0:0:0:0:
378,356,102909,1,0,0:0:0:0:
378,356,102984,1,0,0:0:0:0:
378,356,103059,1,8,0:0:0:0:
378,356,103134,1,0,0:0:0:0:
378,356,103209,6,0,B|308:325|308:325|242:334,1,142.500005435944,8|0,0:0|0:0,0:0:0:0:
159,368,103434,1,0,0:0:0:0:
102,300,103509,2,0,P|85:209|145:140,1,190,4|0,0:0|0:0,0:0:0:0:
145,140,103734,1,0,0:0:0:0:
145,140,103809,5,2,0:0:0:0:
484,151,103959,2,0,P|424:179|363:174,1,118.75,0|8,0:0|0:0,0:0:0:0:
195,46,104259,2,0,P|249:83|275:138,1,118.75,0|2,0:0|0:0,0:0:0:0:
143,271,104559,1,2,0:0:0:0:
249,348,104709,2,0,P|254:282|289:232,1,118.75,8|0,0:0|0:0,0:0:0:0:
324,212,104934,1,0,0:0:0:0:
324,212,105009,6,0,P|338:186|342:157,1,59.375,2|0,0:0|0:0,0:0:0:0:
126,85,105159,2,0,P|129:114|144:139,1,59.375,0|0,0:0|0:0,0:0:0:0:
202,214,105309,1,8,0:0:0:0:
48,276,105459,1,2,0:0:0:0:
323,351,105609,1,0,0:0:0:0:
202,214,105759,1,2,0:0:0:0:
459,221,105909,1,8,0:0:0:0:
323,351,106059,1,0,0:0:0:0:
313,148,106209,5,2,0:0:0:0:
316,118,106284,1,0,0:0:0:0:
320,88,106359,1,0,0:0:0:0:
324,58,106434,1,0,0:0:0:0:
328,28,106509,2,0,B|388:28|388:28|444:6,1,118.75,8|0,0:0|0:0,0:0:0:0:
187,31,106809,1,2,0:0:0:0:
221,180,106959,1,2,0:0:0:0:
436,112,107109,1,8,0:0:0:0:
436,112,107259,1,0,0:0:0:0:
161,78,107409,6,0,P|104:42|2:51,1,118.75,2|0,0:0|0:0,0:0:0:0:
197,270,107709,2,0,P|255:261|303:228,1,118.75,8|2,0:0|0:0,0:0:0:0:
339,167,107934,1,0,0:0:0:0:
339,166,108009,2,0,P|337:137|331:108,1,59.375,0|0,0:0|0:0,0:0:0:0:
168,19,108159,2,0,P|161:47|160:77,1,59.375,2|0,0:0|0:0,0:0:0:0:
162,163,108309,1,8,0:0:0:0:
178,213,108384,1,0,0:0:0:0:
164,264,108459,1,0,0:0:0:0:
124,299,108534,1,0,0:0:0:0:
71,307,108609,6,0,L|48:178,1,118.75,2|0,0:0|0:0,0:0:0:0:
164,48,108909,1,8,0:0:0:0:
271,295,109059,2,0,P|219:262|125:286,1,118.75,0|2,0:0|0:0,0:0:0:0:
189,363,109359,1,2,0:0:0:0:
417,331,109509,2,0,P|378:271|376:200,1,118.75,8|0,0:0|0:0,0:0:0:0:
409,150,109734,1,0,0:0:0:0:
409,150,109809,6,0,P|441:142|470:139,1,59.375,2|0,0:0|0:0,0:0:0:0:
475,341,109959,2,0,P|443:333|414:330,1,59.375,0|0,0:0|0:0,0:0:0:0:
333,352,110109,1,8,0:0:0:0:
473,227,110259,1,2,0:0:0:0:
238,224,110409,1,0,0:0:0:0:
379,96,110559,1,2,0:0:0:0:
396,287,110709,1,8,0:0:0:0:
269,73,110859,1,0,0:0:0:0:
299,350,111009,6,0,B|281:300|231:303|231:303|186:268|150:292,1,178.125,2|0,0:0|0:0,0:0:0:0:
86,355,111309,2,0,B|42:334|37:289|37:289|69:234,1,118.75,8|0,0:0|0:0,0:0:0:0:
105,199,111534,1,0,0:0:0:0:
105,199,111609,2,0,P|156:172|228:192,1,118.75,2|0,0:0|0:0,0:0:0:0:
460,343,111909,2,0,P|409:370|337:350,1,118.75,8|0,0:0|0:0,0:0:0:0:
373,120,112209,5,0,0:0:0:0:
381,158,112284,1,8,0:0:0:0:
157,93,112434,5,0,0:0:0:0:
163,51,112509,1,8,0:0:0:0:
197,286,112659,5,0,0:0:0:0:
149,280,112734,1,8,0:0:0:0:
109,275,112809,6,0,L|46:265,1,61.7499971733095,0|0,0:0|0:0,0:0:0:0:
157,93,112959,2,0,L|251:76,1,64.1250002446175,0|0,0:0|0:0,0:0:0:0:
388,197,113109,6,0,L|375:296,1,66.4999979705811,8|0,0:0|0:0,0:0:0:0:
118,343,113259,2,0,L|108:274,1,68.8750021018983,8|0,0:0|0:0,0:0:0:0:
92,176,113409,5,2,0:0:0:0:
340,33,113559,2,0,P|365:100|355:170,1,142.500005435944,8|0,0:0|0:0,0:0:0:0:
333,257,113784,1,0,0:0:0:0:
333,257,113859,2,0,L|253:268,1,71.2500027179719,8|0,0:0|0:0,0:0:0:0:
125,133,114009,2,0,L|290:118,1,142.500005435944,2|8,0:0|0:0,0:0:0:0:
266,120,114234,1,0,0:0:0:0:
266,120,114309,1,2,0:0:0:0:
119,25,114459,1,8,0:0:0:0:
76,254,114609,6,0,P|37:196|43:126,1,142.500005435944,2|8,0:0|0:0,0:0:0:0:
284,348,114909,2,0,L|142:360,1,142.500005435944,0|10,0:0|0:0,0:0:0:0:
282,125,115209,1,0,0:0:0:0:
370,299,115359,1,8,0:0:0:0:
168,178,115509,1,2,0:0:0:0:
418,45,115659,1,8,0:0:0:0:
432,223,115809,5,2,0:0:0:0:
432,223,115884,1,0,0:0:0:0:
432,223,115959,1,8,0:0:0:0:
432,223,116034,1,0,0:0:0:0:
432,223,116109,2,0,B|443:179|443:179|438:153,1,71.2500027179719,0|0,0:0|0:0,0:0:0:0:
289,55,116259,2,0,B|245:67|245:67|225:84,1,71.2500027179719,8|0,0:0|0:0,0:0:0:0:
216,263,116409,1,2,0:0:0:0:
357,278,116559,1,8,0:0:0:0:
154,150,116709,1,2,0:0:0:0:
77,351,116859,1,8,0:0:0:0:
24,115,117009,6,0,B|80:70|80:70|150:63,1,142.500005435944,2|8,0:0|0:0,0:0:0:0:
227,105,117234,1,0,0:0:0:0:
276,182,117309,2,0,P|317:201|374:185,1,71.2500027179719,2|0,0:0|0:0,0:0:0:0:
484,62,117459,2,0,P|443:43|386:59,1,71.2500027179719,10|0,0:0|0:0,0:0:0:0:
450,249,117609,6,0,B|453:206|453:206|446:178,1,71.2500027179719,0|0,0:0|0:0,0:0:0:0:
219,9,117759,2,0,B|216:52|216:52|222:79,1,71.2500027179719,10|0,0:0|0:0,0:0:0:0:
154,150,117909,1,2,0:0:0:0:
378,50,118059,1,10,0:0:0:0:
84,51,118209,6,0,L|69:202,1,142.500005435944,2|8,0:0|0:0,0:0:0:0:
329,335,118509,1,0,0:0:0:0:
329,335,118584,1,0,0:0:0:0:
329,335,118659,1,8,0:0:0:0:
266,113,118809,5,2,0:0:0:0:
154,238,118959,1,8,0:0:0:0:
468,270,119109,1,0,0:0:0:0:
468,270,119184,1,0,0:0:0:0:
468,270,119259,1,8,0:0:0:0:
218,340,119409,6,0,P|221:307|239:272,1,71.2500027179719,2|0,0:0|0:0,0:0:0:0:
384,295,119559,2,0,P|361:270|325:253,1,71.2500027179719,8|0,0:0|0:0,0:0:0:0:
144,287,119709,6,0,L|215:231,1,71.2500027179719,2|0,0:0|0:0,0:0:0:0:
406,217,119859,2,0,L|318:205,1,71.2500027179719,8|0,0:0|0:0,0:0:0:0:
99,151,120009,6,0,P|93:187|97:222,1,71.2500027179719,2|0,0:0|0:0,0:0:0:0:
415,140,120159,2,0,P|397:109|373:83,1,71.2500027179719,8|0,0:0|0:0,0:0:0:0:
184,43,120309,5,2,0:0:0:0:
184,43,120384,1,0,0:0:0:0:
184,43,120459,1,8,0:0:0:0:
184,43,120534,1,0,0:0:0:0:
184,43,120609,6,0,P|261:25|337:33,1,142.500005435944,2|8,0:0|0:0,0:0:0:0:
378,327,120909,1,2,0:0:0:0:
447,82,121059,1,8,0:0:0:0:
223,270,121209,2,0,B|148:286|148:286|88:257,1,142.500005435944,2|8,0:0|0:0,0:0:0:0:
49,180,121434,1,0,0:0:0:0:
102,108,121509,2,0,B|142:103|142:103|171:112,1,71.2500027179719,2|0,0:0|0:0,0:0:0:0:
308,331,121659,2,0,B|348:336|348:336|377:326,1,71.2500027179719,8|0,0:0|0:0,0:0:0:0:
443,173,121809,5,10,0:0:0:0:
404,130,121884,1,8,0:0:0:0:
351,108,121959,1,8,0:0:0:0:
294,116,122034,1,8,0:0:0:0:
246,147,122109,1,8,0:0:0:0:
216,195,122184,1,8,0:0:0:0:
169,228,122259,1,8,0:0:0:0:
112,229,122334,1,8,0:0:0:0:
58,200,122409,6,0,L|95:192,1,35.625001358986,10|0,0:0|0:0,0:0:0:0:
49,165,122484,2,0,L|99:166,1,35.625001358986,8|0,0:0|0:0,0:0:0:0:
57,130,122559,2,0,L|103:143,1,35.625001358986,8|0,0:0|0:0,0:0:0:0:
79,102,122634,2,0,L|115:130,1,35.625001358986,8|0,0:0|0:0,0:0:0:0:
112,90,122709,2,0,L|125:132,1,35.625001358986,10|0,0:0|0:0,0:0:0:0:
147,90,122784,2,0,L|145:131,1,35.625001358986,8|0,0:0|0:0,0:0:0:0:
181,97,122859,2,0,L|164:137,1,35.625001358986,8|0,0:0|0:0,0:0:0:0:
205,122,122934,2,0,L|173:154,1,35.625001358986,8|0,0:0|0:0,0:0:0:0:
216,156,123009,5,6,0:0:0:0:
