osu file format v14

[General]
AudioFilename: audio.mp3
AudioLeadIn: 0
PreviewTime: 67895
Countdown: 1
SampleSet: Normal
StackLeniency: 0.7
Mode: 1
LetterboxInBreaks: 0
WidescreenStoryboard: 1

[Editor]
DistanceSpacing: 1.3
BeatDivisor: 4
GridSize: 4
TimelineZoom: 1

[Metadata]
Title:Mo
TitleUnicode:默
Artist:Na Ying
ArtistUnicode:那英
Creator:mintong89
Version:Pu Tong
Source:何以笙箫默
Tags:尹约 钱雷 Natasha Na My Sunshine
BeatmapID:1682751
BeatmapSetID:801701

[Difficulty]
HPDrainRate:5
CircleSize:5
OverallDifficulty:4
ApproachRate:5
SliderMultiplier:1.4
SliderTickRate:1

[Events]
//Background and Video events
0,0,"Enkidu.(Fate.strange.fake).full.2340771.jpg",0,50
//Break Periods
//Storyboard Layer 0 (Background)
//Storyboard Layer 1 (Fail)
//Storyboard Layer 2 (Pass)
//Storyboard Layer 3 (Foreground)
//Storyboard Sound Samples

[TimingPoints]
13360,428.571428571429,4,1,0,10,1,0
68217,-100,4,1,0,15,0,1
88788,-100,4,1,0,15,0,0
95645,-100,4,1,0,15,0,1
116217,-100,4,1,0,15,0,0
136788,-105.263157894737,4,1,0,10,0,0
147717,-105.263157894737,4,1,0,5,0,0

[HitObjects]
233,142,13359,5,0,0:0:0:0:
232,133,13788,1,8,0:0:0:0:
232,134,14217,1,8,0:0:0:0:
150,117,15074,1,8,0:0:0:0:
150,117,15502,1,0,0:0:0:0:
150,117,15931,1,8,0:0:0:0:
150,163,16788,1,0,0:0:0:0:
150,163,17217,1,8,0:0:0:0:
150,163,17645,1,8,0:0:0:0:
234,144,18502,1,8,0:0:0:0:
234,144,19360,1,8,0:0:0:0:
206,137,20217,1,0,0:0:0:0:
206,137,20645,1,0,0:0:0:0:
206,137,21074,1,8,0:0:0:0:
206,137,21931,1,8,0:0:0:0:
206,137,22360,1,0,0:0:0:0:
206,137,22788,1,8,0:0:0:0:
206,137,23645,1,0,0:0:0:0:
206,137,24074,1,0,0:0:0:0:
206,137,24502,1,8,0:0:0:0:
206,137,25360,1,8,0:0:0:0:
150,209,27074,1,0,0:0:0:0:
150,209,27502,1,8,0:0:0:0:
150,209,27931,1,8,0:0:0:0:
160,199,28574,1,8,0:0:0:0:
160,199,29217,1,8,0:0:0:0:
160,199,29645,1,0,0:0:0:0:
177,160,30288,1,8,0:0:0:0:
56,169,30931,2,0,B|395:193|395:193|285:219,1,420
150,194,33931,1,0,0:0:0:0:
150,194,34360,1,8,0:0:0:0:
281,115,35217,1,8,0:0:0:0:
150,95,35645,1,0,0:0:0:0:
150,95,36288,1,8,0:0:0:0:
150,95,36931,1,8,0:0:0:0:
122,211,37360,1,0,0:0:0:0:
122,211,37788,1,8,0:0:0:0:
122,211,38217,1,8,0:0:0:0:
122,211,39074,1,8,0:0:0:0:
122,211,39502,1,0,0:0:0:0:
122,211,39931,1,8,0:0:0:0:
228,245,40788,1,0,0:0:0:0:
181,168,41217,1,8,0:0:0:0:
181,168,41645,1,0,0:0:0:0:
181,168,42288,1,8,0:0:0:0:
181,168,42931,1,0,0:0:0:0:
181,168,43360,1,0,0:0:0:0:
181,168,44002,1,8,0:0:0:0:
121,222,44645,2,0,B|319:236|319:236|154:68,1,420
67,278,47645,1,0,0:0:0:0:
67,278,48074,1,0,0:0:0:0:
67,278,48502,1,8,0:0:0:0:
142,287,49145,1,8,0:0:0:0:
142,287,49788,1,8,0:0:0:0:
142,287,50217,1,0,0:0:0:0:
72,181,50860,2,0,P|173:226|380:123,1,350
193,266,52788,1,8,0:0:0:0:
227,160,54502,1,8,0:0:0:0:
227,160,55145,1,8,0:0:0:0:
227,160,55788,1,0,0:0:0:0:
180,198,56217,1,0,0:0:0:0:
180,198,56645,1,8,0:0:0:0:
180,198,57074,1,8,0:0:0:0:
180,198,57931,1,0,0:0:0:0:
180,198,58574,1,0,0:0:0:0:
180,198,59217,1,8,0:0:0:0:
180,198,59645,1,0,0:0:0:0:
180,198,60074,1,8,0:0:0:0:
180,198,60502,1,8,0:0:0:0:
180,198,61360,1,0,0:0:0:0:
180,198,61788,1,0,0:0:0:0:
180,198,62217,1,8,0:0:0:0:
180,198,63074,1,8,0:0:0:0:
180,198,63502,1,0,0:0:0:0:
180,198,63931,1,8,0:0:0:0:
180,198,64788,1,0,0:0:0:0:
180,198,65217,1,0,0:0:0:0:
180,198,65645,1,8,0:0:0:0:
180,198,66502,1,8,0:0:0:0:
180,198,66931,1,0,0:0:0:0:
180,198,67360,1,8,0:0:0:0:
180,198,68217,1,4,0:0:0:0:
135,154,68645,1,0,0:0:0:0:
180,198,69074,1,8,0:0:0:0:
179,139,69502,1,0,0:0:0:0:
180,203,69931,1,0,0:0:0:0:
180,203,70360,1,0,0:0:0:0:
180,203,70788,1,8,0:0:0:0:
180,203,71431,1,8,0:0:0:0:
332,224,72074,1,0,0:0:0:0:
332,224,72502,1,8,0:0:0:0:
332,224,73360,1,0,0:0:0:0:
332,224,74002,1,8,0:0:0:0:
215,270,74645,1,8,0:0:0:0:
84,134,75074,2,0,L|385:146,1,280
124,213,76788,1,8,0:0:0:0:
124,213,77431,1,0,0:0:0:0:
248,133,78074,1,8,0:0:0:0:
48,155,78502,2,0,L|403:196,1,350
134,217,80217,1,8,0:0:0:0:
205,222,81931,1,0,0:0:0:0:
205,222,82360,1,0,0:0:0:0:
205,222,82788,1,8,0:0:0:0:
205,222,83431,1,8,0:0:0:0:
205,222,84074,1,0,0:0:0:0:
205,222,84502,1,8,0:0:0:0:
205,222,85360,1,0,0:0:0:0:
205,222,85788,1,8,0:0:0:0:
205,222,86217,1,8,0:0:0:0:
205,222,86860,1,0,0:0:0:0:
205,222,87502,1,0,0:0:0:0:
205,222,87931,1,8,0:0:0:0:
171,275,88788,1,0,0:0:0:0:
171,275,89217,1,8,0:0:0:0:
171,275,89645,1,8,0:0:0:0:
171,275,90074,1,0,0:0:0:0:
171,275,90502,1,0,0:0:0:0:
171,275,90931,1,0,0:0:0:0:
171,275,91360,1,8,0:0:0:0:
171,275,91788,1,8,0:0:0:0:
171,275,92217,1,0,0:0:0:0:
171,275,93074,1,8,0:0:0:0:
171,275,93502,1,8,0:0:0:0:
171,275,93931,1,0,0:0:0:0:
171,275,94360,1,8,0:0:0:0:
171,275,94788,1,8,0:0:0:0:
237,269,95645,1,4,0:0:0:0:
168,213,96074,1,0,0:0:0:0:
237,269,96502,1,8,0:0:0:0:
168,213,96931,1,0,0:0:0:0:
237,269,97360,1,0,0:0:0:0:
237,269,97788,1,0,0:0:0:0:
237,269,98217,1,8,0:0:0:0:
237,269,98860,1,0,0:0:0:0:
237,269,99502,1,0,0:0:0:0:
237,269,99931,1,8,0:0:0:0:
237,269,100788,1,0,0:0:0:0:
177,161,101431,1,8,0:0:0:0:
177,161,102074,1,8,0:0:0:0:
76,178,102502,2,0,L|385:184,1,280
225,245,104217,1,8,0:0:0:0:
115,206,104860,1,8,0:0:0:0:
225,245,105502,1,0,0:0:0:0:
231,85,105931,2,0,P|329:146|283:288,1,280
177,232,107645,1,0,0:0:0:0:
226,194,109360,1,8,0:0:0:0:
226,194,109788,1,0,0:0:0:0:
226,194,110217,1,8,0:0:0:0:
226,194,110860,1,8,0:0:0:0:
226,194,111502,1,0,0:0:0:0:
226,194,111931,1,8,0:0:0:0:
224,188,112788,1,0,0:0:0:0:
224,188,113217,1,0,0:0:0:0:
224,188,113645,1,8,0:0:0:0:
224,188,114288,1,0,0:0:0:0:
224,188,114931,1,0,0:0:0:0:
224,188,115360,1,8,0:0:0:0:
224,188,116217,1,8,0:0:0:0:
224,188,116645,1,0,0:0:0:0:
224,188,117074,1,8,0:0:0:0:
224,188,117931,1,0,0:0:0:0:
224,188,118360,1,8,0:0:0:0:
224,188,118788,1,8,0:0:0:0:
224,188,119645,1,8,0:0:0:0:
224,188,120074,1,0,0:0:0:0:
224,188,120502,1,8,0:0:0:0:
224,188,120931,1,8,0:0:0:0:
224,188,121360,1,0,0:0:0:0:
117,197,121788,1,0,0:0:0:0:
117,197,122217,1,8,0:0:0:0:
233,142,123074,1,0,0:0:0:0:
232,133,123503,1,8,0:0:0:0:
232,134,123932,1,8,0:0:0:0:
150,117,124789,1,8,0:0:0:0:
150,117,125217,1,0,0:0:0:0:
150,117,125646,1,8,0:0:0:0:
150,163,126503,1,0,0:0:0:0:
150,163,126932,1,8,0:0:0:0:
150,163,127360,1,8,0:0:0:0:
234,144,128217,1,8,0:0:0:0:
234,144,129075,1,8,0:0:0:0:
206,137,129932,1,0,0:0:0:0:
206,137,130360,1,0,0:0:0:0:
206,137,130789,1,8,0:0:0:0:
206,137,131646,1,8,0:0:0:0:
206,137,132075,1,0,0:0:0:0:
206,137,132503,1,8,0:0:0:0:
206,137,133360,1,0,0:0:0:0:
206,137,133789,1,0,0:0:0:0:
206,137,134217,1,8,0:0:0:0:
206,137,135075,1,8,0:0:0:0:
66,169,135502,1,8,0:0:0:0:
66,169,135931,1,8,0:0:0:0:
112,119,136788,1,6,0:0:0:0:
139,179,138502,1,8,0:0:0:0:
236,119,140217,1,4,0:0:0:0:
216,195,141074,1,8,0:0:0:0:
216,195,141931,1,8,0:0:0:0:
216,195,143645,1,4,0:0:0:0:
256,192,147717,12,0,153074,0:0:0:0:
118,154,153288,5,8,0:0:0:0:
