osu file format v14

[General]
AudioFilename: audio.mp3
AudioLeadIn: 0
PreviewTime: 20104
Countdown: 0
SampleSet: Normal
StackLeniency: 0.7
Mode: 3
LetterboxInBreaks: 0
SpecialStyle: 0
WidescreenStoryboard: 1

[Editor]
DistanceSpacing: 1.2
BeatDivisor: 4
GridSize: 4
TimelineZoom: 1.3

[Metadata]
Title:Chao Yue Ji Xian
TitleUnicode:超越极限
Artist:NZBZ
ArtistUnicode:南征北战
Creator:Mat
Version:Normal
Source:撸时代
Tags:Lu Shi Dai Lu's Time League of Legends
BeatmapID:1269351
BeatmapSetID:600528

[Difficulty]
HPDrainRate:7.4
CircleSize:4
OverallDifficulty:7.8
ApproachRate:5
SliderMultiplier:1.4
SliderTickRate:1

[Events]
//Background and Video events
0,0,"maxresdefault.jpg",0,0
Video,100,"video.avi"
//Break Periods
//Storyboard Layer 0 (Background)
//Storyboard Layer 1 (Fail)
//Storyboard Layer 2 (Pass)
//Storyboard Layer 3 (Foreground)
//Storyboard Sound Samples

[TimingPoints]
790,344.530577088717,4,1,1,40,1,0
11470,366.000951602474,4,1,1,40,1,0
11470,-94.3396226415094,4,1,1,40,0,0
11836,344.530577088717,4,1,1,40,1,0
11836,-100,4,1,1,40,0,0
20772,344.530577088717,4,1,1,40,1,0
21461,344.530577088717,4,1,1,40,1,0
22839,344.530577088717,4,1,1,40,1,1
33863,-100,4,1,1,40,0,0
44888,-100,4,1,1,40,0,1
56086,-100,4,1,1,40,0,0

[HitObjects]
448,192,789,5,2,0:0:0:0:
64,192,789,1,4,0:0:0:0:
192,192,1134,1,8,0:0:0:0:
320,192,1134,1,0,0:0:0:0:
448,192,1479,1,2,0:0:0:0:
320,192,1651,1,2,0:0:0:0:
192,192,1823,1,8,0:0:0:0:
64,192,1823,1,0,0:0:0:0:
320,192,2168,1,2,0:0:0:0:
64,192,2512,1,8,0:0:0:0:
448,192,2512,1,0,0:0:0:0:
192,192,2857,1,2,0:0:0:0:
64,192,3029,1,2,0:0:0:0:
448,192,3201,1,8,0:0:0:0:
320,192,3201,1,0,0:0:0:0:
64,192,3546,1,2,0:0:0:0:
320,192,3890,1,8,0:0:0:0:
448,192,3890,1,0,0:0:0:0:
192,192,4235,1,2,0:0:0:0:
320,192,4407,1,2,0:0:0:0:
448,192,4579,1,8,0:0:0:0:
64,192,4579,1,0,0:0:0:0:
192,192,4924,1,2,0:0:0:0:
320,192,5268,1,8,0:0:0:0:
64,192,5268,1,0,0:0:0:0:
448,192,5613,1,2,0:0:0:0:
320,192,5785,1,2,0:0:0:0:
192,192,5957,1,8,0:0:0:0:
64,192,5957,1,0,0:0:0:0:
448,192,6302,1,4,0:0:0:0:
64,192,6302,1,2,0:0:0:0:
320,192,6647,1,8,0:0:0:0:
448,192,6647,1,0,0:0:0:0:
64,192,6991,1,2,0:0:0:0:
192,192,7163,1,2,0:0:0:0:
320,192,7336,1,8,0:0:0:0:
448,192,7336,1,0,0:0:0:0:
64,192,7680,1,2,0:0:0:0:
448,192,8025,1,8,0:0:0:0:
192,192,8025,1,0,0:0:0:0:
320,192,8369,1,2,0:0:0:0:
192,192,8541,1,2,0:0:0:0:
64,192,8714,1,8,0:0:0:0:
448,192,8714,1,0,0:0:0:0:
320,192,9058,1,2,0:0:0:0:
192,192,9230,1,2,0:0:0:0:
448,192,9403,1,8,0:0:0:0:
64,192,9403,1,2,0:0:0:0:
320,192,9575,1,2,0:0:0:0:
64,192,9747,1,2,0:0:0:0:
192,192,9920,1,2,0:0:0:0:
320,192,10092,1,8,0:0:0:0:
448,192,10092,1,2,0:0:0:0:
64,192,10264,1,2,0:0:0:0:
192,192,10436,1,2,0:0:0:0:
320,192,10609,1,2,0:0:0:0:
448,192,10609,1,8,0:0:0:0:
64,192,10781,1,8,0:0:0:0:
192,192,10781,1,2,0:0:0:0:
320,192,10953,1,2,0:0:0:0:
448,192,11125,1,2,0:0:0:0:
192,192,11125,1,0,0:0:0:0:
64,192,11298,1,8,0:0:0:0:
192,192,11384,1,8,0:0:0:0:
320,192,11470,1,8,0:0:0:0:
448,192,11470,1,2,0:0:0:0:
64,192,11653,1,2,0:0:0:0:
320,192,11836,1,2,0:0:0:0:
448,192,11836,1,4,0:0:0:0:
64,192,12352,1,2,0:0:0:0:
448,192,12352,1,0,0:0:0:0:
64,192,12869,1,2,0:0:0:0:
192,192,12869,1,0,0:0:0:0:
448,192,13214,128,2,13558:0:0:0:0:
320,192,13214,1,0,0:0:0:0:
64,192,13730,1,2,0:0:0:0:
192,192,13730,1,0,0:0:0:0:
448,192,14247,1,2,0:0:0:0:
192,192,14247,1,0,0:0:0:0:
64,192,14592,128,2,14936:0:0:0:0:
320,192,14592,1,0,0:0:0:0:
448,192,15109,1,2,0:0:0:0:
320,192,15109,1,0,0:0:0:0:
64,192,15625,1,2,0:0:0:0:
448,192,15625,1,0,0:0:0:0:
192,192,15970,128,2,16314:0:0:0:0:
320,192,15970,1,0,0:0:0:0:
448,192,16487,1,2,0:0:0:0:
64,192,16487,1,0,0:0:0:0:
192,192,17003,1,2,0:0:0:0:
64,192,17003,1,0,0:0:0:0:
448,192,17348,1,2,0:0:0:0:
320,192,17348,128,0,17693:0:0:0:0:
64,192,17865,1,2,0:0:0:0:
192,192,17865,1,0,0:0:0:0:
320,192,18382,1,2,0:0:0:0:
192,192,18382,1,0,0:0:0:0:
448,192,18726,128,2,19071:0:0:0:0:
64,192,18726,1,0,0:0:0:0:
64,192,19243,1,2,0:0:0:0:
320,192,19243,1,0,0:0:0:0:
448,192,19760,1,2,0:0:0:0:
320,192,19760,1,0,0:0:0:0:
64,192,19932,1,0,0:0:0:0:
192,192,20018,1,0,0:0:0:0:
320,192,20104,1,8,0:0:0:0:
448,192,20104,1,2,0:0:0:0:
192,192,20276,1,2,0:0:0:0:
64,192,20276,1,8,0:0:0:0:
320,192,20772,1,0,0:0:0:0:
448,192,20772,1,8,0:0:0:0:
64,192,21116,1,8,0:0:0:0:
192,192,21116,1,0,0:0:0:0:
320,192,21288,1,0,0:0:0:0:
64,192,21461,1,8,0:0:0:0:
448,192,21461,1,0,0:0:0:0:
192,192,21633,1,2,0:0:0:0:
320,192,21719,1,8,0:0:0:0:
448,192,21805,1,2,0:0:0:0:
64,192,21977,1,2,0:0:0:0:
192,192,22150,1,8,0:0:0:0:
448,192,22150,1,0,0:0:0:0:
320,192,22322,1,2,0:0:0:0:
192,192,22494,1,4,0:0:0:0:
64,192,22494,1,0,0:0:0:0:
320,192,22666,1,2,0:0:0:0:
448,192,22839,1,2,0:0:0:0:
64,192,22839,1,0,0:0:0:0:
192,192,23011,1,0,0:0:0:0:
320,192,23183,1,8,0:0:0:0:
448,192,23183,1,0,0:0:0:0:
192,192,23355,1,0,0:0:0:0:
64,192,23528,1,2,0:0:0:0:
320,192,23700,1,2,0:0:0:0:
448,192,23872,1,8,0:0:0:0:
192,192,23872,1,0,0:0:0:0:
64,192,24044,1,0,0:0:0:0:
192,192,24217,1,2,0:0:0:0:
320,192,24389,1,2,0:0:0:0:
448,192,24561,1,8,0:0:0:0:
64,192,24561,1,0,0:0:0:0:
192,192,24733,1,2,0:0:0:0:
320,192,24906,1,2,0:0:0:0:
448,192,25078,1,2,0:0:0:0:
64,192,25250,1,8,0:0:0:0:
192,192,25250,1,0,0:0:0:0:
448,192,25422,1,0,0:0:0:0:
320,192,25595,1,2,0:0:0:0:
64,192,25767,1,0,0:0:0:0:
192,192,25939,1,8,0:0:0:0:
448,192,25939,1,0,0:0:0:0:
320,192,26112,1,0,0:0:0:0:
192,192,26284,1,2,0:0:0:0:
64,192,26456,1,2,0:0:0:0:
320,192,26628,1,8,0:0:0:0:
448,192,26628,1,0,0:0:0:0:
192,192,26801,1,0,0:0:0:0:
64,192,26973,1,2,0:0:0:0:
320,192,27145,1,2,0:0:0:0:
448,192,27317,1,8,0:0:0:0:
64,192,27317,1,0,0:0:0:0:
192,192,27490,1,2,0:0:0:0:
448,192,27662,1,2,0:0:0:0:
320,192,27834,1,2,0:0:0:0:
192,192,28006,1,8,0:0:0:0:
64,192,28006,1,0,0:0:0:0:
320,192,28179,1,2,0:0:0:0:
448,192,28351,1,4,0:0:0:0:
64,192,28351,1,2,0:0:0:0:
192,192,28696,1,8,0:0:0:0:
320,192,28696,1,0,0:0:0:0:
448,192,29040,1,2,0:0:0:0:
64,192,29040,1,0,0:0:0:0:
320,192,29385,1,8,0:0:0:0:
448,192,29385,1,0,0:0:0:0:
64,192,29729,1,2,0:0:0:0:
192,192,29729,1,8,0:0:0:0:
320,192,30074,1,8,0:0:0:0:
64,192,30074,1,0,0:0:0:0:
448,192,30418,1,2,0:0:0:0:
192,192,30418,1,0,0:0:0:0:
320,192,30763,1,8,0:0:0:0:
448,192,30763,1,0,0:0:0:0:
64,192,31107,1,2,0:0:0:0:
192,192,31107,1,0,0:0:0:0:
320,192,31452,1,0,0:0:0:0:
64,192,31452,1,8,0:0:0:0:
448,192,31796,1,2,0:0:0:0:
192,192,31796,1,0,0:0:0:0:
448,192,32141,1,8,0:0:0:0:
64,192,32141,1,0,0:0:0:0:
64,192,32485,1,2,0:0:0:0:
192,192,32485,1,0,0:0:0:0:
448,192,32658,1,2,0:0:0:0:
320,192,32744,1,2,0:0:0:0:
192,192,32830,1,8,0:0:0:0:
448,192,33002,1,2,0:0:0:0:
64,192,33174,1,2,0:0:0:0:
192,192,33261,1,2,0:0:0:0:
448,192,33347,1,8,0:0:0:0:
320,192,33433,1,8,0:0:0:0:
192,192,33519,1,8,0:0:0:0:
64,192,33519,1,2,0:0:0:0:
448,192,33691,1,2,0:0:0:0:
64,192,33863,1,10,0:0:0:0:
192,192,33863,128,4,34208:0:0:0:0:
320,192,34208,128,0,34553:0:0:0:0:
448,192,34553,128,8,34897:0:0:0:0:
64,192,34553,1,0,0:0:0:0:
192,192,34897,128,2,35242:0:0:0:0:
64,192,35242,128,0,35586:0:0:0:0:
192,192,35586,128,0,35931:0:0:0:0:
320,192,35931,128,0,36275:0:0:0:0:
448,192,35931,1,8,0:0:0:0:
64,192,36275,128,0,36620:0:0:0:0:
192,192,36620,128,2,36964:0:0:0:0:
320,192,36964,128,0,37309:0:0:0:0:
448,192,37309,128,0,37653:0:0:0:0:
64,192,37309,1,8,0:0:0:0:
320,192,37653,128,2,37998:0:0:0:0:
192,192,37998,128,0,38342:0:0:0:0:
320,192,38342,128,0,38687:0:0:0:0:
448,192,38687,128,0,39031:0:0:0:0:
64,192,38687,1,8,0:0:0:0:
192,192,39031,128,0,39376:0:0:0:0:
64,192,39376,128,0,39720:0:0:0:0:
448,192,39376,1,4,0:0:0:0:
320,192,39720,128,0,40065:0:0:0:0:
448,192,40065,128,0,40410:0:0:0:0:
64,192,40065,1,8,0:0:0:0:
192,192,40410,128,2,40754:0:0:0:0:
64,192,40754,128,0,41099:0:0:0:0:
192,192,41099,128,0,41443:0:0:0:0:
320,192,41443,128,0,41788:0:0:0:0:
448,192,41443,1,8,0:0:0:0:
64,192,41788,128,0,42132:0:0:0:0:
448,192,42132,1,2,0:0:0:0:
320,192,42304,1,2,0:0:0:0:
192,192,42304,1,0,0:0:0:0:
64,192,42649,1,2,0:0:0:0:
192,192,42735,1,2,0:0:0:0:
320,192,42821,1,2,0:0:0:0:
448,192,42821,1,8,0:0:0:0:
64,192,42994,1,2,0:0:0:0:
320,192,43338,1,2,0:0:0:0:
64,192,43510,1,8,0:0:0:0:
192,192,43510,1,0,0:0:0:0:
448,192,43683,1,2,0:0:0:0:
320,192,43769,1,2,0:0:0:0:
192,192,43855,1,8,0:0:0:0:
64,192,43855,1,0,0:0:0:0:
320,192,44027,1,2,0:0:0:0:
448,192,44199,1,8,0:0:0:0:
64,192,44199,1,0,0:0:0:0:
192,192,44372,1,2,0:0:0:0:
448,192,44544,1,8,0:0:0:0:
320,192,44716,1,2,0:0:0:0:
64,192,44888,1,10,0:0:0:0:
192,192,44888,1,4,0:0:0:0:
448,192,45233,1,8,0:0:0:0:
320,192,45233,1,0,0:0:0:0:
64,192,45578,1,2,0:0:0:0:
192,192,45578,1,0,0:0:0:0:
64,192,45750,1,2,0:0:0:0:
320,192,45922,1,8,0:0:0:0:
448,192,45922,1,0,0:0:0:0:
448,192,46267,1,2,0:0:0:0:
64,192,46267,1,0,0:0:0:0:
192,192,46611,1,8,0:0:0:0:
320,192,46611,1,0,0:0:0:0:
448,192,46956,1,2,0:0:0:0:
320,192,46956,1,0,0:0:0:0:
448,192,47128,1,2,0:0:0:0:
64,192,47300,1,8,0:0:0:0:
192,192,47300,1,0,0:0:0:0:
320,192,47645,1,2,0:0:0:0:
448,192,47645,1,0,0:0:0:0:
320,192,47989,1,8,0:0:0:0:
192,192,47989,1,0,0:0:0:0:
448,192,48334,1,2,0:0:0:0:
64,192,48334,1,0,0:0:0:0:
448,192,48506,1,2,0:0:0:0:
192,192,48678,1,8,0:0:0:0:
64,192,48678,1,0,0:0:0:0:
320,192,49023,1,2,0:0:0:0:
448,192,49023,1,0,0:0:0:0:
192,192,49367,1,8,0:0:0:0:
64,192,49367,1,0,0:0:0:0:
320,192,49712,1,2,0:0:0:0:
192,192,49712,1,0,0:0:0:0:
192,192,49884,1,2,0:0:0:0:
448,192,50056,1,8,0:0:0:0:
64,192,50056,1,0,0:0:0:0:
320,192,50229,1,2,0:0:0:0:
192,192,50401,1,4,0:0:0:0:
64,192,50401,1,8,0:0:0:0:
320,192,50573,1,2,0:0:0:0:
448,192,50745,1,8,0:0:0:0:
64,192,50745,1,0,0:0:0:0:
192,192,50918,1,2,0:0:0:0:
448,192,51090,1,8,0:0:0:0:
320,192,51090,1,0,0:0:0:0:
192,192,51262,1,2,0:0:0:0:
64,192,51435,1,8,0:0:0:0:
448,192,51435,1,0,0:0:0:0:
320,192,51607,1,2,0:0:0:0:
64,192,51779,1,8,0:0:0:0:
192,192,51779,1,0,0:0:0:0:
320,192,51951,1,2,0:0:0:0:
448,192,52124,1,8,0:0:0:0:
192,192,52124,1,0,0:0:0:0:
64,192,52296,1,2,0:0:0:0:
448,192,52468,1,8,0:0:0:0:
320,192,52468,1,0,0:0:0:0:
64,192,52640,1,2,0:0:0:0:
192,192,52813,1,8,0:0:0:0:
320,192,52813,1,0,0:0:0:0:
448,192,52985,1,8,0:0:0:0:
320,192,53071,1,8,0:0:0:0:
64,192,53157,1,2,0:0:0:0:
192,192,53157,1,0,0:0:0:0:
320,192,53329,1,2,0:0:0:0:
448,192,53502,1,8,0:0:0:0:
64,192,53502,1,0,0:0:0:0:
192,192,53674,1,2,0:0:0:0:
320,192,53846,1,2,0:0:0:0:
448,192,53846,1,0,0:0:0:0:
192,192,54019,1,2,0:0:0:0:
64,192,54191,1,8,0:0:0:0:
320,192,54191,1,0,0:0:0:0:
448,192,54363,1,2,0:0:0:0:
64,192,54535,1,2,0:0:0:0:
192,192,54535,1,8,0:0:0:0:
320,192,54621,1,0,0:0:0:0:
448,192,54708,1,2,0:0:0:0:
192,192,54794,1,2,0:0:0:0:
64,192,55052,1,2,0:0:0:0:
192,192,55052,1,0,0:0:0:0:
448,192,55224,1,10,0:0:0:0:
320,192,55311,1,8,0:0:0:0:
64,192,55397,1,8,0:0:0:0:
192,192,55483,1,8,0:0:0:0:
320,192,55569,1,8,0:0:0:0:
64,192,55741,1,2,0:0:0:0:
192,192,55741,1,0,0:0:0:0:
448,192,55913,128,8,56344:0:0:0:0:
320,192,55913,128,4,56344:0:0:0:0:
64,192,56086,1,8,0:0:0:0:
