osu file format v14

[General]
AudioFilename: audio.mp3
AudioLeadIn: 0
PreviewTime: 20104
Countdown: 0
SampleSet: Normal
StackLeniency: 0.7
Mode: 3
LetterboxInBreaks: 0
SpecialStyle: 0
WidescreenStoryboard: 1

[Editor]
DistanceSpacing: 1.2
BeatDivisor: 4
GridSize: 4
TimelineZoom: 1.2

[Metadata]
Title:Chao Yue Ji Xian
TitleUnicode:超越极限
Artist:NZBZ
ArtistUnicode:南征北战
Creator:Mat
Version:Easy
Source:撸时代
Tags:Lu Shi Dai Lu's Time League of Legends
BeatmapID:1269341
BeatmapSetID:600528

[Difficulty]
HPDrainRate:7
CircleSize:4
OverallDifficulty:7.2
ApproachRate:5
SliderMultiplier:1.4
SliderTickRate:1

[Events]
//Background and Video events
0,0,"maxresdefault.jpg",0,0
Video,100,"video.avi"
//Break Periods
//Storyboard Layer 0 (Background)
//Storyboard Layer 1 (Fail)
//Storyboard Layer 2 (Pass)
//Storyboard Layer 3 (Foreground)
//Storyboard Sound Samples

[TimingPoints]
790,344.530577088717,4,1,1,40,1,0
11470,366.000951602474,4,1,1,40,1,0
11470,-94.3396226415094,4,1,1,40,0,0
11836,344.530577088717,4,1,1,40,1,0
11836,-100,4,1,1,40,0,0
20772,344.530577088717,4,1,1,40,1,0
21461,344.530577088717,4,1,1,40,1,0
22839,344.530577088717,4,1,1,40,1,1
33863,-100,4,1,1,40,0,0
44888,-100,4,1,1,40,0,1
56086,-100,4,1,1,40,0,0

[HitObjects]
448,192,789,5,4,0:0:0:0:
320,192,789,128,2,3546:0:0:0:0:
192,192,1134,1,8,0:0:0:0:
64,192,1823,1,8,0:0:0:0:
192,192,2512,1,8,0:0:0:0:
64,192,3201,1,8,0:0:0:0:
192,192,3546,128,2,6302:0:0:0:0:
448,192,3890,1,8,0:0:0:0:
320,192,4579,1,8,0:0:0:0:
448,192,5268,1,8,0:0:0:0:
320,192,5957,1,8,0:0:0:0:
448,192,6302,128,4,9058:0:0:0:0:
64,192,6647,1,8,0:0:0:0:
192,192,7336,1,8,0:0:0:0:
64,192,8025,1,8,0:0:0:0:
192,192,8714,1,8,0:0:0:0:
64,192,9058,128,2,10436:0:0:0:0:
320,192,9403,1,8,0:0:0:0:
320,192,10092,1,8,0:0:0:0:
448,192,10436,1,2,0:0:0:0:
320,192,10609,1,8,0:0:0:0:
192,192,10781,1,8,0:0:0:0:
64,192,10953,1,2,0:0:0:0:
448,192,11125,1,2,0:0:0:0:
320,192,11298,1,8,0:0:0:0:
64,192,11470,1,8,0:0:0:0:
192,192,11653,1,2,0:0:0:0:
448,192,11836,1,2,0:0:0:0:
320,192,11836,1,4,0:0:0:0:
320,192,12352,1,2,0:0:0:0:
320,192,12869,1,2,0:0:0:0:
64,192,13214,1,2,0:0:0:0:
448,192,13214,1,0,0:0:0:0:
192,192,13730,1,2,0:0:0:0:
192,192,14247,1,2,0:0:0:0:
320,192,14592,1,2,0:0:0:0:
448,192,14592,1,0,0:0:0:0:
64,192,15109,1,2,0:0:0:0:
64,192,15625,1,2,0:0:0:0:
192,192,15970,1,2,0:0:0:0:
320,192,15970,1,0,0:0:0:0:
448,192,16487,1,2,0:0:0:0:
448,192,17003,1,2,0:0:0:0:
64,192,17348,1,2,0:0:0:0:
320,192,17348,1,0,0:0:0:0:
192,192,17865,1,2,0:0:0:0:
192,192,18382,1,2,0:0:0:0:
448,192,18726,1,2,0:0:0:0:
64,192,18726,1,0,0:0:0:0:
320,192,19243,1,2,0:0:0:0:
320,192,19760,1,2,0:0:0:0:
64,192,20104,128,8,20449:0:0:0:0:
448,192,20104,128,2,20449:0:0:0:0:
64,192,20772,128,8,21116:0:0:0:0:
320,192,20772,128,0,21116:0:0:0:0:
448,192,21461,128,8,21805:0:0:0:0:
192,192,21461,128,0,21805:0:0:0:0:
448,192,22150,128,8,22494:0:0:0:0:
320,192,22150,128,0,22494:0:0:0:0:
64,192,22494,1,4,0:0:0:0:
64,192,22839,1,2,0:0:0:0:
448,192,22839,1,0,0:0:0:0:
320,192,23183,1,8,0:0:0:0:
192,192,23183,1,0,0:0:0:0:
64,192,23528,1,2,0:0:0:0:
320,192,23872,1,8,0:0:0:0:
448,192,23872,1,0,0:0:0:0:
64,192,24217,1,2,0:0:0:0:
192,192,24561,1,8,0:0:0:0:
448,192,24561,1,0,0:0:0:0:
320,192,24906,1,2,0:0:0:0:
192,192,25250,1,8,0:0:0:0:
64,192,25250,1,0,0:0:0:0:
320,192,25595,1,2,0:0:0:0:
448,192,25939,1,8,0:0:0:0:
64,192,25939,1,0,0:0:0:0:
192,192,26284,1,2,0:0:0:0:
320,192,26628,1,8,0:0:0:0:
448,192,26628,1,0,0:0:0:0:
192,192,26973,1,2,0:0:0:0:
320,192,27317,1,8,0:0:0:0:
64,192,27317,1,0,0:0:0:0:
448,192,27662,1,2,0:0:0:0:
64,192,28006,1,8,0:0:0:0:
192,192,28006,1,0,0:0:0:0:
448,192,28351,128,4,29385:0:0:0:0:
320,192,28351,1,2,0:0:0:0:
64,192,28696,1,8,0:0:0:0:
64,192,29385,1,8,0:0:0:0:
192,192,29729,128,2,30763:0:0:0:0:
448,192,29729,1,0,0:0:0:0:
320,192,30074,1,8,0:0:0:0:
64,192,30763,1,8,0:0:0:0:
448,192,31107,1,2,0:0:0:0:
320,192,31107,128,0,31796:0:0:0:0:
64,192,31452,1,8,0:0:0:0:
64,192,31796,128,2,32485:0:0:0:0:
192,192,31796,1,0,0:0:0:0:
320,192,32141,1,8,0:0:0:0:
448,192,32485,1,2,0:0:0:0:
320,192,32485,128,0,33174:0:0:0:0:
64,192,32830,1,8,0:0:0:0:
448,192,33174,128,2,33519:0:0:0:0:
192,192,33174,1,0,0:0:0:0:
64,192,33519,1,8,0:0:0:0:
320,192,33863,1,10,0:0:0:0:
192,192,33863,1,4,0:0:0:0:
448,192,34208,1,0,0:0:0:0:
64,192,34553,1,8,0:0:0:0:
192,192,34553,1,0,0:0:0:0:
320,192,34897,1,2,0:0:0:0:
64,192,35242,1,0,0:0:0:0:
192,192,35586,1,0,0:0:0:0:
448,192,35931,1,8,0:0:0:0:
320,192,35931,1,0,0:0:0:0:
192,192,36275,1,0,0:0:0:0:
64,192,36620,1,2,0:0:0:0:
448,192,36964,1,0,0:0:0:0:
64,192,37309,1,8,0:0:0:0:
320,192,37309,1,0,0:0:0:0:
192,192,37653,1,2,0:0:0:0:
448,192,37998,1,0,0:0:0:0:
64,192,38342,1,0,0:0:0:0:
192,192,38687,1,8,0:0:0:0:
448,192,38687,1,0,0:0:0:0:
320,192,39031,1,0,0:0:0:0:
448,192,39376,1,0,0:0:0:0:
64,192,39376,1,4,0:0:0:0:
320,192,39720,1,0,0:0:0:0:
64,192,40065,1,8,0:0:0:0:
192,192,40065,1,0,0:0:0:0:
320,192,40410,1,0,0:0:0:0:
448,192,40754,1,0,0:0:0:0:
64,192,41099,1,0,0:0:0:0:
192,192,41443,1,8,0:0:0:0:
320,192,41443,1,0,0:0:0:0:
64,192,41788,1,0,0:0:0:0:
448,192,42132,1,2,0:0:0:0:
192,192,42304,5,2,0:0:0:0:
448,192,42649,1,2,0:0:0:0:
64,192,42821,1,2,0:0:0:0:
192,192,42821,1,8,0:0:0:0:
320,192,42994,1,2,0:0:0:0:
192,192,43338,1,2,0:0:0:0:
64,192,43510,1,8,0:0:0:0:
448,192,43510,1,0,0:0:0:0:
320,192,43683,1,2,0:0:0:0:
192,192,43855,1,8,0:0:0:0:
64,192,44027,1,2,0:0:0:0:
320,192,44199,1,8,0:0:0:0:
448,192,44199,1,0,0:0:0:0:
64,192,44372,1,2,0:0:0:0:
192,192,44544,1,8,0:0:0:0:
320,192,44716,1,2,0:0:0:0:
64,192,44888,1,10,0:0:0:0:
448,192,44888,1,4,0:0:0:0:
320,192,45233,1,8,0:0:0:0:
448,192,45233,1,0,0:0:0:0:
64,192,45578,1,2,0:0:0:0:
192,192,45922,1,8,0:0:0:0:
448,192,45922,1,0,0:0:0:0:
320,192,46267,1,2,0:0:0:0:
64,192,46611,1,8,0:0:0:0:
448,192,46611,1,0,0:0:0:0:
320,192,46956,1,2,0:0:0:0:
64,192,47300,1,8,0:0:0:0:
192,192,47300,1,0,0:0:0:0:
448,192,47645,1,2,0:0:0:0:
320,192,47989,1,8,0:0:0:0:
64,192,47989,1,0,0:0:0:0:
192,192,48334,1,2,0:0:0:0:
448,192,48678,1,8,0:0:0:0:
64,192,48678,1,0,0:0:0:0:
320,192,49023,1,2,0:0:0:0:
448,192,49367,1,8,0:0:0:0:
192,192,49367,1,0,0:0:0:0:
64,192,49712,1,2,0:0:0:0:
320,192,50056,1,8,0:0:0:0:
192,192,50056,1,0,0:0:0:0:
448,192,50401,1,4,0:0:0:0:
64,192,50401,1,8,0:0:0:0:
64,192,50745,1,8,0:0:0:0:
320,192,51090,1,8,0:0:0:0:
448,192,51090,1,0,0:0:0:0:
448,192,51435,1,8,0:0:0:0:
64,192,51779,1,8,0:0:0:0:
320,192,51779,1,0,0:0:0:0:
64,192,52124,1,8,0:0:0:0:
448,192,52468,1,8,0:0:0:0:
320,192,52468,1,0,0:0:0:0:
448,192,52813,1,8,0:0:0:0:
320,192,52985,1,8,0:0:0:0:
192,192,53157,1,2,0:0:0:0:
64,192,53157,1,0,0:0:0:0:
448,192,53502,1,8,0:0:0:0:
64,192,53502,1,0,0:0:0:0:
320,192,53846,1,2,0:0:0:0:
64,192,54191,1,8,0:0:0:0:
192,192,54191,1,0,0:0:0:0:
448,192,54535,1,2,0:0:0:0:
320,192,54535,1,8,0:0:0:0:
192,192,54708,1,2,0:0:0:0:
448,192,55052,1,2,0:0:0:0:
64,192,55224,1,10,0:0:0:0:
320,192,55224,1,0,0:0:0:0:
192,192,55397,1,8,0:0:0:0:
320,192,55569,1,8,0:0:0:0:
448,192,55741,1,2,0:0:0:0:
192,192,55913,128,4,56344:0:0:0:0:
64,192,55913,128,8,56344:0:0:0:0:
