osu file format v14

[General]
AudioFilename: audio_1.05.mp3
AudioLeadIn: 0
PreviewTime: 0
Countdown: 1
SampleSet: None
StackLeniency: 0.7
Mode: 3
LetterboxInBreaks: 0
SpecialStyle: 0
WidescreenStoryboard: 0

[Editor]
DistanceSpacing: 1
BeatDivisor: 4
GridSize: 4
TimelineZoom: 1

[Metadata]
Title:NYAN CAT
TitleUnicode:NYAN CAT
Artist:NYAN CAT
ArtistUnicode:NYAN CAT
Creator:8230
Version:x1.05
Source:
Tags:
BeatmapID:3572032
BeatmapSetID:986700

[Difficulty]
HPDrainRate:8
CircleSize:4
OverallDifficulty:8
ApproachRate:5
SliderMultiplier:1.4
SliderTickRate:1

[Events]
//Background and Video events
0,0,"1.jpg",0,0
//Break Periods
//Storyboard Layer 0 (Background)
//Storyboard Layer 1 (Fail)
//Storyboard Layer 2 (Pass)
//Storyboard Layer 3 (Foreground)
//Storyboard Layer 4 (Overlay)
//Storyboard Sound Samples

[TimingPoints]
569,402.814486921529,4,1,0,20,1,0

[HitObjects]
448,192,569,5,0,0:0:0:0:
64,192,569,1,0,0:0:0:0:
192,192,669,1,0,0:0:0:0:
320,192,770,1,0,0:0:0:0:
448,192,971,1,0,0:0:0:0:
64,192,1173,1,0,0:0:0:0:
192,192,1274,1,0,0:0:0:0:
320,192,1374,1,0,0:0:0:0:
448,192,1475,1,0,0:0:0:0:
320,192,1576,1,0,0:0:0:0:
192,192,1677,1,0,0:0:0:0:
64,192,1777,1,0,0:0:0:0:
192,192,1878,1,0,0:0:0:0:
320,192,1979,1,0,0:0:0:0:
192,192,2180,1,0,0:0:0:0:
64,192,2381,1,0,0:0:0:0:
192,192,2482,1,0,0:0:0:0:
320,192,2582,1,0,0:0:0:0:
192,192,2784,1,0,0:0:0:0:
192,192,2985,1,0,0:0:0:0:
320,192,3086,1,0,0:0:0:0:
448,192,3187,1,0,0:0:0:0:
320,192,3287,1,0,0:0:0:0:
192,192,3388,1,0,0:0:0:0:
64,192,3489,1,0,0:0:0:0:
192,192,3590,1,0,0:0:0:0:
64,192,3690,1,0,0:0:0:0:
320,192,3791,1,0,0:0:0:0:
448,192,3791,1,0,0:0:0:0:
448,192,3993,1,0,0:0:0:0:
320,192,3993,1,0,0:0:0:0:
320,192,4194,1,0,0:0:0:0:
448,192,4194,1,0,0:0:0:0:
448,192,4295,1,0,0:0:0:0:
320,192,4295,1,0,0:0:0:0:
320,192,4496,1,0,0:0:0:0:
448,192,4496,1,0,0:0:0:0:
320,192,4597,1,0,0:0:0:0:
448,192,4597,1,0,0:0:0:0:
448,192,4698,1,0,0:0:0:0:
320,192,4698,1,0,0:0:0:0:
320,192,4799,1,0,0:0:0:0:
448,192,4799,1,0,0:0:0:0:
320,192,5000,1,0,0:0:0:0:
448,192,5000,1,0,0:0:0:0:
448,192,5200,1,0,0:0:0:0:
320,192,5200,1,0,0:0:0:0:
448,192,5402,1,0,0:0:0:0:
320,192,5402,1,0,0:0:0:0:
320,192,5603,1,0,0:0:0:0:
448,192,5603,1,0,0:0:0:0:
448,192,5704,1,0,0:0:0:0:
320,192,5704,1,0,0:0:0:0:
320,192,5805,1,0,0:0:0:0:
448,192,5805,1,0,0:0:0:0:
320,192,5906,1,0,0:0:0:0:
448,192,5906,1,0,0:0:0:0:
320,192,6006,1,0,0:0:0:0:
448,192,6006,1,0,0:0:0:0:
448,192,6107,1,0,0:0:0:0:
320,192,6107,1,0,0:0:0:0:
448,192,6208,1,0,0:0:0:0:
320,192,6208,1,0,0:0:0:0:
448,192,6309,1,0,0:0:0:0:
320,192,6309,1,0,0:0:0:0:
320,192,6409,1,0,0:0:0:0:
448,192,6409,1,0,0:0:0:0:
320,192,6510,1,0,0:0:0:0:
448,192,6510,1,0,0:0:0:0:
320,192,6611,1,0,0:0:0:0:
448,192,6611,1,0,0:0:0:0:
448,192,6712,1,0,0:0:0:0:
320,192,6712,1,0,0:0:0:0:
448,192,6812,1,0,0:0:0:0:
320,192,6812,1,0,0:0:0:0:
320,192,6913,1,0,0:0:0:0:
448,192,6913,1,0,0:0:0:0:
320,192,7014,1,0,0:0:0:0:
448,192,7014,1,0,0:0:0:0:
448,192,7215,1,0,0:0:0:0:
320,192,7215,1,0,0:0:0:0:
320,192,7417,1,0,0:0:0:0:
448,192,7417,1,0,0:0:0:0:
448,192,7517,1,0,0:0:0:0:
320,192,7517,1,0,0:0:0:0:
448,192,7618,1,0,0:0:0:0:
320,192,7618,1,0,0:0:0:0:
320,192,7719,1,0,0:0:0:0:
448,192,7719,1,0,0:0:0:0:
320,192,7820,1,0,0:0:0:0:
448,192,7820,1,0,0:0:0:0:
448,192,7920,1,0,0:0:0:0:
320,192,7920,1,0,0:0:0:0:
320,192,8020,1,0,0:0:0:0:
448,192,8020,1,0,0:0:0:0:
320,192,8121,1,0,0:0:0:0:
448,192,8121,1,0,0:0:0:0:
448,192,8222,1,0,0:0:0:0:
320,192,8222,1,0,0:0:0:0:
320,192,8322,1,0,0:0:0:0:
448,192,8322,1,0,0:0:0:0:
320,192,8423,1,0,0:0:0:0:
448,192,8423,1,0,0:0:0:0:
448,192,8524,1,0,0:0:0:0:
320,192,8524,1,0,0:0:0:0:
448,192,8625,1,0,0:0:0:0:
320,192,8625,1,0,0:0:0:0:
448,192,8826,1,0,0:0:0:0:
320,192,8826,1,0,0:0:0:0:
448,192,8927,1,0,0:0:0:0:
320,192,8927,1,0,0:0:0:0:
320,192,9028,1,0,0:0:0:0:
448,192,9028,1,0,0:0:0:0:
448,192,9128,1,0,0:0:0:0:
320,192,9128,1,0,0:0:0:0:
448,192,9229,1,0,0:0:0:0:
320,192,9229,1,0,0:0:0:0:
320,192,9330,1,0,0:0:0:0:
448,192,9330,1,0,0:0:0:0:
320,192,9431,1,0,0:0:0:0:
448,192,9431,1,0,0:0:0:0:
448,192,9531,1,0,0:0:0:0:
320,192,9531,1,0,0:0:0:0:
320,192,9632,1,0,0:0:0:0:
448,192,9632,1,0,0:0:0:0:
448,192,9833,1,0,0:0:0:0:
320,192,9833,1,0,0:0:0:0:
320,192,10035,1,0,0:0:0:0:
448,192,10035,1,0,0:0:0:0:
320,192,10236,1,0,0:0:0:0:
448,192,10236,1,0,0:0:0:0:
448,192,10438,1,0,0:0:0:0:
320,192,10438,1,0,0:0:0:0:
320,192,10639,1,0,0:0:0:0:
448,192,10639,1,0,0:0:0:0:
448,192,10740,1,0,0:0:0:0:
320,192,10740,1,0,0:0:0:0:
320,192,10941,1,0,0:0:0:0:
448,192,10941,1,0,0:0:0:0:
320,192,11041,1,0,0:0:0:0:
448,192,11041,1,0,0:0:0:0:
448,192,11142,1,0,0:0:0:0:
320,192,11142,1,0,0:0:0:0:
320,192,11243,1,0,0:0:0:0:
448,192,11243,1,0,0:0:0:0:
320,192,11444,1,0,0:0:0:0:
448,192,11444,1,0,0:0:0:0:
448,192,11646,1,0,0:0:0:0:
320,192,11646,1,0,0:0:0:0:
448,192,11847,1,0,0:0:0:0:
320,192,11847,1,0,0:0:0:0:
320,192,12049,1,0,0:0:0:0:
448,192,12049,1,0,0:0:0:0:
448,192,12149,1,0,0:0:0:0:
320,192,12149,1,0,0:0:0:0:
320,192,12250,1,0,0:0:0:0:
448,192,12250,1,0,0:0:0:0:
320,192,12351,1,0,0:0:0:0:
448,192,12351,1,0,0:0:0:0:
320,192,12452,1,0,0:0:0:0:
448,192,12452,1,0,0:0:0:0:
448,192,12552,1,0,0:0:0:0:
320,192,12552,1,0,0:0:0:0:
448,192,12653,1,0,0:0:0:0:
320,192,12653,1,0,0:0:0:0:
448,192,12754,1,0,0:0:0:0:
320,192,12754,1,0,0:0:0:0:
320,192,12855,1,0,0:0:0:0:
448,192,12855,1,0,0:0:0:0:
320,192,12955,1,0,0:0:0:0:
448,192,12955,1,0,0:0:0:0:
320,192,13056,1,0,0:0:0:0:
448,192,13056,1,0,0:0:0:0:
448,192,13157,1,0,0:0:0:0:
320,192,13157,1,0,0:0:0:0:
448,192,13258,1,0,0:0:0:0:
320,192,13258,1,0,0:0:0:0:
320,192,13358,1,0,0:0:0:0:
448,192,13358,1,0,0:0:0:0:
320,192,13459,1,0,0:0:0:0:
448,192,13459,1,0,0:0:0:0:
448,192,13660,1,0,0:0:0:0:
320,192,13660,1,0,0:0:0:0:
320,192,13861,1,0,0:0:0:0:
448,192,13861,1,0,0:0:0:0:
448,192,13962,1,0,0:0:0:0:
320,192,13962,1,0,0:0:0:0:
448,192,14062,1,0,0:0:0:0:
320,192,14062,1,0,0:0:0:0:
320,192,14163,1,0,0:0:0:0:
448,192,14163,1,0,0:0:0:0:
320,192,14264,1,0,0:0:0:0:
448,192,14264,1,0,0:0:0:0:
448,192,14365,1,0,0:0:0:0:
320,192,14365,1,0,0:0:0:0:
320,192,14465,1,0,0:0:0:0:
448,192,14465,1,0,0:0:0:0:
320,192,14566,1,0,0:0:0:0:
448,192,14566,1,0,0:0:0:0:
448,192,14667,1,0,0:0:0:0:
320,192,14667,1,0,0:0:0:0:
320,192,14768,1,0,0:0:0:0:
448,192,14768,1,0,0:0:0:0:
320,192,14868,1,0,0:0:0:0:
448,192,14868,1,0,0:0:0:0:
448,192,14969,1,0,0:0:0:0:
320,192,14969,1,0,0:0:0:0:
448,192,15070,1,0,0:0:0:0:
320,192,15070,1,0,0:0:0:0:
448,192,15271,1,0,0:0:0:0:
320,192,15271,1,0,0:0:0:0:
448,192,15372,1,0,0:0:0:0:
320,192,15372,1,0,0:0:0:0:
320,192,15473,1,0,0:0:0:0:
448,192,15473,1,0,0:0:0:0:
448,192,15574,1,0,0:0:0:0:
320,192,15574,1,0,0:0:0:0:
448,192,15674,1,0,0:0:0:0:
320,192,15674,1,0,0:0:0:0:
320,192,15775,1,0,0:0:0:0:
448,192,15775,1,0,0:0:0:0:
320,192,15876,1,0,0:0:0:0:
448,192,15876,1,0,0:0:0:0:
448,192,15977,1,0,0:0:0:0:
320,192,15977,1,0,0:0:0:0:
320,192,16077,1,0,0:0:0:0:
448,192,16077,1,0,0:0:0:0:
448,192,16279,1,0,0:0:0:0:
320,192,16279,1,0,0:0:0:0:
320,192,16480,1,0,0:0:0:0:
448,192,16480,1,0,0:0:0:0:
320,192,16681,1,0,0:0:0:0:
448,192,16681,1,0,0:0:0:0:
320,192,16882,1,0,0:0:0:0:
448,192,16882,1,0,0:0:0:0:
448,192,16983,1,0,0:0:0:0:
320,192,16983,1,0,0:0:0:0:
320,192,17084,1,0,0:0:0:0:
448,192,17084,1,0,0:0:0:0:
448,192,17285,1,0,0:0:0:0:
320,192,17285,1,0,0:0:0:0:
320,192,17386,1,0,0:0:0:0:
448,192,17386,1,0,0:0:0:0:
320,192,17487,1,0,0:0:0:0:
448,192,17487,1,0,0:0:0:0:
448,192,17587,1,0,0:0:0:0:
320,192,17587,1,0,0:0:0:0:
448,192,17688,1,0,0:0:0:0:
320,192,17688,1,0,0:0:0:0:
320,192,17789,1,0,0:0:0:0:
448,192,17789,1,0,0:0:0:0:
320,192,17890,1,0,0:0:0:0:
448,192,17890,1,0,0:0:0:0:
320,192,17990,1,0,0:0:0:0:
448,192,17990,1,0,0:0:0:0:
320,192,18091,1,0,0:0:0:0:
448,192,18091,1,0,0:0:0:0:
320,192,18192,1,0,0:0:0:0:
448,192,18192,1,0,0:0:0:0:
448,192,18293,1,0,0:0:0:0:
320,192,18293,1,0,0:0:0:0:
448,192,18494,1,0,0:0:0:0:
320,192,18494,1,0,0:0:0:0:
320,192,18695,1,0,0:0:0:0:
448,192,18695,1,0,0:0:0:0:
448,192,18796,1,0,0:0:0:0:
320,192,18796,1,0,0:0:0:0:
320,192,18897,1,0,0:0:0:0:
448,192,18897,1,0,0:0:0:0:
320,192,18998,1,0,0:0:0:0:
448,192,18998,1,0,0:0:0:0:
448,192,19098,1,0,0:0:0:0:
320,192,19098,1,0,0:0:0:0:
320,192,19199,1,0,0:0:0:0:
448,192,19199,1,0,0:0:0:0:
448,192,19300,1,0,0:0:0:0:
320,192,19300,1,0,0:0:0:0:
448,192,19400,1,0,0:0:0:0:
320,192,19400,1,0,0:0:0:0:
448,192,19500,1,0,0:0:0:0:
320,192,19500,1,0,0:0:0:0:
320,192,19601,1,0,0:0:0:0:
448,192,19601,1,0,0:0:0:0:
320,192,19702,1,0,0:0:0:0:
448,192,19702,1,0,0:0:0:0:
320,192,19803,1,0,0:0:0:0:
448,192,19803,1,0,0:0:0:0:
448,192,19903,1,0,0:0:0:0:
320,192,19903,1,0,0:0:0:0:
448,192,20105,1,0,0:0:0:0:
320,192,20105,1,0,0:0:0:0:
320,192,20206,1,0,0:0:0:0:
448,192,20206,1,0,0:0:0:0:
320,192,20306,1,0,0:0:0:0:
448,192,20306,1,0,0:0:0:0:
448,192,20508,1,0,0:0:0:0:
320,192,20508,1,0,0:0:0:0:
320,192,20609,1,0,0:0:0:0:
448,192,20609,1,0,0:0:0:0:
320,192,20709,1,0,0:0:0:0:
448,192,20709,1,0,0:0:0:0:
448,192,20810,1,0,0:0:0:0:
320,192,20810,1,0,0:0:0:0:
448,192,20911,1,0,0:0:0:0:
320,192,20911,1,0,0:0:0:0:
320,192,21011,1,0,0:0:0:0:
448,192,21011,1,0,0:0:0:0:
320,192,21112,1,0,0:0:0:0:
448,192,21112,1,0,0:0:0:0:
448,192,21213,1,0,0:0:0:0:
320,192,21213,1,0,0:0:0:0:
448,192,21314,1,0,0:0:0:0:
320,192,21314,1,0,0:0:0:0:
320,192,21414,1,0,0:0:0:0:
448,192,21414,1,0,0:0:0:0:
448,192,21515,1,0,0:0:0:0:
320,192,21515,1,0,0:0:0:0:
320,192,21717,1,0,0:0:0:0:
448,192,21717,1,0,0:0:0:0:
448,192,21817,1,0,0:0:0:0:
320,192,21817,1,0,0:0:0:0:
448,192,21918,1,0,0:0:0:0:
320,192,21918,1,0,0:0:0:0:
320,192,22019,1,0,0:0:0:0:
448,192,22019,1,0,0:0:0:0:
320,192,22120,1,0,0:0:0:0:
448,192,22120,1,0,0:0:0:0:
320,192,22220,1,0,0:0:0:0:
448,192,22220,1,0,0:0:0:0:
320,192,22320,1,0,0:0:0:0:
448,192,22320,1,0,0:0:0:0:
320,192,22421,1,0,0:0:0:0:
448,192,22421,1,0,0:0:0:0:
448,192,22522,1,0,0:0:0:0:
320,192,22522,1,0,0:0:0:0:
320,192,22622,1,0,0:0:0:0:
448,192,22622,1,0,0:0:0:0:
320,192,22723,1,0,0:0:0:0:
448,192,22723,1,0,0:0:0:0:
448,192,22925,1,0,0:0:0:0:
320,192,22925,1,0,0:0:0:0:
320,192,23126,1,0,0:0:0:0:
448,192,23126,1,0,0:0:0:0:
320,192,23327,1,0,0:0:0:0:
448,192,23327,1,0,0:0:0:0:
448,192,23428,1,0,0:0:0:0:
320,192,23428,1,0,0:0:0:0:
320,192,23529,1,0,0:0:0:0:
448,192,23529,1,0,0:0:0:0:
448,192,23730,1,0,0:0:0:0:
320,192,23730,1,0,0:0:0:0:
320,192,23831,1,0,0:0:0:0:
448,192,23831,1,0,0:0:0:0:
320,192,23932,1,0,0:0:0:0:
448,192,23932,1,0,0:0:0:0:
448,192,24033,1,0,0:0:0:0:
320,192,24033,1,0,0:0:0:0:
448,192,24133,1,0,0:0:0:0:
320,192,24133,1,0,0:0:0:0:
320,192,24234,1,0,0:0:0:0:
448,192,24234,1,0,0:0:0:0:
320,192,24335,1,0,0:0:0:0:
448,192,24335,1,0,0:0:0:0:
320,192,24436,1,0,0:0:0:0:
448,192,24436,1,0,0:0:0:0:
320,192,24536,1,0,0:0:0:0:
448,192,24536,1,0,0:0:0:0:
320,192,24637,1,0,0:0:0:0:
448,192,24637,1,0,0:0:0:0:
448,192,24738,1,0,0:0:0:0:
320,192,24738,1,0,0:0:0:0:
448,192,24939,1,0,0:0:0:0:
320,192,24939,1,0,0:0:0:0:
320,192,25140,1,0,0:0:0:0:
448,192,25140,1,0,0:0:0:0:
448,192,25241,1,0,0:0:0:0:
320,192,25241,1,0,0:0:0:0:
320,192,25341,1,0,0:0:0:0:
448,192,25341,1,0,0:0:0:0:
320,192,25442,1,0,0:0:0:0:
448,192,25442,1,0,0:0:0:0:
448,192,25543,1,0,0:0:0:0:
320,192,25543,1,0,0:0:0:0:
320,192,25643,1,0,0:0:0:0:
448,192,25643,1,0,0:0:0:0:
448,192,25744,1,0,0:0:0:0:
320,192,25744,1,0,0:0:0:0:
448,192,25845,1,0,0:0:0:0:
320,192,25845,1,0,0:0:0:0:
448,192,25946,1,0,0:0:0:0:
320,192,25946,1,0,0:0:0:0:
320,192,26046,1,0,0:0:0:0:
448,192,26046,1,0,0:0:0:0:
320,192,26147,1,0,0:0:0:0:
448,192,26147,1,0,0:0:0:0:
320,192,26248,1,0,0:0:0:0:
448,192,26248,1,0,0:0:0:0:
448,192,26349,1,0,0:0:0:0:
320,192,26349,1,0,0:0:0:0:
448,192,26550,1,0,0:0:0:0:
320,192,26550,1,0,0:0:0:0:
320,192,26651,1,0,0:0:0:0:
448,192,26651,1,0,0:0:0:0:
320,192,26752,1,0,0:0:0:0:
448,192,26752,1,0,0:0:0:0:
448,192,26953,1,0,0:0:0:0:
320,192,26953,1,0,0:0:0:0:
320,192,27054,1,0,0:0:0:0:
448,192,27054,1,0,0:0:0:0:
320,192,27155,1,0,0:0:0:0:
448,192,27155,1,0,0:0:0:0:
448,192,27255,1,0,0:0:0:0:
320,192,27255,1,0,0:0:0:0:
448,192,27356,1,0,0:0:0:0:
320,192,27356,1,0,0:0:0:0:
320,192,27457,1,0,0:0:0:0:
448,192,27457,1,0,0:0:0:0:
320,192,27557,1,0,0:0:0:0:
448,192,27557,1,0,0:0:0:0:
448,192,27658,1,0,0:0:0:0:
320,192,27658,1,0,0:0:0:0:
448,192,27759,1,0,0:0:0:0:
320,192,27759,1,0,0:0:0:0:
320,192,27860,1,0,0:0:0:0:
448,192,27860,1,0,0:0:0:0:
448,192,27960,1,0,0:0:0:0:
320,192,27960,1,0,0:0:0:0:
320,192,28161,1,0,0:0:0:0:
448,192,28161,1,0,0:0:0:0:
448,192,28262,1,0,0:0:0:0:
320,192,28262,1,0,0:0:0:0:
448,192,28362,1,0,0:0:0:0:
320,192,28362,1,0,0:0:0:0:
320,192,28463,1,0,0:0:0:0:
448,192,28463,1,0,0:0:0:0:
320,192,28564,1,0,0:0:0:0:
448,192,28564,1,0,0:0:0:0:
320,192,28665,1,0,0:0:0:0:
448,192,28665,1,0,0:0:0:0:
320,192,28765,1,0,0:0:0:0:
448,192,28765,1,0,0:0:0:0:
320,192,28866,1,0,0:0:0:0:
448,192,28866,1,0,0:0:0:0:
448,192,28967,1,0,0:0:0:0:
320,192,28967,1,0,0:0:0:0:
320,192,29068,1,0,0:0:0:0:
448,192,29068,1,0,0:0:0:0:
320,192,29168,1,0,0:0:0:0:
448,192,29168,1,0,0:0:0:0:
448,192,29370,1,0,0:0:0:0:
320,192,29370,1,0,0:0:0:0:
320,192,29571,1,0,0:0:0:0:
448,192,29571,1,0,0:0:0:0:
448,192,29773,1,0,0:0:0:0:
320,192,29773,1,0,0:0:0:0:
320,192,29974,1,0,0:0:0:0:
448,192,29974,1,0,0:0:0:0:
448,192,30075,1,0,0:0:0:0:
320,192,30075,1,0,0:0:0:0:
320,192,30276,1,0,0:0:0:0:
448,192,30276,1,0,0:0:0:0:
320,192,30377,1,0,0:0:0:0:
448,192,30377,1,0,0:0:0:0:
448,192,30478,1,0,0:0:0:0:
320,192,30478,1,0,0:0:0:0:
320,192,30579,1,0,0:0:0:0:
448,192,30579,1,0,0:0:0:0:
320,192,30780,1,0,0:0:0:0:
448,192,30780,1,0,0:0:0:0:
448,192,30981,1,0,0:0:0:0:
320,192,30981,1,0,0:0:0:0:
448,192,31182,1,0,0:0:0:0:
320,192,31182,1,0,0:0:0:0:
320,192,31384,1,0,0:0:0:0:
448,192,31384,1,0,0:0:0:0:
448,192,31484,1,0,0:0:0:0:
320,192,31484,1,0,0:0:0:0:
320,192,31585,1,0,0:0:0:0:
448,192,31585,1,0,0:0:0:0:
320,192,31686,1,0,0:0:0:0:
448,192,31686,1,0,0:0:0:0:
320,192,31787,1,0,0:0:0:0:
448,192,31787,1,0,0:0:0:0:
448,192,31887,1,0,0:0:0:0:
320,192,31887,1,0,0:0:0:0:
448,192,31988,1,0,0:0:0:0:
320,192,31988,1,0,0:0:0:0:
448,192,32089,1,0,0:0:0:0:
320,192,32089,1,0,0:0:0:0:
320,192,32189,1,0,0:0:0:0:
448,192,32189,1,0,0:0:0:0:
320,192,32290,1,0,0:0:0:0:
448,192,32290,1,0,0:0:0:0:
320,192,32391,1,0,0:0:0:0:
448,192,32391,1,0,0:0:0:0:
448,192,32492,1,0,0:0:0:0:
320,192,32492,1,0,0:0:0:0:
448,192,32592,1,0,0:0:0:0:
320,192,32592,1,0,0:0:0:0:
320,192,32693,1,0,0:0:0:0:
448,192,32693,1,0,0:0:0:0:
320,192,32794,1,0,0:0:0:0:
448,192,32794,1,0,0:0:0:0:
448,192,32995,1,0,0:0:0:0:
320,192,32995,1,0,0:0:0:0:
320,192,33197,1,0,0:0:0:0:
448,192,33197,1,0,0:0:0:0:
448,192,33298,1,0,0:0:0:0:
320,192,33298,1,0,0:0:0:0:
448,192,33398,1,0,0:0:0:0:
320,192,33398,1,0,0:0:0:0:
320,192,33499,1,0,0:0:0:0:
448,192,33499,1,0,0:0:0:0:
320,192,33600,1,0,0:0:0:0:
448,192,33600,1,0,0:0:0:0:
448,192,33700,1,0,0:0:0:0:
320,192,33700,1,0,0:0:0:0:
320,192,33800,1,0,0:0:0:0:
448,192,33800,1,0,0:0:0:0:
320,192,33901,1,0,0:0:0:0:
448,192,33901,1,0,0:0:0:0:
448,192,34002,1,0,0:0:0:0:
320,192,34002,1,0,0:0:0:0:
320,192,34103,1,0,0:0:0:0:
448,192,34103,1,0,0:0:0:0:
320,192,34203,1,0,0:0:0:0:
448,192,34203,1,0,0:0:0:0:
448,192,34304,1,0,0:0:0:0:
320,192,34304,1,0,0:0:0:0:
448,192,34405,1,0,0:0:0:0:
320,192,34405,1,0,0:0:0:0:
448,192,34606,1,0,0:0:0:0:
320,192,34606,1,0,0:0:0:0:
448,192,34707,1,0,0:0:0:0:
320,192,34707,1,0,0:0:0:0:
320,192,34808,1,0,0:0:0:0:
448,192,34808,1,0,0:0:0:0:
448,192,34908,1,0,0:0:0:0:
320,192,34908,1,0,0:0:0:0:
448,192,35009,1,0,0:0:0:0:
320,192,35009,1,0,0:0:0:0:
320,192,35110,1,0,0:0:0:0:
448,192,35110,1,0,0:0:0:0:
320,192,35211,1,0,0:0:0:0:
448,192,35211,1,0,0:0:0:0:
448,192,35311,1,0,0:0:0:0:
320,192,35311,1,0,0:0:0:0:
320,192,35412,1,0,0:0:0:0:
448,192,35412,1,0,0:0:0:0:
448,192,35614,1,0,0:0:0:0:
320,192,35614,1,0,0:0:0:0:
320,192,35815,1,0,0:0:0:0:
448,192,35815,1,0,0:0:0:0:
320,192,36017,1,0,0:0:0:0:
448,192,36017,1,0,0:0:0:0:
448,192,36218,1,0,0:0:0:0:
320,192,36218,1,0,0:0:0:0:
320,192,36420,1,0,0:0:0:0:
448,192,36420,1,0,0:0:0:0:
448,192,36520,1,0,0:0:0:0:
320,192,36520,1,0,0:0:0:0:
320,192,36721,1,0,0:0:0:0:
448,192,36721,1,0,0:0:0:0:
320,192,36821,1,0,0:0:0:0:
448,192,36821,1,0,0:0:0:0:
448,192,36922,1,0,0:0:0:0:
320,192,36922,1,0,0:0:0:0:
320,192,37023,1,0,0:0:0:0:
448,192,37023,1,0,0:0:0:0:
320,192,37224,1,0,0:0:0:0:
448,192,37224,1,0,0:0:0:0:
448,192,37426,1,0,0:0:0:0:
320,192,37426,1,0,0:0:0:0:
448,192,37627,1,0,0:0:0:0:
320,192,37627,1,0,0:0:0:0:
320,192,37829,1,0,0:0:0:0:
448,192,37829,1,0,0:0:0:0:
448,192,37930,1,0,0:0:0:0:
320,192,37930,1,0,0:0:0:0:
320,192,38030,1,0,0:0:0:0:
448,192,38030,1,0,0:0:0:0:
320,192,38131,1,0,0:0:0:0:
448,192,38131,1,0,0:0:0:0:
320,192,38232,1,0,0:0:0:0:
448,192,38232,1,0,0:0:0:0:
448,192,38333,1,0,0:0:0:0:
320,192,38333,1,0,0:0:0:0:
448,192,38433,1,0,0:0:0:0:
320,192,38433,1,0,0:0:0:0:
448,192,38534,1,0,0:0:0:0:
320,192,38534,1,0,0:0:0:0:
320,192,38635,1,0,0:0:0:0:
448,192,38635,1,0,0:0:0:0:
320,192,38736,1,0,0:0:0:0:
448,192,38736,1,0,0:0:0:0:
320,192,38836,1,0,0:0:0:0:
448,192,38836,1,0,0:0:0:0:
448,192,38937,1,0,0:0:0:0:
320,192,38937,1,0,0:0:0:0:
448,192,39038,1,0,0:0:0:0:
320,192,39038,1,0,0:0:0:0:
320,192,39138,1,0,0:0:0:0:
448,192,39138,1,0,0:0:0:0:
320,192,39239,1,0,0:0:0:0:
448,192,39239,1,0,0:0:0:0:
448,192,39440,1,0,0:0:0:0:
320,192,39440,1,0,0:0:0:0:
320,192,39641,1,0,0:0:0:0:
448,192,39641,1,0,0:0:0:0:
448,192,39742,1,0,0:0:0:0:
320,192,39742,1,0,0:0:0:0:
448,192,39843,1,0,0:0:0:0:
320,192,39843,1,0,0:0:0:0:
320,192,39943,1,0,0:0:0:0:
448,192,39943,1,0,0:0:0:0:
320,192,40044,1,0,0:0:0:0:
448,192,40044,1,0,0:0:0:0:
448,192,40145,1,0,0:0:0:0:
320,192,40145,1,0,0:0:0:0:
320,192,40246,1,0,0:0:0:0:
448,192,40246,1,0,0:0:0:0:
320,192,40346,1,0,0:0:0:0:
448,192,40346,1,0,0:0:0:0:
448,192,40447,1,0,0:0:0:0:
320,192,40447,1,0,0:0:0:0:
320,192,40548,1,0,0:0:0:0:
448,192,40548,1,0,0:0:0:0:
320,192,40649,1,0,0:0:0:0:
448,192,40649,1,0,0:0:0:0:
448,192,40749,1,0,0:0:0:0:
320,192,40749,1,0,0:0:0:0:
448,192,40850,1,0,0:0:0:0:
320,192,40850,1,0,0:0:0:0:
448,192,41051,1,0,0:0:0:0:
320,192,41051,1,0,0:0:0:0:
448,192,41152,1,0,0:0:0:0:
320,192,41152,1,0,0:0:0:0:
320,192,41253,1,0,0:0:0:0:
448,192,41253,1,0,0:0:0:0:
448,192,41354,1,0,0:0:0:0:
320,192,41354,1,0,0:0:0:0:
448,192,41454,1,0,0:0:0:0:
320,192,41454,1,0,0:0:0:0:
320,192,41555,1,0,0:0:0:0:
448,192,41555,1,0,0:0:0:0:
320,192,41656,1,0,0:0:0:0:
448,192,41656,1,0,0:0:0:0:
448,192,41757,1,0,0:0:0:0:
320,192,41757,1,0,0:0:0:0:
320,192,41857,1,0,0:0:0:0:
448,192,41857,1,0,0:0:0:0:
448,192,42059,1,0,0:0:0:0:
320,192,42059,1,0,0:0:0:0:
320,192,42260,1,0,0:0:0:0:
448,192,42260,1,0,0:0:0:0:
320,192,42461,1,0,0:0:0:0:
448,192,42461,1,0,0:0:0:0:
320,192,42662,1,0,0:0:0:0:
448,192,42662,1,0,0:0:0:0:
448,192,42763,1,0,0:0:0:0:
320,192,42763,1,0,0:0:0:0:
320,192,42864,1,0,0:0:0:0:
448,192,42864,1,0,0:0:0:0:
448,192,43065,1,0,0:0:0:0:
320,192,43065,1,0,0:0:0:0:
320,192,43166,1,0,0:0:0:0:
448,192,43166,1,0,0:0:0:0:
320,192,43267,1,0,0:0:0:0:
448,192,43267,1,0,0:0:0:0:
448,192,43367,1,0,0:0:0:0:
320,192,43367,1,0,0:0:0:0:
448,192,43468,1,0,0:0:0:0:
320,192,43468,1,0,0:0:0:0:
320,192,43569,1,0,0:0:0:0:
448,192,43569,1,0,0:0:0:0:
320,192,43670,1,0,0:0:0:0:
448,192,43670,1,0,0:0:0:0:
320,192,43770,1,0,0:0:0:0:
448,192,43770,1,0,0:0:0:0:
320,192,43871,1,0,0:0:0:0:
448,192,43871,1,0,0:0:0:0:
320,192,43972,1,0,0:0:0:0:
448,192,43972,1,0,0:0:0:0:
448,192,44073,1,0,0:0:0:0:
320,192,44073,1,0,0:0:0:0:
448,192,44274,1,0,0:0:0:0:
320,192,44274,1,0,0:0:0:0:
320,192,44476,1,0,0:0:0:0:
448,192,44476,1,0,0:0:0:0:
448,192,44576,1,0,0:0:0:0:
320,192,44576,1,0,0:0:0:0:
320,192,44677,1,0,0:0:0:0:
448,192,44677,1,0,0:0:0:0:
320,192,44778,1,0,0:0:0:0:
448,192,44778,1,0,0:0:0:0:
448,192,44879,1,0,0:0:0:0:
320,192,44879,1,0,0:0:0:0:
320,192,44979,1,0,0:0:0:0:
448,192,44979,1,0,0:0:0:0:
448,192,45080,1,0,0:0:0:0:
320,192,45080,1,0,0:0:0:0:
448,192,45180,1,0,0:0:0:0:
320,192,45180,1,0,0:0:0:0:
448,192,45281,1,0,0:0:0:0:
320,192,45281,1,0,0:0:0:0:
320,192,45381,1,0,0:0:0:0:
448,192,45381,1,0,0:0:0:0:
320,192,45482,1,0,0:0:0:0:
448,192,45482,1,0,0:0:0:0:
320,192,45583,1,0,0:0:0:0:
448,192,45583,1,0,0:0:0:0:
448,192,45683,1,0,0:0:0:0:
320,192,45683,1,0,0:0:0:0:
448,192,45885,1,0,0:0:0:0:
320,192,45885,1,0,0:0:0:0:
320,192,45986,1,0,0:0:0:0:
448,192,45986,1,0,0:0:0:0:
320,192,46086,1,0,0:0:0:0:
448,192,46086,1,0,0:0:0:0:
448,192,46288,1,0,0:0:0:0:
320,192,46288,1,0,0:0:0:0:
320,192,46389,1,0,0:0:0:0:
448,192,46389,1,0,0:0:0:0:
320,192,46489,1,0,0:0:0:0:
448,192,46489,1,0,0:0:0:0:
448,192,46590,1,0,0:0:0:0:
320,192,46590,1,0,0:0:0:0:
448,192,46691,1,0,0:0:0:0:
320,192,46691,1,0,0:0:0:0:
320,192,46792,1,0,0:0:0:0:
448,192,46792,1,0,0:0:0:0:
320,192,46892,1,0,0:0:0:0:
448,192,46892,1,0,0:0:0:0:
448,192,46993,1,0,0:0:0:0:
320,192,46993,1,0,0:0:0:0:
448,192,47094,1,0,0:0:0:0:
320,192,47094,1,0,0:0:0:0:
320,192,47195,1,0,0:0:0:0:
448,192,47195,1,0,0:0:0:0:
448,192,47295,1,0,0:0:0:0:
320,192,47295,1,0,0:0:0:0:
320,192,47497,1,0,0:0:0:0:
448,192,47497,1,0,0:0:0:0:
448,192,47598,1,0,0:0:0:0:
320,192,47598,1,0,0:0:0:0:
448,192,47698,1,0,0:0:0:0:
320,192,47698,1,0,0:0:0:0:
320,192,47799,1,0,0:0:0:0:
448,192,47799,1,0,0:0:0:0:
320,192,47900,1,0,0:0:0:0:
448,192,47900,1,0,0:0:0:0:
320,192,48000,1,0,0:0:0:0:
448,192,48000,1,0,0:0:0:0:
320,192,48100,1,0,0:0:0:0:
448,192,48100,1,0,0:0:0:0:
320,192,48201,1,0,0:0:0:0:
448,192,48201,1,0,0:0:0:0:
448,192,48302,1,0,0:0:0:0:
320,192,48302,1,0,0:0:0:0:
320,192,48402,1,0,0:0:0:0:
448,192,48402,1,0,0:0:0:0:
320,192,48503,1,0,0:0:0:0:
448,192,48503,1,0,0:0:0:0:
448,192,48705,1,0,0:0:0:0:
320,192,48705,1,0,0:0:0:0:
320,192,48906,1,0,0:0:0:0:
448,192,48906,1,0,0:0:0:0:
320,192,49108,1,0,0:0:0:0:
448,192,49108,1,0,0:0:0:0:
448,192,49208,1,0,0:0:0:0:
320,192,49208,1,0,0:0:0:0:
320,192,49309,1,0,0:0:0:0:
448,192,49309,1,0,0:0:0:0:
448,192,49511,1,0,0:0:0:0:
320,192,49511,1,0,0:0:0:0:
320,192,49611,1,0,0:0:0:0:
448,192,49611,1,0,0:0:0:0:
320,192,49712,1,0,0:0:0:0:
448,192,49712,1,0,0:0:0:0:
448,192,49813,1,0,0:0:0:0:
320,192,49813,1,0,0:0:0:0:
448,192,49914,1,0,0:0:0:0:
320,192,49914,1,0,0:0:0:0:
320,192,50014,1,0,0:0:0:0:
448,192,50014,1,0,0:0:0:0:
320,192,50115,1,0,0:0:0:0:
448,192,50115,1,0,0:0:0:0:
320,192,50216,1,0,0:0:0:0:
448,192,50216,1,0,0:0:0:0:
320,192,50316,1,0,0:0:0:0:
448,192,50316,1,0,0:0:0:0:
320,192,50417,1,0,0:0:0:0:
448,192,50417,1,0,0:0:0:0:
448,192,50518,1,0,0:0:0:0:
320,192,50518,1,0,0:0:0:0:
448,192,50719,1,0,0:0:0:0:
320,192,50719,1,0,0:0:0:0:
320,192,50920,1,0,0:0:0:0:
448,192,50920,1,0,0:0:0:0:
448,192,51021,1,0,0:0:0:0:
320,192,51021,1,0,0:0:0:0:
320,192,51121,1,0,0:0:0:0:
448,192,51121,1,0,0:0:0:0:
320,192,51222,1,0,0:0:0:0:
448,192,51222,1,0,0:0:0:0:
448,192,51323,1,0,0:0:0:0:
320,192,51323,1,0,0:0:0:0:
320,192,51424,1,0,0:0:0:0:
448,192,51424,1,0,0:0:0:0:
448,192,51524,1,0,0:0:0:0:
320,192,51524,1,0,0:0:0:0:
448,192,51625,1,0,0:0:0:0:
320,192,51625,1,0,0:0:0:0:
448,192,51726,1,0,0:0:0:0:
320,192,51726,1,0,0:0:0:0:
320,192,51827,1,0,0:0:0:0:
448,192,51827,1,0,0:0:0:0:
320,192,51927,1,0,0:0:0:0:
448,192,51927,1,0,0:0:0:0:
320,192,52028,1,0,0:0:0:0:
448,192,52028,1,0,0:0:0:0:
448,192,52129,1,0,0:0:0:0:
320,192,52129,1,0,0:0:0:0:
448,192,52330,1,0,0:0:0:0:
320,192,52330,1,0,0:0:0:0:
320,192,52431,1,0,0:0:0:0:
448,192,52431,1,0,0:0:0:0:
320,192,52532,1,0,0:0:0:0:
448,192,52532,1,0,0:0:0:0:
448,192,52733,1,0,0:0:0:0:
320,192,52733,1,0,0:0:0:0:
320,192,52834,1,0,0:0:0:0:
448,192,52834,1,0,0:0:0:0:
320,192,52935,1,0,0:0:0:0:
448,192,52935,1,0,0:0:0:0:
448,192,53035,1,0,0:0:0:0:
320,192,53035,1,0,0:0:0:0:
448,192,53136,1,0,0:0:0:0:
320,192,53136,1,0,0:0:0:0:
320,192,53237,1,0,0:0:0:0:
448,192,53237,1,0,0:0:0:0:
320,192,53338,1,0,0:0:0:0:
448,192,53338,1,0,0:0:0:0:
448,192,53438,1,0,0:0:0:0:
320,192,53438,1,0,0:0:0:0:
448,192,53539,1,0,0:0:0:0:
320,192,53539,1,0,0:0:0:0:
320,192,53640,1,0,0:0:0:0:
448,192,53640,1,0,0:0:0:0:
448,192,53740,1,0,0:0:0:0:
320,192,53740,1,0,0:0:0:0:
320,192,53941,1,0,0:0:0:0:
448,192,53941,1,0,0:0:0:0:
448,192,54042,1,0,0:0:0:0:
320,192,54042,1,0,0:0:0:0:
448,192,54143,1,0,0:0:0:0:
320,192,54143,1,0,0:0:0:0:
320,192,54243,1,0,0:0:0:0:
448,192,54243,1,0,0:0:0:0:
320,192,54344,1,0,0:0:0:0:
448,192,54344,1,0,0:0:0:0:
320,192,54445,1,0,0:0:0:0:
448,192,54445,1,0,0:0:0:0:
320,192,54545,1,0,0:0:0:0:
448,192,54545,1,0,0:0:0:0:
320,192,54646,1,0,0:0:0:0:
448,192,54646,1,0,0:0:0:0:
448,192,54747,1,0,0:0:0:0:
320,192,54747,1,0,0:0:0:0:
320,192,54848,1,0,0:0:0:0:
448,192,54848,1,0,0:0:0:0:
320,192,54948,1,0,0:0:0:0:
448,192,54948,1,0,0:0:0:0:
448,192,55150,1,0,0:0:0:0:
320,192,55150,1,0,0:0:0:0:
320,192,55351,1,0,0:0:0:0:
448,192,55351,1,0,0:0:0:0:
448,192,55553,1,0,0:0:0:0:
320,192,55553,1,0,0:0:0:0:
320,192,55754,1,0,0:0:0:0:
448,192,55754,1,0,0:0:0:0:
448,192,55855,1,0,0:0:0:0:
320,192,55855,1,0,0:0:0:0:
320,192,56057,1,0,0:0:0:0:
448,192,56057,1,0,0:0:0:0:
320,192,56157,1,0,0:0:0:0:
448,192,56157,1,0,0:0:0:0:
448,192,56258,1,0,0:0:0:0:
320,192,56258,1,0,0:0:0:0:
320,192,56359,1,0,0:0:0:0:
448,192,56359,1,0,0:0:0:0:
320,192,56560,1,0,0:0:0:0:
448,192,56560,1,0,0:0:0:0:
448,192,56761,1,0,0:0:0:0:
320,192,56761,1,0,0:0:0:0:
448,192,56962,1,0,0:0:0:0:
320,192,56962,1,0,0:0:0:0:
320,192,57164,1,0,0:0:0:0:
448,192,57164,1,0,0:0:0:0:
448,192,57264,1,0,0:0:0:0:
320,192,57264,1,0,0:0:0:0:
320,192,57365,1,0,0:0:0:0:
448,192,57365,1,0,0:0:0:0:
320,192,57466,1,0,0:0:0:0:
448,192,57466,1,0,0:0:0:0:
320,192,57567,1,0,0:0:0:0:
448,192,57567,1,0,0:0:0:0:
448,192,57667,1,0,0:0:0:0:
320,192,57667,1,0,0:0:0:0:
448,192,57768,1,0,0:0:0:0:
320,192,57768,1,0,0:0:0:0:
448,192,57869,1,0,0:0:0:0:
320,192,57869,1,0,0:0:0:0:
320,192,57970,1,0,0:0:0:0:
448,192,57970,1,0,0:0:0:0:
320,192,58070,1,0,0:0:0:0:
448,192,58070,1,0,0:0:0:0:
320,192,58171,1,0,0:0:0:0:
448,192,58171,1,0,0:0:0:0:
448,192,58272,1,0,0:0:0:0:
320,192,58272,1,0,0:0:0:0:
448,192,58373,1,0,0:0:0:0:
320,192,58373,1,0,0:0:0:0:
320,192,58473,1,0,0:0:0:0:
448,192,58473,1,0,0:0:0:0:
320,192,58574,1,0,0:0:0:0:
448,192,58574,1,0,0:0:0:0:
448,192,58776,1,0,0:0:0:0:
320,192,58776,1,0,0:0:0:0:
320,192,58977,1,0,0:0:0:0:
448,192,58977,1,0,0:0:0:0:
448,192,59078,1,0,0:0:0:0:
320,192,59078,1,0,0:0:0:0:
448,192,59178,1,0,0:0:0:0:
320,192,59178,1,0,0:0:0:0:
320,192,59279,1,0,0:0:0:0:
448,192,59279,1,0,0:0:0:0:
320,192,59380,1,0,0:0:0:0:
448,192,59380,1,0,0:0:0:0:
448,192,59480,1,0,0:0:0:0:
320,192,59480,1,0,0:0:0:0:
320,192,59580,1,0,0:0:0:0:
448,192,59580,1,0,0:0:0:0:
320,192,59681,1,0,0:0:0:0:
448,192,59681,1,0,0:0:0:0:
448,192,59782,1,0,0:0:0:0:
320,192,59782,1,0,0:0:0:0:
320,192,59883,1,0,0:0:0:0:
448,192,59883,1,0,0:0:0:0:
320,192,59983,1,0,0:0:0:0:
448,192,59983,1,0,0:0:0:0:
448,192,60084,1,0,0:0:0:0:
320,192,60084,1,0,0:0:0:0:
448,192,60185,1,0,0:0:0:0:
320,192,60185,1,0,0:0:0:0:
448,192,60386,1,0,0:0:0:0:
320,192,60386,1,0,0:0:0:0:
448,192,60487,1,0,0:0:0:0:
320,192,60487,1,0,0:0:0:0:
320,192,60588,1,0,0:0:0:0:
448,192,60588,1,0,0:0:0:0:
448,192,60689,1,0,0:0:0:0:
320,192,60689,1,0,0:0:0:0:
448,192,60789,1,0,0:0:0:0:
320,192,60789,1,0,0:0:0:0:
320,192,60890,1,0,0:0:0:0:
448,192,60890,1,0,0:0:0:0:
320,192,60991,1,0,0:0:0:0:
448,192,60991,1,0,0:0:0:0:
448,192,61092,1,0,0:0:0:0:
320,192,61092,1,0,0:0:0:0:
320,192,61192,1,0,0:0:0:0:
448,192,61192,1,0,0:0:0:0:
448,192,61394,1,0,0:0:0:0:
320,192,61394,1,0,0:0:0:0:
320,192,61595,1,0,0:0:0:0:
448,192,61595,1,0,0:0:0:0:
320,192,61797,1,0,0:0:0:0:
448,192,61797,1,0,0:0:0:0:
448,192,61998,1,0,0:0:0:0:
320,192,61998,1,0,0:0:0:0:
320,192,62200,1,0,0:0:0:0:
448,192,62200,1,0,0:0:0:0:
448,192,62300,1,0,0:0:0:0:
320,192,62300,1,0,0:0:0:0:
320,192,62501,1,0,0:0:0:0:
448,192,62501,1,0,0:0:0:0:
320,192,62602,1,0,0:0:0:0:
448,192,62602,1,0,0:0:0:0:
448,192,62702,1,0,0:0:0:0:
320,192,62702,1,0,0:0:0:0:
320,192,62803,1,0,0:0:0:0:
448,192,62803,1,0,0:0:0:0:
320,192,63005,1,0,0:0:0:0:
448,192,63005,1,0,0:0:0:0:
448,192,63206,1,0,0:0:0:0:
320,192,63206,1,0,0:0:0:0:
448,192,63408,1,0,0:0:0:0:
320,192,63408,1,0,0:0:0:0:
320,192,63609,1,0,0:0:0:0:
448,192,63609,1,0,0:0:0:0:
448,192,63710,1,0,0:0:0:0:
320,192,63710,1,0,0:0:0:0:
320,192,63810,1,0,0:0:0:0:
448,192,63810,1,0,0:0:0:0:
320,192,63911,1,0,0:0:0:0:
448,192,63911,1,0,0:0:0:0:
320,192,64012,1,0,0:0:0:0:
448,192,64012,1,0,0:0:0:0:
448,192,64113,1,0,0:0:0:0:
320,192,64113,1,0,0:0:0:0:
448,192,64213,1,0,0:0:0:0:
320,192,64213,1,0,0:0:0:0:
448,192,64314,1,0,0:0:0:0:
320,192,64314,1,0,0:0:0:0:
320,192,64415,1,0,0:0:0:0:
448,192,64415,1,0,0:0:0:0:
320,192,64516,1,0,0:0:0:0:
448,192,64516,1,0,0:0:0:0:
320,192,64616,1,0,0:0:0:0:
448,192,64616,1,0,0:0:0:0:
448,192,64717,1,0,0:0:0:0:
320,192,64717,1,0,0:0:0:0:
448,192,64818,1,0,0:0:0:0:
320,192,64818,1,0,0:0:0:0:
320,192,64919,1,0,0:0:0:0:
448,192,64919,1,0,0:0:0:0:
320,192,65019,1,0,0:0:0:0:
448,192,65019,1,0,0:0:0:0:
448,192,65220,1,0,0:0:0:0:
320,192,65220,1,0,0:0:0:0:
320,192,65421,1,0,0:0:0:0:
448,192,65421,1,0,0:0:0:0:
448,192,65522,1,0,0:0:0:0:
320,192,65522,1,0,0:0:0:0:
448,192,65623,1,0,0:0:0:0:
320,192,65623,1,0,0:0:0:0:
320,192,65724,1,0,0:0:0:0:
448,192,65724,1,0,0:0:0:0:
320,192,65824,1,0,0:0:0:0:
448,192,65824,1,0,0:0:0:0:
448,192,65925,1,0,0:0:0:0:
320,192,65925,1,0,0:0:0:0:
320,192,66026,1,0,0:0:0:0:
448,192,66026,1,0,0:0:0:0:
320,192,66126,1,0,0:0:0:0:
448,192,66126,1,0,0:0:0:0:
448,192,66227,1,0,0:0:0:0:
320,192,66227,1,0,0:0:0:0:
320,192,66328,1,0,0:0:0:0:
448,192,66328,1,0,0:0:0:0:
320,192,66429,1,0,0:0:0:0:
448,192,66429,1,0,0:0:0:0:
448,192,66529,1,0,0:0:0:0:
320,192,66529,1,0,0:0:0:0:
448,192,66630,1,0,0:0:0:0:
320,192,66630,1,0,0:0:0:0:
448,192,66832,1,0,0:0:0:0:
320,192,66832,1,0,0:0:0:0:
448,192,66932,1,0,0:0:0:0:
320,192,66932,1,0,0:0:0:0:
320,192,67033,1,0,0:0:0:0:
448,192,67033,1,0,0:0:0:0:
448,192,67134,1,0,0:0:0:0:
320,192,67134,1,0,0:0:0:0:
448,192,67235,1,0,0:0:0:0:
320,192,67235,1,0,0:0:0:0:
320,192,67335,1,0,0:0:0:0:
448,192,67335,1,0,0:0:0:0:
320,192,67436,1,0,0:0:0:0:
448,192,67436,1,0,0:0:0:0:
448,192,67537,1,0,0:0:0:0:
320,192,67537,1,0,0:0:0:0:
320,192,67638,1,0,0:0:0:0:
448,192,67638,1,0,0:0:0:0:
448,192,67839,1,0,0:0:0:0:
320,192,67839,1,0,0:0:0:0:
320,192,68040,1,0,0:0:0:0:
448,192,68040,1,0,0:0:0:0:
320,192,68241,1,0,0:0:0:0:
448,192,68241,1,0,0:0:0:0:
320,192,68442,1,0,0:0:0:0:
448,192,68442,1,0,0:0:0:0:
448,192,68543,1,0,0:0:0:0:
320,192,68543,1,0,0:0:0:0:
320,192,68644,1,0,0:0:0:0:
448,192,68644,1,0,0:0:0:0:
448,192,68845,1,0,0:0:0:0:
320,192,68845,1,0,0:0:0:0:
320,192,68946,1,0,0:0:0:0:
448,192,68946,1,0,0:0:0:0:
320,192,69047,1,0,0:0:0:0:
448,192,69047,1,0,0:0:0:0:
448,192,69148,1,0,0:0:0:0:
320,192,69148,1,0,0:0:0:0:
448,192,69248,1,0,0:0:0:0:
320,192,69248,1,0,0:0:0:0:
320,192,69349,1,0,0:0:0:0:
448,192,69349,1,0,0:0:0:0:
320,192,69450,1,0,0:0:0:0:
448,192,69450,1,0,0:0:0:0:
320,192,69551,1,0,0:0:0:0:
448,192,69551,1,0,0:0:0:0:
320,192,69651,1,0,0:0:0:0:
448,192,69651,1,0,0:0:0:0:
320,192,69752,1,0,0:0:0:0:
448,192,69752,1,0,0:0:0:0:
448,192,69853,1,0,0:0:0:0:
320,192,69853,1,0,0:0:0:0:
448,192,70054,1,0,0:0:0:0:
320,192,70054,1,0,0:0:0:0:
320,192,70256,1,0,0:0:0:0:
448,192,70256,1,0,0:0:0:0:
448,192,70356,1,0,0:0:0:0:
320,192,70356,1,0,0:0:0:0:
320,192,70457,1,0,0:0:0:0:
448,192,70457,1,0,0:0:0:0:
320,192,70558,1,0,0:0:0:0:
448,192,70558,1,0,0:0:0:0:
448,192,70659,1,0,0:0:0:0:
320,192,70659,1,0,0:0:0:0:
320,192,70759,1,0,0:0:0:0:
448,192,70759,1,0,0:0:0:0:
448,192,70860,1,0,0:0:0:0:
320,192,70860,1,0,0:0:0:0:
448,192,70960,1,0,0:0:0:0:
320,192,70960,1,0,0:0:0:0:
448,192,71061,1,0,0:0:0:0:
320,192,71061,1,0,0:0:0:0:
320,192,71161,1,0,0:0:0:0:
448,192,71161,1,0,0:0:0:0:
320,192,71262,1,0,0:0:0:0:
448,192,71262,1,0,0:0:0:0:
320,192,71363,1,0,0:0:0:0:
448,192,71363,1,0,0:0:0:0:
448,192,71464,1,0,0:0:0:0:
320,192,71464,1,0,0:0:0:0:
448,192,71665,1,0,0:0:0:0:
320,192,71665,1,0,0:0:0:0:
320,192,71766,1,0,0:0:0:0:
448,192,71766,1,0,0:0:0:0:
320,192,71867,1,0,0:0:0:0:
448,192,71867,1,0,0:0:0:0:
448,192,72068,1,0,0:0:0:0:
320,192,72068,1,0,0:0:0:0:
320,192,72169,1,0,0:0:0:0:
448,192,72169,1,0,0:0:0:0:
320,192,72270,1,0,0:0:0:0:
448,192,72270,1,0,0:0:0:0:
448,192,72370,1,0,0:0:0:0:
320,192,72370,1,0,0:0:0:0:
448,192,72471,1,0,0:0:0:0:
320,192,72471,1,0,0:0:0:0:
320,192,72572,1,0,0:0:0:0:
448,192,72572,1,0,0:0:0:0:
320,192,72672,1,0,0:0:0:0:
448,192,72672,1,0,0:0:0:0:
448,192,72773,1,0,0:0:0:0:
320,192,72773,1,0,0:0:0:0:
448,192,72874,1,0,0:0:0:0:
320,192,72874,1,0,0:0:0:0:
320,192,72975,1,0,0:0:0:0:
448,192,72975,1,0,0:0:0:0:
448,192,73075,1,0,0:0:0:0:
320,192,73075,1,0,0:0:0:0:
320,192,73277,1,0,0:0:0:0:
448,192,73277,1,0,0:0:0:0:
448,192,73378,1,0,0:0:0:0:
320,192,73378,1,0,0:0:0:0:
448,192,73478,1,0,0:0:0:0:
320,192,73478,1,0,0:0:0:0:
320,192,73579,1,0,0:0:0:0:
448,192,73579,1,0,0:0:0:0:
320,192,73680,1,0,0:0:0:0:
448,192,73680,1,0,0:0:0:0:
320,192,73780,1,0,0:0:0:0:
448,192,73780,1,0,0:0:0:0:
320,192,73880,1,0,0:0:0:0:
448,192,73880,1,0,0:0:0:0:
320,192,73981,1,0,0:0:0:0:
448,192,73981,1,0,0:0:0:0:
448,192,74082,1,0,0:0:0:0:
320,192,74082,1,0,0:0:0:0:
320,192,74183,1,0,0:0:0:0:
448,192,74183,1,0,0:0:0:0:
320,192,74283,1,0,0:0:0:0:
448,192,74283,1,0,0:0:0:0:
448,192,74485,1,0,0:0:0:0:
320,192,74485,1,0,0:0:0:0:
320,192,74686,1,0,0:0:0:0:
448,192,74686,1,0,0:0:0:0:
320,192,74888,1,0,0:0:0:0:
448,192,74888,1,0,0:0:0:0:
448,192,74988,1,0,0:0:0:0:
320,192,74988,1,0,0:0:0:0:
320,192,75089,1,0,0:0:0:0:
448,192,75089,1,0,0:0:0:0:
448,192,75291,1,0,0:0:0:0:
320,192,75291,1,0,0:0:0:0:
320,192,75391,1,0,0:0:0:0:
448,192,75391,1,0,0:0:0:0:
320,192,75492,1,0,0:0:0:0:
448,192,75492,1,0,0:0:0:0:
448,192,75593,1,0,0:0:0:0:
320,192,75593,1,0,0:0:0:0:
448,192,75694,1,0,0:0:0:0:
320,192,75694,1,0,0:0:0:0:
320,192,75794,1,0,0:0:0:0:
448,192,75794,1,0,0:0:0:0:
320,192,75895,1,0,0:0:0:0:
448,192,75895,1,0,0:0:0:0:
320,192,75996,1,0,0:0:0:0:
448,192,75996,1,0,0:0:0:0:
320,192,76097,1,0,0:0:0:0:
448,192,76097,1,0,0:0:0:0:
320,192,76197,1,0,0:0:0:0:
448,192,76197,1,0,0:0:0:0:
448,192,76298,1,0,0:0:0:0:
320,192,76298,1,0,0:0:0:0:
448,192,76500,1,0,0:0:0:0:
320,192,76500,1,0,0:0:0:0:
320,192,76700,1,0,0:0:0:0:
448,192,76700,1,0,0:0:0:0:
448,192,76801,1,0,0:0:0:0:
320,192,76801,1,0,0:0:0:0:
320,192,76902,1,0,0:0:0:0:
448,192,76902,1,0,0:0:0:0:
320,192,77002,1,0,0:0:0:0:
448,192,77002,1,0,0:0:0:0:
448,192,77103,1,0,0:0:0:0:
320,192,77103,1,0,0:0:0:0:
320,192,77204,1,0,0:0:0:0:
448,192,77204,1,0,0:0:0:0:
448,192,77304,1,0,0:0:0:0:
320,192,77304,1,0,0:0:0:0:
448,192,77405,1,0,0:0:0:0:
320,192,77405,1,0,0:0:0:0:
448,192,77506,1,0,0:0:0:0:
320,192,77506,1,0,0:0:0:0:
320,192,77607,1,0,0:0:0:0:
448,192,77607,1,0,0:0:0:0:
320,192,77707,1,0,0:0:0:0:
448,192,77707,1,0,0:0:0:0:
320,192,77808,1,0,0:0:0:0:
448,192,77808,1,0,0:0:0:0:
448,192,77909,1,0,0:0:0:0:
320,192,77909,1,0,0:0:0:0:
448,192,78110,1,0,0:0:0:0:
320,192,78110,1,0,0:0:0:0:
320,192,78211,1,0,0:0:0:0:
448,192,78211,1,0,0:0:0:0:
320,192,78312,1,0,0:0:0:0:
448,192,78312,1,0,0:0:0:0:
448,192,78513,1,0,0:0:0:0:
320,192,78513,1,0,0:0:0:0:
320,192,78614,1,0,0:0:0:0:
448,192,78614,1,0,0:0:0:0:
320,192,78715,1,0,0:0:0:0:
448,192,78715,1,0,0:0:0:0:
448,192,78816,1,0,0:0:0:0:
320,192,78816,1,0,0:0:0:0:
448,192,78916,1,0,0:0:0:0:
320,192,78916,1,0,0:0:0:0:
320,192,79017,1,0,0:0:0:0:
448,192,79017,1,0,0:0:0:0:
320,192,79118,1,0,0:0:0:0:
448,192,79118,1,0,0:0:0:0:
448,192,79219,1,0,0:0:0:0:
320,192,79219,1,0,0:0:0:0:
448,192,79319,1,0,0:0:0:0:
320,192,79319,1,0,0:0:0:0:
320,192,79420,1,0,0:0:0:0:
448,192,79420,1,0,0:0:0:0:
448,192,79520,1,0,0:0:0:0:
320,192,79520,1,0,0:0:0:0:
320,192,79721,1,0,0:0:0:0:
448,192,79721,1,0,0:0:0:0:
448,192,79822,1,0,0:0:0:0:
320,192,79822,1,0,0:0:0:0:
448,192,79923,1,0,0:0:0:0:
320,192,79923,1,0,0:0:0:0:
320,192,80023,1,0,0:0:0:0:
448,192,80023,1,0,0:0:0:0:
320,192,80124,1,0,0:0:0:0:
448,192,80124,1,0,0:0:0:0:
320,192,80225,1,0,0:0:0:0:
448,192,80225,1,0,0:0:0:0:
320,192,80326,1,0,0:0:0:0:
448,192,80326,1,0,0:0:0:0:
320,192,80426,1,0,0:0:0:0:
448,192,80426,1,0,0:0:0:0:
448,192,80527,1,0,0:0:0:0:
320,192,80527,1,0,0:0:0:0:
320,192,80628,1,0,0:0:0:0:
448,192,80628,1,0,0:0:0:0:
320,192,80729,1,0,0:0:0:0:
448,192,80729,1,0,0:0:0:0:
448,192,80930,1,0,0:0:0:0:
320,192,80930,1,0,0:0:0:0:
320,192,81132,1,0,0:0:0:0:
448,192,81132,1,0,0:0:0:0:
448,192,81333,1,0,0:0:0:0:
320,192,81333,1,0,0:0:0:0:
320,192,81534,1,0,0:0:0:0:
448,192,81534,1,0,0:0:0:0:
448,192,81635,1,0,0:0:0:0:
320,192,81635,1,0,0:0:0:0:
320,192,81837,1,0,0:0:0:0:
448,192,81837,1,0,0:0:0:0:
320,192,81937,1,0,0:0:0:0:
448,192,81937,1,0,0:0:0:0:
448,192,82038,1,0,0:0:0:0:
320,192,82038,1,0,0:0:0:0:
320,192,82139,1,0,0:0:0:0:
448,192,82139,1,0,0:0:0:0:
320,192,82340,1,0,0:0:0:0:
448,192,82340,1,0,0:0:0:0:
448,192,82541,1,0,0:0:0:0:
320,192,82541,1,0,0:0:0:0:
448,192,82742,1,0,0:0:0:0:
320,192,82742,1,0,0:0:0:0:
320,192,82944,1,0,0:0:0:0:
448,192,82944,1,0,0:0:0:0:
448,192,83045,1,0,0:0:0:0:
320,192,83045,1,0,0:0:0:0:
320,192,83145,1,0,0:0:0:0:
448,192,83145,1,0,0:0:0:0:
320,192,83246,1,0,0:0:0:0:
448,192,83246,1,0,0:0:0:0:
320,192,83347,1,0,0:0:0:0:
448,192,83347,1,0,0:0:0:0:
448,192,83448,1,0,0:0:0:0:
320,192,83448,1,0,0:0:0:0:
448,192,83548,1,0,0:0:0:0:
320,192,83548,1,0,0:0:0:0:
448,192,83649,1,0,0:0:0:0:
320,192,83649,1,0,0:0:0:0:
320,192,83750,1,0,0:0:0:0:
448,192,83750,1,0,0:0:0:0:
320,192,83850,1,0,0:0:0:0:
448,192,83850,1,0,0:0:0:0:
320,192,83951,1,0,0:0:0:0:
448,192,83951,1,0,0:0:0:0:
448,192,84052,1,0,0:0:0:0:
320,192,84052,1,0,0:0:0:0:
448,192,84153,1,0,0:0:0:0:
320,192,84153,1,0,0:0:0:0:
320,192,84253,1,0,0:0:0:0:
448,192,84253,1,0,0:0:0:0:
320,192,84354,1,0,0:0:0:0:
448,192,84354,1,0,0:0:0:0:
448,192,84556,1,0,0:0:0:0:
320,192,84556,1,0,0:0:0:0:
320,192,84757,1,0,0:0:0:0:
448,192,84757,1,0,0:0:0:0:
448,192,84858,1,0,0:0:0:0:
320,192,84858,1,0,0:0:0:0:
448,192,84959,1,0,0:0:0:0:
320,192,84959,1,0,0:0:0:0:
320,192,85059,1,0,0:0:0:0:
448,192,85059,1,0,0:0:0:0:
320,192,85160,1,0,0:0:0:0:
448,192,85160,1,0,0:0:0:0:
448,192,85260,1,0,0:0:0:0:
320,192,85260,1,0,0:0:0:0:
320,192,85361,1,0,0:0:0:0:
448,192,85361,1,0,0:0:0:0:
320,192,85461,1,0,0:0:0:0:
448,192,85461,1,0,0:0:0:0:
448,192,85562,1,0,0:0:0:0:
320,192,85562,1,0,0:0:0:0:
320,192,85663,1,0,0:0:0:0:
448,192,85663,1,0,0:0:0:0:
320,192,85764,1,0,0:0:0:0:
448,192,85764,1,0,0:0:0:0:
448,192,85864,1,0,0:0:0:0:
320,192,85864,1,0,0:0:0:0:
448,192,85965,1,0,0:0:0:0:
320,192,85965,1,0,0:0:0:0:
448,192,86166,1,0,0:0:0:0:
320,192,86166,1,0,0:0:0:0:
448,192,86267,1,0,0:0:0:0:
320,192,86267,1,0,0:0:0:0:
320,192,86368,1,0,0:0:0:0:
448,192,86368,1,0,0:0:0:0:
448,192,86469,1,0,0:0:0:0:
320,192,86469,1,0,0:0:0:0:
448,192,86569,1,0,0:0:0:0:
320,192,86569,1,0,0:0:0:0:
320,192,86670,1,0,0:0:0:0:
448,192,86670,1,0,0:0:0:0:
320,192,86771,1,0,0:0:0:0:
448,192,86771,1,0,0:0:0:0:
448,192,86872,1,0,0:0:0:0:
320,192,86872,1,0,0:0:0:0:
320,192,86972,1,0,0:0:0:0:
448,192,86972,1,0,0:0:0:0:
448,192,87174,1,0,0:0:0:0:
320,192,87174,1,0,0:0:0:0:
320,192,87375,1,0,0:0:0:0:
448,192,87375,1,0,0:0:0:0:
320,192,87577,1,0,0:0:0:0:
448,192,87577,1,0,0:0:0:0:
448,192,87778,1,0,0:0:0:0:
320,192,87778,1,0,0:0:0:0:
320,192,87980,1,0,0:0:0:0:
448,192,87980,1,0,0:0:0:0:
448,192,88080,1,0,0:0:0:0:
320,192,88080,1,0,0:0:0:0:
320,192,88281,1,0,0:0:0:0:
448,192,88281,1,0,0:0:0:0:
320,192,88382,1,0,0:0:0:0:
448,192,88382,1,0,0:0:0:0:
448,192,88482,1,0,0:0:0:0:
320,192,88482,1,0,0:0:0:0:
320,192,88583,1,0,0:0:0:0:
448,192,88583,1,0,0:0:0:0:
320,192,88785,1,0,0:0:0:0:
448,192,88785,1,0,0:0:0:0:
448,192,88986,1,0,0:0:0:0:
320,192,88986,1,0,0:0:0:0:
448,192,89188,1,0,0:0:0:0:
320,192,89188,1,0,0:0:0:0:
320,192,89389,1,0,0:0:0:0:
448,192,89389,1,0,0:0:0:0:
448,192,89490,1,0,0:0:0:0:
320,192,89490,1,0,0:0:0:0:
320,192,89591,1,0,0:0:0:0:
448,192,89591,1,0,0:0:0:0:
320,192,89691,1,0,0:0:0:0:
448,192,89691,1,0,0:0:0:0:
320,192,89792,1,0,0:0:0:0:
448,192,89792,1,0,0:0:0:0:
448,192,89893,1,0,0:0:0:0:
320,192,89893,1,0,0:0:0:0:
448,192,89994,1,0,0:0:0:0:
320,192,89994,1,0,0:0:0:0:
448,192,90094,1,0,0:0:0:0:
320,192,90094,1,0,0:0:0:0:
320,192,90195,1,0,0:0:0:0:
448,192,90195,1,0,0:0:0:0:
320,192,90296,1,0,0:0:0:0:
448,192,90296,1,0,0:0:0:0:
320,192,90397,1,0,0:0:0:0:
448,192,90397,1,0,0:0:0:0:
448,192,90497,1,0,0:0:0:0:
320,192,90497,1,0,0:0:0:0:
448,192,90598,1,0,0:0:0:0:
320,192,90598,1,0,0:0:0:0:
320,192,90699,1,0,0:0:0:0:
448,192,90699,1,0,0:0:0:0:
320,192,90799,1,0,0:0:0:0:
448,192,90799,1,0,0:0:0:0:
448,192,91000,1,0,0:0:0:0:
320,192,91000,1,0,0:0:0:0:
320,192,91201,1,0,0:0:0:0:
448,192,91201,1,0,0:0:0:0:
448,192,91302,1,0,0:0:0:0:
320,192,91302,1,0,0:0:0:0:
448,192,91403,1,0,0:0:0:0:
320,192,91403,1,0,0:0:0:0:
320,192,91504,1,0,0:0:0:0:
448,192,91504,1,0,0:0:0:0:
320,192,91604,1,0,0:0:0:0:
448,192,91604,1,0,0:0:0:0:
448,192,91705,1,0,0:0:0:0:
320,192,91705,1,0,0:0:0:0:
320,192,91806,1,0,0:0:0:0:
448,192,91806,1,0,0:0:0:0:
320,192,91907,1,0,0:0:0:0:
448,192,91907,1,0,0:0:0:0:
448,192,92007,1,0,0:0:0:0:
320,192,92007,1,0,0:0:0:0:
320,192,92108,1,0,0:0:0:0:
448,192,92108,1,0,0:0:0:0:
320,192,92209,1,0,0:0:0:0:
448,192,92209,1,0,0:0:0:0:
448,192,92310,1,0,0:0:0:0:
320,192,92310,1,0,0:0:0:0:
448,192,92410,1,0,0:0:0:0:
320,192,92410,1,0,0:0:0:0:
448,192,92612,1,0,0:0:0:0:
320,192,92612,1,0,0:0:0:0:
448,192,92713,1,0,0:0:0:0:
320,192,92713,1,0,0:0:0:0:
320,192,92813,1,0,0:0:0:0:
448,192,92813,1,0,0:0:0:0:
448,192,92914,1,0,0:0:0:0:
320,192,92914,1,0,0:0:0:0:
448,192,93015,1,0,0:0:0:0:
320,192,93015,1,0,0:0:0:0:
320,192,93115,1,0,0:0:0:0:
448,192,93115,1,0,0:0:0:0:
320,192,93216,1,0,0:0:0:0:
448,192,93216,1,0,0:0:0:0:
448,192,93317,1,0,0:0:0:0:
320,192,93317,1,0,0:0:0:0:
320,192,93418,1,0,0:0:0:0:
448,192,93418,1,0,0:0:0:0:
448,192,93619,1,0,0:0:0:0:
320,192,93619,1,0,0:0:0:0:
320,192,93820,1,0,0:0:0:0:
448,192,93820,1,0,0:0:0:0:
320,192,94021,1,0,0:0:0:0:
448,192,94021,1,0,0:0:0:0:
320,192,94223,1,0,0:0:0:0:
448,192,94223,1,0,0:0:0:0:
448,192,94323,1,0,0:0:0:0:
320,192,94323,1,0,0:0:0:0:
320,192,94424,1,0,0:0:0:0:
448,192,94424,1,0,0:0:0:0:
448,192,94626,1,0,0:0:0:0:
320,192,94626,1,0,0:0:0:0:
320,192,94726,1,0,0:0:0:0:
448,192,94726,1,0,0:0:0:0:
320,192,94827,1,0,0:0:0:0:
448,192,94827,1,0,0:0:0:0:
448,192,94928,1,0,0:0:0:0:
320,192,94928,1,0,0:0:0:0:
448,192,95028,1,0,0:0:0:0:
320,192,95028,1,0,0:0:0:0:
320,192,95129,1,0,0:0:0:0:
448,192,95129,1,0,0:0:0:0:
320,192,95230,1,0,0:0:0:0:
448,192,95230,1,0,0:0:0:0:
320,192,95331,1,0,0:0:0:0:
448,192,95331,1,0,0:0:0:0:
320,192,95431,1,0,0:0:0:0:
448,192,95431,1,0,0:0:0:0:
320,192,95532,1,0,0:0:0:0:
448,192,95532,1,0,0:0:0:0:
448,192,95633,1,0,0:0:0:0:
320,192,95633,1,0,0:0:0:0:
448,192,95834,1,0,0:0:0:0:
320,192,95834,1,0,0:0:0:0:
320,192,96036,1,0,0:0:0:0:
448,192,96036,1,0,0:0:0:0:
448,192,96137,1,0,0:0:0:0:
320,192,96137,1,0,0:0:0:0:
320,192,96237,1,0,0:0:0:0:
448,192,96237,1,0,0:0:0:0:
320,192,96338,1,0,0:0:0:0:
448,192,96338,1,0,0:0:0:0:
448,192,96439,1,0,0:0:0:0:
320,192,96439,1,0,0:0:0:0:
320,192,96540,1,0,0:0:0:0:
448,192,96540,1,0,0:0:0:0:
448,192,96640,1,0,0:0:0:0:
320,192,96640,1,0,0:0:0:0:
448,192,96740,1,0,0:0:0:0:
320,192,96740,1,0,0:0:0:0:
448,192,96841,1,0,0:0:0:0:
320,192,96841,1,0,0:0:0:0:
320,192,96942,1,0,0:0:0:0:
448,192,96942,1,0,0:0:0:0:
320,192,97042,1,0,0:0:0:0:
448,192,97042,1,0,0:0:0:0:
320,192,97143,1,0,0:0:0:0:
448,192,97143,1,0,0:0:0:0:
448,192,97244,1,0,0:0:0:0:
320,192,97244,1,0,0:0:0:0:
448,192,97445,1,0,0:0:0:0:
320,192,97445,1,0,0:0:0:0:
320,192,97546,1,0,0:0:0:0:
448,192,97546,1,0,0:0:0:0:
320,192,97647,1,0,0:0:0:0:
448,192,97647,1,0,0:0:0:0:
448,192,97848,1,0,0:0:0:0:
320,192,97848,1,0,0:0:0:0:
320,192,97949,1,0,0:0:0:0:
448,192,97949,1,0,0:0:0:0:
320,192,98050,1,0,0:0:0:0:
448,192,98050,1,0,0:0:0:0:
448,192,98150,1,0,0:0:0:0:
320,192,98150,1,0,0:0:0:0:
448,192,98251,1,0,0:0:0:0:
320,192,98251,1,0,0:0:0:0:
320,192,98352,1,0,0:0:0:0:
448,192,98352,1,0,0:0:0:0:
320,192,98453,1,0,0:0:0:0:
448,192,98453,1,0,0:0:0:0:
448,192,98553,1,0,0:0:0:0:
320,192,98553,1,0,0:0:0:0:
448,192,98654,1,0,0:0:0:0:
320,192,98654,1,0,0:0:0:0:
320,192,98755,1,0,0:0:0:0:
448,192,98755,1,0,0:0:0:0:
448,192,98856,1,0,0:0:0:0:
320,192,98856,1,0,0:0:0:0:
320,192,99057,1,0,0:0:0:0:
448,192,99057,1,0,0:0:0:0:
448,192,99158,1,0,0:0:0:0:
320,192,99158,1,0,0:0:0:0:
448,192,99259,1,0,0:0:0:0:
320,192,99259,1,0,0:0:0:0:
320,192,99359,1,0,0:0:0:0:
448,192,99359,1,0,0:0:0:0:
320,192,99460,1,0,0:0:0:0:
448,192,99460,1,0,0:0:0:0:
320,192,99560,1,0,0:0:0:0:
448,192,99560,1,0,0:0:0:0:
320,192,99660,1,0,0:0:0:0:
448,192,99660,1,0,0:0:0:0:
320,192,99761,1,0,0:0:0:0:
448,192,99761,1,0,0:0:0:0:
448,192,99862,1,0,0:0:0:0:
320,192,99862,1,0,0:0:0:0:
320,192,99963,1,0,0:0:0:0:
448,192,99963,1,0,0:0:0:0:
320,192,100063,1,0,0:0:0:0:
448,192,100063,1,0,0:0:0:0:
448,192,100265,1,0,0:0:0:0:
320,192,100265,1,0,0:0:0:0:
320,192,100466,1,0,0:0:0:0:
448,192,100466,1,0,0:0:0:0:
320,192,100668,1,0,0:0:0:0:
448,192,100668,1,0,0:0:0:0:
448,192,100769,1,0,0:0:0:0:
320,192,100769,1,0,0:0:0:0:
320,192,100869,1,0,0:0:0:0:
448,192,100869,1,0,0:0:0:0:
448,192,101071,1,0,0:0:0:0:
320,192,101071,1,0,0:0:0:0:
320,192,101172,1,0,0:0:0:0:
448,192,101172,1,0,0:0:0:0:
320,192,101272,1,0,0:0:0:0:
448,192,101272,1,0,0:0:0:0:
448,192,101373,1,0,0:0:0:0:
320,192,101373,1,0,0:0:0:0:
448,192,101474,1,0,0:0:0:0:
320,192,101474,1,0,0:0:0:0:
320,192,101575,1,0,0:0:0:0:
448,192,101575,1,0,0:0:0:0:
320,192,101675,1,0,0:0:0:0:
448,192,101675,1,0,0:0:0:0:
320,192,101776,1,0,0:0:0:0:
448,192,101776,1,0,0:0:0:0:
320,192,101877,1,0,0:0:0:0:
448,192,101877,1,0,0:0:0:0:
320,192,101977,1,0,0:0:0:0:
448,192,101977,1,0,0:0:0:0:
448,192,102078,1,0,0:0:0:0:
320,192,102078,1,0,0:0:0:0:
448,192,102280,1,0,0:0:0:0:
320,192,102280,1,0,0:0:0:0:
320,192,102480,1,0,0:0:0:0:
448,192,102480,1,0,0:0:0:0:
448,192,102581,1,0,0:0:0:0:
320,192,102581,1,0,0:0:0:0:
320,192,102682,1,0,0:0:0:0:
448,192,102682,1,0,0:0:0:0:
320,192,102782,1,0,0:0:0:0:
448,192,102782,1,0,0:0:0:0:
448,192,102883,1,0,0:0:0:0:
320,192,102883,1,0,0:0:0:0:
320,192,102984,1,0,0:0:0:0:
448,192,102984,1,0,0:0:0:0:
448,192,103085,1,0,0:0:0:0:
320,192,103085,1,0,0:0:0:0:
448,192,103185,1,0,0:0:0:0:
320,192,103185,1,0,0:0:0:0:
448,192,103286,1,0,0:0:0:0:
320,192,103286,1,0,0:0:0:0:
320,192,103387,1,0,0:0:0:0:
448,192,103387,1,0,0:0:0:0:
320,192,103488,1,0,0:0:0:0:
448,192,103488,1,0,0:0:0:0:
320,192,103588,1,0,0:0:0:0:
448,192,103588,1,0,0:0:0:0:
448,192,103689,1,0,0:0:0:0:
320,192,103689,1,0,0:0:0:0:
448,192,103891,1,0,0:0:0:0:
320,192,103891,1,0,0:0:0:0:
320,192,103991,1,0,0:0:0:0:
448,192,103991,1,0,0:0:0:0:
320,192,104092,1,0,0:0:0:0:
448,192,104092,1,0,0:0:0:0:
448,192,104293,1,0,0:0:0:0:
320,192,104293,1,0,0:0:0:0:
320,192,104394,1,0,0:0:0:0:
448,192,104394,1,0,0:0:0:0:
320,192,104495,1,0,0:0:0:0:
448,192,104495,1,0,0:0:0:0:
448,192,104596,1,0,0:0:0:0:
320,192,104596,1,0,0:0:0:0:
448,192,104696,1,0,0:0:0:0:
320,192,104696,1,0,0:0:0:0:
320,192,104797,1,0,0:0:0:0:
448,192,104797,1,0,0:0:0:0:
320,192,104898,1,0,0:0:0:0:
448,192,104898,1,0,0:0:0:0:
448,192,104999,1,0,0:0:0:0:
320,192,104999,1,0,0:0:0:0:
448,192,105099,1,0,0:0:0:0:
320,192,105099,1,0,0:0:0:0:
320,192,105200,1,0,0:0:0:0:
448,192,105200,1,0,0:0:0:0:
448,192,105300,1,0,0:0:0:0:
320,192,105300,1,0,0:0:0:0:
320,192,105501,1,0,0:0:0:0:
448,192,105501,1,0,0:0:0:0:
448,192,105602,1,0,0:0:0:0:
320,192,105602,1,0,0:0:0:0:
448,192,105703,1,0,0:0:0:0:
320,192,105703,1,0,0:0:0:0:
320,192,105804,1,0,0:0:0:0:
448,192,105804,1,0,0:0:0:0:
320,192,105904,1,0,0:0:0:0:
448,192,105904,1,0,0:0:0:0:
320,192,106005,1,0,0:0:0:0:
448,192,106005,1,0,0:0:0:0:
320,192,106106,1,0,0:0:0:0:
448,192,106106,1,0,0:0:0:0:
320,192,106207,1,0,0:0:0:0:
448,192,106207,1,0,0:0:0:0:
448,192,106307,1,0,0:0:0:0:
320,192,106307,1,0,0:0:0:0:
320,192,106408,1,0,0:0:0:0:
448,192,106408,1,0,0:0:0:0:
320,192,106509,1,0,0:0:0:0:
448,192,106509,1,0,0:0:0:0:
448,192,106710,1,0,0:0:0:0:
320,192,106710,1,0,0:0:0:0:
320,192,106912,1,0,0:0:0:0:
448,192,106912,1,0,0:0:0:0:
