osu file format v14

[General]
AudioFilename: audio_0.95.mp3
AudioLeadIn: 0
PreviewTime: -1
Countdown: 1
SampleSet: None
StackLeniency: 0.7
Mode: 3
LetterboxInBreaks: 0
SpecialStyle: 0
WidescreenStoryboard: 0

[Editor]
DistanceSpacing: 1
BeatDivisor: 4
GridSize: 4
TimelineZoom: 1

[Metadata]
Title:NYAN CAT
TitleUnicode:NYAN CAT
Artist:NYAN CAT
ArtistUnicode:NYAN CAT
Creator:8230
Version:x0.95
Source:
Tags:
BeatmapID:3572031
BeatmapSetID:986700

[Difficulty]
HPDrainRate:8
CircleSize:4
OverallDifficulty:8
ApproachRate:5
SliderMultiplier:1.4
SliderTickRate:1

[Events]
//Background and Video events
0,0,"1.jpg",0,0
//Break Periods
//Storyboard Layer 0 (Background)
//Storyboard Layer 1 (Fail)
//Storyboard Layer 2 (Pass)
//Storyboard Layer 3 (Foreground)
//Storyboard Layer 4 (Overlay)
//Storyboard Sound Samples

[TimingPoints]
629,445.216011860637,4,1,0,20,1,0

[HitObjects]
448,192,629,5,0,0:0:0:0:
64,192,629,1,0,0:0:0:0:
192,192,740,1,0,0:0:0:0:
320,192,851,1,0,0:0:0:0:
448,192,1073,1,0,0:0:0:0:
64,192,1296,1,0,0:0:0:0:
192,192,1408,1,0,0:0:0:0:
320,192,1518,1,0,0:0:0:0:
448,192,1630,1,0,0:0:0:0:
320,192,1742,1,0,0:0:0:0:
192,192,1853,1,0,0:0:0:0:
64,192,1964,1,0,0:0:0:0:
192,192,2075,1,0,0:0:0:0:
320,192,2187,1,0,0:0:0:0:
192,192,2409,1,0,0:0:0:0:
64,192,2632,1,0,0:0:0:0:
192,192,2744,1,0,0:0:0:0:
320,192,2854,1,0,0:0:0:0:
192,192,3077,1,0,0:0:0:0:
192,192,3300,1,0,0:0:0:0:
320,192,3411,1,0,0:0:0:0:
448,192,3523,1,0,0:0:0:0:
320,192,3633,1,0,0:0:0:0:
192,192,3745,1,0,0:0:0:0:
64,192,3856,1,0,0:0:0:0:
192,192,3968,1,0,0:0:0:0:
64,192,4078,1,0,0:0:0:0:
320,192,4190,1,0,0:0:0:0:
448,192,4190,1,0,0:0:0:0:
448,192,4413,1,0,0:0:0:0:
320,192,4413,1,0,0:0:0:0:
320,192,4635,1,0,0:0:0:0:
448,192,4635,1,0,0:0:0:0:
448,192,4747,1,0,0:0:0:0:
320,192,4747,1,0,0:0:0:0:
320,192,4969,1,0,0:0:0:0:
448,192,4969,1,0,0:0:0:0:
320,192,5081,1,0,0:0:0:0:
448,192,5081,1,0,0:0:0:0:
448,192,5192,1,0,0:0:0:0:
320,192,5192,1,0,0:0:0:0:
320,192,5304,1,0,0:0:0:0:
448,192,5304,1,0,0:0:0:0:
320,192,5526,1,0,0:0:0:0:
448,192,5526,1,0,0:0:0:0:
448,192,5748,1,0,0:0:0:0:
320,192,5748,1,0,0:0:0:0:
448,192,5971,1,0,0:0:0:0:
320,192,5971,1,0,0:0:0:0:
320,192,6193,1,0,0:0:0:0:
448,192,6193,1,0,0:0:0:0:
448,192,6305,1,0,0:0:0:0:
320,192,6305,1,0,0:0:0:0:
320,192,6416,1,0,0:0:0:0:
448,192,6416,1,0,0:0:0:0:
320,192,6528,1,0,0:0:0:0:
448,192,6528,1,0,0:0:0:0:
320,192,6638,1,0,0:0:0:0:
448,192,6638,1,0,0:0:0:0:
448,192,6750,1,0,0:0:0:0:
320,192,6750,1,0,0:0:0:0:
448,192,6862,1,0,0:0:0:0:
320,192,6862,1,0,0:0:0:0:
448,192,6973,1,0,0:0:0:0:
320,192,6973,1,0,0:0:0:0:
320,192,7084,1,0,0:0:0:0:
448,192,7084,1,0,0:0:0:0:
320,192,7195,1,0,0:0:0:0:
448,192,7195,1,0,0:0:0:0:
320,192,7307,1,0,0:0:0:0:
448,192,7307,1,0,0:0:0:0:
448,192,7418,1,0,0:0:0:0:
320,192,7418,1,0,0:0:0:0:
448,192,7529,1,0,0:0:0:0:
320,192,7529,1,0,0:0:0:0:
320,192,7641,1,0,0:0:0:0:
448,192,7641,1,0,0:0:0:0:
320,192,7752,1,0,0:0:0:0:
448,192,7752,1,0,0:0:0:0:
448,192,7974,1,0,0:0:0:0:
320,192,7974,1,0,0:0:0:0:
320,192,8197,1,0,0:0:0:0:
448,192,8197,1,0,0:0:0:0:
448,192,8308,1,0,0:0:0:0:
320,192,8308,1,0,0:0:0:0:
448,192,8420,1,0,0:0:0:0:
320,192,8420,1,0,0:0:0:0:
320,192,8531,1,0,0:0:0:0:
448,192,8531,1,0,0:0:0:0:
320,192,8643,1,0,0:0:0:0:
448,192,8643,1,0,0:0:0:0:
448,192,8753,1,0,0:0:0:0:
320,192,8753,1,0,0:0:0:0:
320,192,8865,1,0,0:0:0:0:
448,192,8865,1,0,0:0:0:0:
320,192,8976,1,0,0:0:0:0:
448,192,8976,1,0,0:0:0:0:
448,192,9088,1,0,0:0:0:0:
320,192,9088,1,0,0:0:0:0:
320,192,9198,1,0,0:0:0:0:
448,192,9198,1,0,0:0:0:0:
320,192,9310,1,0,0:0:0:0:
448,192,9310,1,0,0:0:0:0:
448,192,9422,1,0,0:0:0:0:
320,192,9422,1,0,0:0:0:0:
448,192,9533,1,0,0:0:0:0:
320,192,9533,1,0,0:0:0:0:
448,192,9755,1,0,0:0:0:0:
320,192,9755,1,0,0:0:0:0:
448,192,9867,1,0,0:0:0:0:
320,192,9867,1,0,0:0:0:0:
320,192,9978,1,0,0:0:0:0:
448,192,9978,1,0,0:0:0:0:
448,192,10089,1,0,0:0:0:0:
320,192,10089,1,0,0:0:0:0:
448,192,10201,1,0,0:0:0:0:
320,192,10201,1,0,0:0:0:0:
320,192,10312,1,0,0:0:0:0:
448,192,10312,1,0,0:0:0:0:
320,192,10424,1,0,0:0:0:0:
448,192,10424,1,0,0:0:0:0:
448,192,10534,1,0,0:0:0:0:
320,192,10534,1,0,0:0:0:0:
320,192,10646,1,0,0:0:0:0:
448,192,10646,1,0,0:0:0:0:
448,192,10868,1,0,0:0:0:0:
320,192,10868,1,0,0:0:0:0:
320,192,11091,1,0,0:0:0:0:
448,192,11091,1,0,0:0:0:0:
320,192,11313,1,0,0:0:0:0:
448,192,11313,1,0,0:0:0:0:
448,192,11536,1,0,0:0:0:0:
320,192,11536,1,0,0:0:0:0:
320,192,11758,1,0,0:0:0:0:
448,192,11758,1,0,0:0:0:0:
448,192,11870,1,0,0:0:0:0:
320,192,11870,1,0,0:0:0:0:
320,192,12093,1,0,0:0:0:0:
448,192,12093,1,0,0:0:0:0:
320,192,12204,1,0,0:0:0:0:
448,192,12204,1,0,0:0:0:0:
448,192,12315,1,0,0:0:0:0:
320,192,12315,1,0,0:0:0:0:
320,192,12427,1,0,0:0:0:0:
448,192,12427,1,0,0:0:0:0:
320,192,12649,1,0,0:0:0:0:
448,192,12649,1,0,0:0:0:0:
448,192,12872,1,0,0:0:0:0:
320,192,12872,1,0,0:0:0:0:
448,192,13094,1,0,0:0:0:0:
320,192,13094,1,0,0:0:0:0:
320,192,13317,1,0,0:0:0:0:
448,192,13317,1,0,0:0:0:0:
448,192,13428,1,0,0:0:0:0:
320,192,13428,1,0,0:0:0:0:
320,192,13540,1,0,0:0:0:0:
448,192,13540,1,0,0:0:0:0:
320,192,13651,1,0,0:0:0:0:
448,192,13651,1,0,0:0:0:0:
320,192,13763,1,0,0:0:0:0:
448,192,13763,1,0,0:0:0:0:
448,192,13873,1,0,0:0:0:0:
320,192,13873,1,0,0:0:0:0:
448,192,13985,1,0,0:0:0:0:
320,192,13985,1,0,0:0:0:0:
448,192,14096,1,0,0:0:0:0:
320,192,14096,1,0,0:0:0:0:
320,192,14208,1,0,0:0:0:0:
448,192,14208,1,0,0:0:0:0:
320,192,14318,1,0,0:0:0:0:
448,192,14318,1,0,0:0:0:0:
320,192,14430,1,0,0:0:0:0:
448,192,14430,1,0,0:0:0:0:
448,192,14542,1,0,0:0:0:0:
320,192,14542,1,0,0:0:0:0:
448,192,14653,1,0,0:0:0:0:
320,192,14653,1,0,0:0:0:0:
320,192,14764,1,0,0:0:0:0:
448,192,14764,1,0,0:0:0:0:
320,192,14875,1,0,0:0:0:0:
448,192,14875,1,0,0:0:0:0:
448,192,15098,1,0,0:0:0:0:
320,192,15098,1,0,0:0:0:0:
320,192,15321,1,0,0:0:0:0:
448,192,15321,1,0,0:0:0:0:
448,192,15432,1,0,0:0:0:0:
320,192,15432,1,0,0:0:0:0:
448,192,15543,1,0,0:0:0:0:
320,192,15543,1,0,0:0:0:0:
320,192,15654,1,0,0:0:0:0:
448,192,15654,1,0,0:0:0:0:
320,192,15766,1,0,0:0:0:0:
448,192,15766,1,0,0:0:0:0:
448,192,15877,1,0,0:0:0:0:
320,192,15877,1,0,0:0:0:0:
320,192,15988,1,0,0:0:0:0:
448,192,15988,1,0,0:0:0:0:
320,192,16100,1,0,0:0:0:0:
448,192,16100,1,0,0:0:0:0:
448,192,16211,1,0,0:0:0:0:
320,192,16211,1,0,0:0:0:0:
320,192,16323,1,0,0:0:0:0:
448,192,16323,1,0,0:0:0:0:
320,192,16433,1,0,0:0:0:0:
448,192,16433,1,0,0:0:0:0:
448,192,16545,1,0,0:0:0:0:
320,192,16545,1,0,0:0:0:0:
448,192,16656,1,0,0:0:0:0:
320,192,16656,1,0,0:0:0:0:
448,192,16878,1,0,0:0:0:0:
320,192,16878,1,0,0:0:0:0:
448,192,16990,1,0,0:0:0:0:
320,192,16990,1,0,0:0:0:0:
320,192,17102,1,0,0:0:0:0:
448,192,17102,1,0,0:0:0:0:
448,192,17213,1,0,0:0:0:0:
320,192,17213,1,0,0:0:0:0:
448,192,17324,1,0,0:0:0:0:
320,192,17324,1,0,0:0:0:0:
320,192,17435,1,0,0:0:0:0:
448,192,17435,1,0,0:0:0:0:
320,192,17547,1,0,0:0:0:0:
448,192,17547,1,0,0:0:0:0:
448,192,17658,1,0,0:0:0:0:
320,192,17658,1,0,0:0:0:0:
320,192,17769,1,0,0:0:0:0:
448,192,17769,1,0,0:0:0:0:
448,192,17992,1,0,0:0:0:0:
320,192,17992,1,0,0:0:0:0:
320,192,18214,1,0,0:0:0:0:
448,192,18214,1,0,0:0:0:0:
320,192,18437,1,0,0:0:0:0:
448,192,18437,1,0,0:0:0:0:
320,192,18660,1,0,0:0:0:0:
448,192,18660,1,0,0:0:0:0:
448,192,18771,1,0,0:0:0:0:
320,192,18771,1,0,0:0:0:0:
320,192,18883,1,0,0:0:0:0:
448,192,18883,1,0,0:0:0:0:
448,192,19105,1,0,0:0:0:0:
320,192,19105,1,0,0:0:0:0:
320,192,19216,1,0,0:0:0:0:
448,192,19216,1,0,0:0:0:0:
320,192,19328,1,0,0:0:0:0:
448,192,19328,1,0,0:0:0:0:
448,192,19438,1,0,0:0:0:0:
320,192,19438,1,0,0:0:0:0:
448,192,19550,1,0,0:0:0:0:
320,192,19550,1,0,0:0:0:0:
320,192,19662,1,0,0:0:0:0:
448,192,19662,1,0,0:0:0:0:
320,192,19773,1,0,0:0:0:0:
448,192,19773,1,0,0:0:0:0:
320,192,19884,1,0,0:0:0:0:
448,192,19884,1,0,0:0:0:0:
320,192,19995,1,0,0:0:0:0:
448,192,19995,1,0,0:0:0:0:
320,192,20107,1,0,0:0:0:0:
448,192,20107,1,0,0:0:0:0:
448,192,20218,1,0,0:0:0:0:
320,192,20218,1,0,0:0:0:0:
448,192,20441,1,0,0:0:0:0:
320,192,20441,1,0,0:0:0:0:
320,192,20663,1,0,0:0:0:0:
448,192,20663,1,0,0:0:0:0:
448,192,20774,1,0,0:0:0:0:
320,192,20774,1,0,0:0:0:0:
320,192,20886,1,0,0:0:0:0:
448,192,20886,1,0,0:0:0:0:
320,192,20997,1,0,0:0:0:0:
448,192,20997,1,0,0:0:0:0:
448,192,21108,1,0,0:0:0:0:
320,192,21108,1,0,0:0:0:0:
320,192,21220,1,0,0:0:0:0:
448,192,21220,1,0,0:0:0:0:
448,192,21331,1,0,0:0:0:0:
320,192,21331,1,0,0:0:0:0:
448,192,21443,1,0,0:0:0:0:
320,192,21443,1,0,0:0:0:0:
448,192,21553,1,0,0:0:0:0:
320,192,21553,1,0,0:0:0:0:
320,192,21665,1,0,0:0:0:0:
448,192,21665,1,0,0:0:0:0:
320,192,21776,1,0,0:0:0:0:
448,192,21776,1,0,0:0:0:0:
320,192,21888,1,0,0:0:0:0:
448,192,21888,1,0,0:0:0:0:
448,192,21998,1,0,0:0:0:0:
320,192,21998,1,0,0:0:0:0:
448,192,22222,1,0,0:0:0:0:
320,192,22222,1,0,0:0:0:0:
320,192,22333,1,0,0:0:0:0:
448,192,22333,1,0,0:0:0:0:
320,192,22444,1,0,0:0:0:0:
448,192,22444,1,0,0:0:0:0:
448,192,22667,1,0,0:0:0:0:
320,192,22667,1,0,0:0:0:0:
320,192,22778,1,0,0:0:0:0:
448,192,22778,1,0,0:0:0:0:
320,192,22889,1,0,0:0:0:0:
448,192,22889,1,0,0:0:0:0:
448,192,23001,1,0,0:0:0:0:
320,192,23001,1,0,0:0:0:0:
448,192,23112,1,0,0:0:0:0:
320,192,23112,1,0,0:0:0:0:
320,192,23223,1,0,0:0:0:0:
448,192,23223,1,0,0:0:0:0:
320,192,23334,1,0,0:0:0:0:
448,192,23334,1,0,0:0:0:0:
448,192,23446,1,0,0:0:0:0:
320,192,23446,1,0,0:0:0:0:
448,192,23557,1,0,0:0:0:0:
320,192,23557,1,0,0:0:0:0:
320,192,23668,1,0,0:0:0:0:
448,192,23668,1,0,0:0:0:0:
448,192,23780,1,0,0:0:0:0:
320,192,23780,1,0,0:0:0:0:
320,192,24003,1,0,0:0:0:0:
448,192,24003,1,0,0:0:0:0:
448,192,24113,1,0,0:0:0:0:
320,192,24113,1,0,0:0:0:0:
448,192,24225,1,0,0:0:0:0:
320,192,24225,1,0,0:0:0:0:
320,192,24336,1,0,0:0:0:0:
448,192,24336,1,0,0:0:0:0:
320,192,24448,1,0,0:0:0:0:
448,192,24448,1,0,0:0:0:0:
320,192,24558,1,0,0:0:0:0:
448,192,24558,1,0,0:0:0:0:
320,192,24670,1,0,0:0:0:0:
448,192,24670,1,0,0:0:0:0:
320,192,24782,1,0,0:0:0:0:
448,192,24782,1,0,0:0:0:0:
448,192,24893,1,0,0:0:0:0:
320,192,24893,1,0,0:0:0:0:
320,192,25004,1,0,0:0:0:0:
448,192,25004,1,0,0:0:0:0:
320,192,25115,1,0,0:0:0:0:
448,192,25115,1,0,0:0:0:0:
448,192,25338,1,0,0:0:0:0:
320,192,25338,1,0,0:0:0:0:
320,192,25561,1,0,0:0:0:0:
448,192,25561,1,0,0:0:0:0:
320,192,25783,1,0,0:0:0:0:
448,192,25783,1,0,0:0:0:0:
448,192,25894,1,0,0:0:0:0:
320,192,25894,1,0,0:0:0:0:
320,192,26006,1,0,0:0:0:0:
448,192,26006,1,0,0:0:0:0:
448,192,26228,1,0,0:0:0:0:
320,192,26228,1,0,0:0:0:0:
320,192,26340,1,0,0:0:0:0:
448,192,26340,1,0,0:0:0:0:
320,192,26451,1,0,0:0:0:0:
448,192,26451,1,0,0:0:0:0:
448,192,26563,1,0,0:0:0:0:
320,192,26563,1,0,0:0:0:0:
448,192,26673,1,0,0:0:0:0:
320,192,26673,1,0,0:0:0:0:
320,192,26785,1,0,0:0:0:0:
448,192,26785,1,0,0:0:0:0:
320,192,26896,1,0,0:0:0:0:
448,192,26896,1,0,0:0:0:0:
320,192,27008,1,0,0:0:0:0:
448,192,27008,1,0,0:0:0:0:
320,192,27118,1,0,0:0:0:0:
448,192,27118,1,0,0:0:0:0:
320,192,27230,1,0,0:0:0:0:
448,192,27230,1,0,0:0:0:0:
448,192,27342,1,0,0:0:0:0:
320,192,27342,1,0,0:0:0:0:
448,192,27564,1,0,0:0:0:0:
320,192,27564,1,0,0:0:0:0:
320,192,27787,1,0,0:0:0:0:
448,192,27787,1,0,0:0:0:0:
448,192,27898,1,0,0:0:0:0:
320,192,27898,1,0,0:0:0:0:
320,192,28009,1,0,0:0:0:0:
448,192,28009,1,0,0:0:0:0:
320,192,28121,1,0,0:0:0:0:
448,192,28121,1,0,0:0:0:0:
448,192,28232,1,0,0:0:0:0:
320,192,28232,1,0,0:0:0:0:
320,192,28343,1,0,0:0:0:0:
448,192,28343,1,0,0:0:0:0:
448,192,28454,1,0,0:0:0:0:
320,192,28454,1,0,0:0:0:0:
448,192,28566,1,0,0:0:0:0:
320,192,28566,1,0,0:0:0:0:
448,192,28677,1,0,0:0:0:0:
320,192,28677,1,0,0:0:0:0:
320,192,28788,1,0,0:0:0:0:
448,192,28788,1,0,0:0:0:0:
320,192,28900,1,0,0:0:0:0:
448,192,28900,1,0,0:0:0:0:
320,192,29011,1,0,0:0:0:0:
448,192,29011,1,0,0:0:0:0:
448,192,29123,1,0,0:0:0:0:
320,192,29123,1,0,0:0:0:0:
448,192,29345,1,0,0:0:0:0:
320,192,29345,1,0,0:0:0:0:
320,192,29456,1,0,0:0:0:0:
448,192,29456,1,0,0:0:0:0:
320,192,29568,1,0,0:0:0:0:
448,192,29568,1,0,0:0:0:0:
448,192,29790,1,0,0:0:0:0:
320,192,29790,1,0,0:0:0:0:
320,192,29902,1,0,0:0:0:0:
448,192,29902,1,0,0:0:0:0:
320,192,30013,1,0,0:0:0:0:
448,192,30013,1,0,0:0:0:0:
448,192,30124,1,0,0:0:0:0:
320,192,30124,1,0,0:0:0:0:
448,192,30235,1,0,0:0:0:0:
320,192,30235,1,0,0:0:0:0:
320,192,30347,1,0,0:0:0:0:
448,192,30347,1,0,0:0:0:0:
320,192,30457,1,0,0:0:0:0:
448,192,30457,1,0,0:0:0:0:
448,192,30569,1,0,0:0:0:0:
320,192,30569,1,0,0:0:0:0:
448,192,30681,1,0,0:0:0:0:
320,192,30681,1,0,0:0:0:0:
320,192,30792,1,0,0:0:0:0:
448,192,30792,1,0,0:0:0:0:
448,192,30903,1,0,0:0:0:0:
320,192,30903,1,0,0:0:0:0:
320,192,31126,1,0,0:0:0:0:
448,192,31126,1,0,0:0:0:0:
448,192,31237,1,0,0:0:0:0:
320,192,31237,1,0,0:0:0:0:
448,192,31348,1,0,0:0:0:0:
320,192,31348,1,0,0:0:0:0:
320,192,31460,1,0,0:0:0:0:
448,192,31460,1,0,0:0:0:0:
320,192,31571,1,0,0:0:0:0:
448,192,31571,1,0,0:0:0:0:
320,192,31683,1,0,0:0:0:0:
448,192,31683,1,0,0:0:0:0:
320,192,31793,1,0,0:0:0:0:
448,192,31793,1,0,0:0:0:0:
320,192,31905,1,0,0:0:0:0:
448,192,31905,1,0,0:0:0:0:
448,192,32016,1,0,0:0:0:0:
320,192,32016,1,0,0:0:0:0:
320,192,32128,1,0,0:0:0:0:
448,192,32128,1,0,0:0:0:0:
320,192,32238,1,0,0:0:0:0:
448,192,32238,1,0,0:0:0:0:
448,192,32462,1,0,0:0:0:0:
320,192,32462,1,0,0:0:0:0:
320,192,32684,1,0,0:0:0:0:
448,192,32684,1,0,0:0:0:0:
448,192,32907,1,0,0:0:0:0:
320,192,32907,1,0,0:0:0:0:
320,192,33129,1,0,0:0:0:0:
448,192,33129,1,0,0:0:0:0:
448,192,33241,1,0,0:0:0:0:
320,192,33241,1,0,0:0:0:0:
320,192,33463,1,0,0:0:0:0:
448,192,33463,1,0,0:0:0:0:
320,192,33574,1,0,0:0:0:0:
448,192,33574,1,0,0:0:0:0:
448,192,33686,1,0,0:0:0:0:
320,192,33686,1,0,0:0:0:0:
320,192,33797,1,0,0:0:0:0:
448,192,33797,1,0,0:0:0:0:
320,192,34020,1,0,0:0:0:0:
448,192,34020,1,0,0:0:0:0:
448,192,34243,1,0,0:0:0:0:
320,192,34243,1,0,0:0:0:0:
448,192,34465,1,0,0:0:0:0:
320,192,34465,1,0,0:0:0:0:
320,192,34688,1,0,0:0:0:0:
448,192,34688,1,0,0:0:0:0:
448,192,34798,1,0,0:0:0:0:
320,192,34798,1,0,0:0:0:0:
320,192,34910,1,0,0:0:0:0:
448,192,34910,1,0,0:0:0:0:
320,192,35022,1,0,0:0:0:0:
448,192,35022,1,0,0:0:0:0:
320,192,35133,1,0,0:0:0:0:
448,192,35133,1,0,0:0:0:0:
448,192,35244,1,0,0:0:0:0:
320,192,35244,1,0,0:0:0:0:
448,192,35355,1,0,0:0:0:0:
320,192,35355,1,0,0:0:0:0:
448,192,35467,1,0,0:0:0:0:
320,192,35467,1,0,0:0:0:0:
320,192,35577,1,0,0:0:0:0:
448,192,35577,1,0,0:0:0:0:
320,192,35689,1,0,0:0:0:0:
448,192,35689,1,0,0:0:0:0:
320,192,35801,1,0,0:0:0:0:
448,192,35801,1,0,0:0:0:0:
448,192,35912,1,0,0:0:0:0:
320,192,35912,1,0,0:0:0:0:
448,192,36023,1,0,0:0:0:0:
320,192,36023,1,0,0:0:0:0:
320,192,36134,1,0,0:0:0:0:
448,192,36134,1,0,0:0:0:0:
320,192,36246,1,0,0:0:0:0:
448,192,36246,1,0,0:0:0:0:
448,192,36468,1,0,0:0:0:0:
320,192,36468,1,0,0:0:0:0:
320,192,36691,1,0,0:0:0:0:
448,192,36691,1,0,0:0:0:0:
448,192,36803,1,0,0:0:0:0:
320,192,36803,1,0,0:0:0:0:
448,192,36913,1,0,0:0:0:0:
320,192,36913,1,0,0:0:0:0:
320,192,37025,1,0,0:0:0:0:
448,192,37025,1,0,0:0:0:0:
320,192,37136,1,0,0:0:0:0:
448,192,37136,1,0,0:0:0:0:
448,192,37248,1,0,0:0:0:0:
320,192,37248,1,0,0:0:0:0:
320,192,37358,1,0,0:0:0:0:
448,192,37358,1,0,0:0:0:0:
320,192,37470,1,0,0:0:0:0:
448,192,37470,1,0,0:0:0:0:
448,192,37582,1,0,0:0:0:0:
320,192,37582,1,0,0:0:0:0:
320,192,37693,1,0,0:0:0:0:
448,192,37693,1,0,0:0:0:0:
320,192,37804,1,0,0:0:0:0:
448,192,37804,1,0,0:0:0:0:
448,192,37915,1,0,0:0:0:0:
320,192,37915,1,0,0:0:0:0:
448,192,38027,1,0,0:0:0:0:
320,192,38027,1,0,0:0:0:0:
448,192,38249,1,0,0:0:0:0:
320,192,38249,1,0,0:0:0:0:
448,192,38361,1,0,0:0:0:0:
320,192,38361,1,0,0:0:0:0:
320,192,38472,1,0,0:0:0:0:
448,192,38472,1,0,0:0:0:0:
448,192,38583,1,0,0:0:0:0:
320,192,38583,1,0,0:0:0:0:
448,192,38694,1,0,0:0:0:0:
320,192,38694,1,0,0:0:0:0:
320,192,38806,1,0,0:0:0:0:
448,192,38806,1,0,0:0:0:0:
320,192,38917,1,0,0:0:0:0:
448,192,38917,1,0,0:0:0:0:
448,192,39028,1,0,0:0:0:0:
320,192,39028,1,0,0:0:0:0:
320,192,39140,1,0,0:0:0:0:
448,192,39140,1,0,0:0:0:0:
448,192,39363,1,0,0:0:0:0:
320,192,39363,1,0,0:0:0:0:
320,192,39585,1,0,0:0:0:0:
448,192,39585,1,0,0:0:0:0:
320,192,39808,1,0,0:0:0:0:
448,192,39808,1,0,0:0:0:0:
448,192,40030,1,0,0:0:0:0:
320,192,40030,1,0,0:0:0:0:
320,192,40253,1,0,0:0:0:0:
448,192,40253,1,0,0:0:0:0:
448,192,40364,1,0,0:0:0:0:
320,192,40364,1,0,0:0:0:0:
320,192,40587,1,0,0:0:0:0:
448,192,40587,1,0,0:0:0:0:
320,192,40697,1,0,0:0:0:0:
448,192,40697,1,0,0:0:0:0:
448,192,40809,1,0,0:0:0:0:
320,192,40809,1,0,0:0:0:0:
320,192,40921,1,0,0:0:0:0:
448,192,40921,1,0,0:0:0:0:
320,192,41143,1,0,0:0:0:0:
448,192,41143,1,0,0:0:0:0:
448,192,41366,1,0,0:0:0:0:
320,192,41366,1,0,0:0:0:0:
448,192,41588,1,0,0:0:0:0:
320,192,41588,1,0,0:0:0:0:
320,192,41811,1,0,0:0:0:0:
448,192,41811,1,0,0:0:0:0:
448,192,41923,1,0,0:0:0:0:
320,192,41923,1,0,0:0:0:0:
320,192,42033,1,0,0:0:0:0:
448,192,42033,1,0,0:0:0:0:
320,192,42145,1,0,0:0:0:0:
448,192,42145,1,0,0:0:0:0:
320,192,42256,1,0,0:0:0:0:
448,192,42256,1,0,0:0:0:0:
448,192,42368,1,0,0:0:0:0:
320,192,42368,1,0,0:0:0:0:
448,192,42478,1,0,0:0:0:0:
320,192,42478,1,0,0:0:0:0:
448,192,42590,1,0,0:0:0:0:
320,192,42590,1,0,0:0:0:0:
320,192,42702,1,0,0:0:0:0:
448,192,42702,1,0,0:0:0:0:
320,192,42813,1,0,0:0:0:0:
448,192,42813,1,0,0:0:0:0:
320,192,42924,1,0,0:0:0:0:
448,192,42924,1,0,0:0:0:0:
448,192,43035,1,0,0:0:0:0:
320,192,43035,1,0,0:0:0:0:
448,192,43147,1,0,0:0:0:0:
320,192,43147,1,0,0:0:0:0:
320,192,43257,1,0,0:0:0:0:
448,192,43257,1,0,0:0:0:0:
320,192,43369,1,0,0:0:0:0:
448,192,43369,1,0,0:0:0:0:
448,192,43592,1,0,0:0:0:0:
320,192,43592,1,0,0:0:0:0:
320,192,43814,1,0,0:0:0:0:
448,192,43814,1,0,0:0:0:0:
448,192,43926,1,0,0:0:0:0:
320,192,43926,1,0,0:0:0:0:
448,192,44037,1,0,0:0:0:0:
320,192,44037,1,0,0:0:0:0:
320,192,44148,1,0,0:0:0:0:
448,192,44148,1,0,0:0:0:0:
320,192,44260,1,0,0:0:0:0:
448,192,44260,1,0,0:0:0:0:
448,192,44371,1,0,0:0:0:0:
320,192,44371,1,0,0:0:0:0:
320,192,44483,1,0,0:0:0:0:
448,192,44483,1,0,0:0:0:0:
320,192,44593,1,0,0:0:0:0:
448,192,44593,1,0,0:0:0:0:
448,192,44705,1,0,0:0:0:0:
320,192,44705,1,0,0:0:0:0:
320,192,44816,1,0,0:0:0:0:
448,192,44816,1,0,0:0:0:0:
320,192,44928,1,0,0:0:0:0:
448,192,44928,1,0,0:0:0:0:
448,192,45038,1,0,0:0:0:0:
320,192,45038,1,0,0:0:0:0:
448,192,45150,1,0,0:0:0:0:
320,192,45150,1,0,0:0:0:0:
448,192,45372,1,0,0:0:0:0:
320,192,45372,1,0,0:0:0:0:
448,192,45484,1,0,0:0:0:0:
320,192,45484,1,0,0:0:0:0:
320,192,45595,1,0,0:0:0:0:
448,192,45595,1,0,0:0:0:0:
448,192,45707,1,0,0:0:0:0:
320,192,45707,1,0,0:0:0:0:
448,192,45817,1,0,0:0:0:0:
320,192,45817,1,0,0:0:0:0:
320,192,45929,1,0,0:0:0:0:
448,192,45929,1,0,0:0:0:0:
320,192,46041,1,0,0:0:0:0:
448,192,46041,1,0,0:0:0:0:
448,192,46152,1,0,0:0:0:0:
320,192,46152,1,0,0:0:0:0:
320,192,46263,1,0,0:0:0:0:
448,192,46263,1,0,0:0:0:0:
448,192,46486,1,0,0:0:0:0:
320,192,46486,1,0,0:0:0:0:
320,192,46708,1,0,0:0:0:0:
448,192,46708,1,0,0:0:0:0:
320,192,46931,1,0,0:0:0:0:
448,192,46931,1,0,0:0:0:0:
320,192,47153,1,0,0:0:0:0:
448,192,47153,1,0,0:0:0:0:
448,192,47265,1,0,0:0:0:0:
320,192,47265,1,0,0:0:0:0:
320,192,47376,1,0,0:0:0:0:
448,192,47376,1,0,0:0:0:0:
448,192,47598,1,0,0:0:0:0:
320,192,47598,1,0,0:0:0:0:
320,192,47710,1,0,0:0:0:0:
448,192,47710,1,0,0:0:0:0:
320,192,47822,1,0,0:0:0:0:
448,192,47822,1,0,0:0:0:0:
448,192,47932,1,0,0:0:0:0:
320,192,47932,1,0,0:0:0:0:
448,192,48044,1,0,0:0:0:0:
320,192,48044,1,0,0:0:0:0:
320,192,48155,1,0,0:0:0:0:
448,192,48155,1,0,0:0:0:0:
320,192,48267,1,0,0:0:0:0:
448,192,48267,1,0,0:0:0:0:
320,192,48377,1,0,0:0:0:0:
448,192,48377,1,0,0:0:0:0:
320,192,48489,1,0,0:0:0:0:
448,192,48489,1,0,0:0:0:0:
320,192,48601,1,0,0:0:0:0:
448,192,48601,1,0,0:0:0:0:
448,192,48712,1,0,0:0:0:0:
320,192,48712,1,0,0:0:0:0:
448,192,48934,1,0,0:0:0:0:
320,192,48934,1,0,0:0:0:0:
320,192,49157,1,0,0:0:0:0:
448,192,49157,1,0,0:0:0:0:
448,192,49268,1,0,0:0:0:0:
320,192,49268,1,0,0:0:0:0:
320,192,49380,1,0,0:0:0:0:
448,192,49380,1,0,0:0:0:0:
320,192,49491,1,0,0:0:0:0:
448,192,49491,1,0,0:0:0:0:
448,192,49603,1,0,0:0:0:0:
320,192,49603,1,0,0:0:0:0:
320,192,49713,1,0,0:0:0:0:
448,192,49713,1,0,0:0:0:0:
448,192,49825,1,0,0:0:0:0:
320,192,49825,1,0,0:0:0:0:
448,192,49936,1,0,0:0:0:0:
320,192,49936,1,0,0:0:0:0:
448,192,50048,1,0,0:0:0:0:
320,192,50048,1,0,0:0:0:0:
320,192,50158,1,0,0:0:0:0:
448,192,50158,1,0,0:0:0:0:
320,192,50270,1,0,0:0:0:0:
448,192,50270,1,0,0:0:0:0:
320,192,50382,1,0,0:0:0:0:
448,192,50382,1,0,0:0:0:0:
448,192,50492,1,0,0:0:0:0:
320,192,50492,1,0,0:0:0:0:
448,192,50715,1,0,0:0:0:0:
320,192,50715,1,0,0:0:0:0:
320,192,50827,1,0,0:0:0:0:
448,192,50827,1,0,0:0:0:0:
320,192,50937,1,0,0:0:0:0:
448,192,50937,1,0,0:0:0:0:
448,192,51161,1,0,0:0:0:0:
320,192,51161,1,0,0:0:0:0:
320,192,51272,1,0,0:0:0:0:
448,192,51272,1,0,0:0:0:0:
320,192,51383,1,0,0:0:0:0:
448,192,51383,1,0,0:0:0:0:
448,192,51494,1,0,0:0:0:0:
320,192,51494,1,0,0:0:0:0:
448,192,51606,1,0,0:0:0:0:
320,192,51606,1,0,0:0:0:0:
320,192,51717,1,0,0:0:0:0:
448,192,51717,1,0,0:0:0:0:
320,192,51828,1,0,0:0:0:0:
448,192,51828,1,0,0:0:0:0:
448,192,51940,1,0,0:0:0:0:
320,192,51940,1,0,0:0:0:0:
448,192,52051,1,0,0:0:0:0:
320,192,52051,1,0,0:0:0:0:
320,192,52163,1,0,0:0:0:0:
448,192,52163,1,0,0:0:0:0:
448,192,52273,1,0,0:0:0:0:
320,192,52273,1,0,0:0:0:0:
320,192,52496,1,0,0:0:0:0:
448,192,52496,1,0,0:0:0:0:
448,192,52608,1,0,0:0:0:0:
320,192,52608,1,0,0:0:0:0:
448,192,52718,1,0,0:0:0:0:
320,192,52718,1,0,0:0:0:0:
320,192,52830,1,0,0:0:0:0:
448,192,52830,1,0,0:0:0:0:
320,192,52942,1,0,0:0:0:0:
448,192,52942,1,0,0:0:0:0:
320,192,53052,1,0,0:0:0:0:
448,192,53052,1,0,0:0:0:0:
320,192,53164,1,0,0:0:0:0:
448,192,53164,1,0,0:0:0:0:
320,192,53275,1,0,0:0:0:0:
448,192,53275,1,0,0:0:0:0:
448,192,53387,1,0,0:0:0:0:
320,192,53387,1,0,0:0:0:0:
320,192,53497,1,0,0:0:0:0:
448,192,53497,1,0,0:0:0:0:
320,192,53609,1,0,0:0:0:0:
448,192,53609,1,0,0:0:0:0:
448,192,53832,1,0,0:0:0:0:
320,192,53832,1,0,0:0:0:0:
320,192,54054,1,0,0:0:0:0:
448,192,54054,1,0,0:0:0:0:
320,192,54277,1,0,0:0:0:0:
448,192,54277,1,0,0:0:0:0:
448,192,54388,1,0,0:0:0:0:
320,192,54388,1,0,0:0:0:0:
320,192,54500,1,0,0:0:0:0:
448,192,54500,1,0,0:0:0:0:
448,192,54723,1,0,0:0:0:0:
320,192,54723,1,0,0:0:0:0:
320,192,54833,1,0,0:0:0:0:
448,192,54833,1,0,0:0:0:0:
320,192,54945,1,0,0:0:0:0:
448,192,54945,1,0,0:0:0:0:
448,192,55056,1,0,0:0:0:0:
320,192,55056,1,0,0:0:0:0:
448,192,55168,1,0,0:0:0:0:
320,192,55168,1,0,0:0:0:0:
320,192,55278,1,0,0:0:0:0:
448,192,55278,1,0,0:0:0:0:
320,192,55390,1,0,0:0:0:0:
448,192,55390,1,0,0:0:0:0:
320,192,55502,1,0,0:0:0:0:
448,192,55502,1,0,0:0:0:0:
320,192,55612,1,0,0:0:0:0:
448,192,55612,1,0,0:0:0:0:
320,192,55724,1,0,0:0:0:0:
448,192,55724,1,0,0:0:0:0:
448,192,55835,1,0,0:0:0:0:
320,192,55835,1,0,0:0:0:0:
448,192,56057,1,0,0:0:0:0:
320,192,56057,1,0,0:0:0:0:
320,192,56281,1,0,0:0:0:0:
448,192,56281,1,0,0:0:0:0:
448,192,56392,1,0,0:0:0:0:
320,192,56392,1,0,0:0:0:0:
320,192,56503,1,0,0:0:0:0:
448,192,56503,1,0,0:0:0:0:
320,192,56614,1,0,0:0:0:0:
448,192,56614,1,0,0:0:0:0:
448,192,56726,1,0,0:0:0:0:
320,192,56726,1,0,0:0:0:0:
320,192,56837,1,0,0:0:0:0:
448,192,56837,1,0,0:0:0:0:
448,192,56948,1,0,0:0:0:0:
320,192,56948,1,0,0:0:0:0:
448,192,57060,1,0,0:0:0:0:
320,192,57060,1,0,0:0:0:0:
448,192,57171,1,0,0:0:0:0:
320,192,57171,1,0,0:0:0:0:
320,192,57283,1,0,0:0:0:0:
448,192,57283,1,0,0:0:0:0:
320,192,57393,1,0,0:0:0:0:
448,192,57393,1,0,0:0:0:0:
320,192,57505,1,0,0:0:0:0:
448,192,57505,1,0,0:0:0:0:
448,192,57616,1,0,0:0:0:0:
320,192,57616,1,0,0:0:0:0:
448,192,57838,1,0,0:0:0:0:
320,192,57838,1,0,0:0:0:0:
320,192,57950,1,0,0:0:0:0:
448,192,57950,1,0,0:0:0:0:
320,192,58062,1,0,0:0:0:0:
448,192,58062,1,0,0:0:0:0:
448,192,58284,1,0,0:0:0:0:
320,192,58284,1,0,0:0:0:0:
320,192,58395,1,0,0:0:0:0:
448,192,58395,1,0,0:0:0:0:
320,192,58507,1,0,0:0:0:0:
448,192,58507,1,0,0:0:0:0:
448,192,58617,1,0,0:0:0:0:
320,192,58617,1,0,0:0:0:0:
448,192,58729,1,0,0:0:0:0:
320,192,58729,1,0,0:0:0:0:
320,192,58841,1,0,0:0:0:0:
448,192,58841,1,0,0:0:0:0:
320,192,58952,1,0,0:0:0:0:
448,192,58952,1,0,0:0:0:0:
448,192,59063,1,0,0:0:0:0:
320,192,59063,1,0,0:0:0:0:
448,192,59174,1,0,0:0:0:0:
320,192,59174,1,0,0:0:0:0:
320,192,59286,1,0,0:0:0:0:
448,192,59286,1,0,0:0:0:0:
448,192,59397,1,0,0:0:0:0:
320,192,59397,1,0,0:0:0:0:
320,192,59620,1,0,0:0:0:0:
448,192,59620,1,0,0:0:0:0:
448,192,59731,1,0,0:0:0:0:
320,192,59731,1,0,0:0:0:0:
448,192,59843,1,0,0:0:0:0:
320,192,59843,1,0,0:0:0:0:
320,192,59953,1,0,0:0:0:0:
448,192,59953,1,0,0:0:0:0:
320,192,60065,1,0,0:0:0:0:
448,192,60065,1,0,0:0:0:0:
320,192,60176,1,0,0:0:0:0:
448,192,60176,1,0,0:0:0:0:
320,192,60287,1,0,0:0:0:0:
448,192,60287,1,0,0:0:0:0:
320,192,60398,1,0,0:0:0:0:
448,192,60398,1,0,0:0:0:0:
448,192,60510,1,0,0:0:0:0:
320,192,60510,1,0,0:0:0:0:
320,192,60622,1,0,0:0:0:0:
448,192,60622,1,0,0:0:0:0:
320,192,60732,1,0,0:0:0:0:
448,192,60732,1,0,0:0:0:0:
448,192,60955,1,0,0:0:0:0:
320,192,60955,1,0,0:0:0:0:
320,192,61177,1,0,0:0:0:0:
448,192,61177,1,0,0:0:0:0:
448,192,61401,1,0,0:0:0:0:
320,192,61401,1,0,0:0:0:0:
320,192,61623,1,0,0:0:0:0:
448,192,61623,1,0,0:0:0:0:
448,192,61734,1,0,0:0:0:0:
320,192,61734,1,0,0:0:0:0:
320,192,61957,1,0,0:0:0:0:
448,192,61957,1,0,0:0:0:0:
320,192,62068,1,0,0:0:0:0:
448,192,62068,1,0,0:0:0:0:
448,192,62180,1,0,0:0:0:0:
320,192,62180,1,0,0:0:0:0:
320,192,62291,1,0,0:0:0:0:
448,192,62291,1,0,0:0:0:0:
320,192,62513,1,0,0:0:0:0:
448,192,62513,1,0,0:0:0:0:
448,192,62736,1,0,0:0:0:0:
320,192,62736,1,0,0:0:0:0:
448,192,62958,1,0,0:0:0:0:
320,192,62958,1,0,0:0:0:0:
320,192,63182,1,0,0:0:0:0:
448,192,63182,1,0,0:0:0:0:
448,192,63292,1,0,0:0:0:0:
320,192,63292,1,0,0:0:0:0:
320,192,63404,1,0,0:0:0:0:
448,192,63404,1,0,0:0:0:0:
320,192,63515,1,0,0:0:0:0:
448,192,63515,1,0,0:0:0:0:
320,192,63627,1,0,0:0:0:0:
448,192,63627,1,0,0:0:0:0:
448,192,63737,1,0,0:0:0:0:
320,192,63737,1,0,0:0:0:0:
448,192,63849,1,0,0:0:0:0:
320,192,63849,1,0,0:0:0:0:
448,192,63961,1,0,0:0:0:0:
320,192,63961,1,0,0:0:0:0:
320,192,64072,1,0,0:0:0:0:
448,192,64072,1,0,0:0:0:0:
320,192,64183,1,0,0:0:0:0:
448,192,64183,1,0,0:0:0:0:
320,192,64294,1,0,0:0:0:0:
448,192,64294,1,0,0:0:0:0:
448,192,64406,1,0,0:0:0:0:
320,192,64406,1,0,0:0:0:0:
448,192,64517,1,0,0:0:0:0:
320,192,64517,1,0,0:0:0:0:
320,192,64628,1,0,0:0:0:0:
448,192,64628,1,0,0:0:0:0:
320,192,64740,1,0,0:0:0:0:
448,192,64740,1,0,0:0:0:0:
448,192,64963,1,0,0:0:0:0:
320,192,64963,1,0,0:0:0:0:
320,192,65185,1,0,0:0:0:0:
448,192,65185,1,0,0:0:0:0:
448,192,65296,1,0,0:0:0:0:
320,192,65296,1,0,0:0:0:0:
448,192,65407,1,0,0:0:0:0:
320,192,65407,1,0,0:0:0:0:
320,192,65518,1,0,0:0:0:0:
448,192,65518,1,0,0:0:0:0:
320,192,65630,1,0,0:0:0:0:
448,192,65630,1,0,0:0:0:0:
448,192,65742,1,0,0:0:0:0:
320,192,65742,1,0,0:0:0:0:
320,192,65852,1,0,0:0:0:0:
448,192,65852,1,0,0:0:0:0:
320,192,65964,1,0,0:0:0:0:
448,192,65964,1,0,0:0:0:0:
448,192,66075,1,0,0:0:0:0:
320,192,66075,1,0,0:0:0:0:
320,192,66187,1,0,0:0:0:0:
448,192,66187,1,0,0:0:0:0:
320,192,66297,1,0,0:0:0:0:
448,192,66297,1,0,0:0:0:0:
448,192,66409,1,0,0:0:0:0:
320,192,66409,1,0,0:0:0:0:
448,192,66521,1,0,0:0:0:0:
320,192,66521,1,0,0:0:0:0:
448,192,66743,1,0,0:0:0:0:
320,192,66743,1,0,0:0:0:0:
448,192,66854,1,0,0:0:0:0:
320,192,66854,1,0,0:0:0:0:
320,192,66966,1,0,0:0:0:0:
448,192,66966,1,0,0:0:0:0:
448,192,67077,1,0,0:0:0:0:
320,192,67077,1,0,0:0:0:0:
448,192,67188,1,0,0:0:0:0:
320,192,67188,1,0,0:0:0:0:
320,192,67300,1,0,0:0:0:0:
448,192,67300,1,0,0:0:0:0:
320,192,67411,1,0,0:0:0:0:
448,192,67411,1,0,0:0:0:0:
448,192,67523,1,0,0:0:0:0:
320,192,67523,1,0,0:0:0:0:
320,192,67633,1,0,0:0:0:0:
448,192,67633,1,0,0:0:0:0:
448,192,67856,1,0,0:0:0:0:
320,192,67856,1,0,0:0:0:0:
320,192,68078,1,0,0:0:0:0:
448,192,68078,1,0,0:0:0:0:
320,192,68302,1,0,0:0:0:0:
448,192,68302,1,0,0:0:0:0:
448,192,68524,1,0,0:0:0:0:
320,192,68524,1,0,0:0:0:0:
320,192,68747,1,0,0:0:0:0:
448,192,68747,1,0,0:0:0:0:
448,192,68857,1,0,0:0:0:0:
320,192,68857,1,0,0:0:0:0:
320,192,69081,1,0,0:0:0:0:
448,192,69081,1,0,0:0:0:0:
320,192,69192,1,0,0:0:0:0:
448,192,69192,1,0,0:0:0:0:
448,192,69303,1,0,0:0:0:0:
320,192,69303,1,0,0:0:0:0:
320,192,69414,1,0,0:0:0:0:
448,192,69414,1,0,0:0:0:0:
320,192,69637,1,0,0:0:0:0:
448,192,69637,1,0,0:0:0:0:
448,192,69860,1,0,0:0:0:0:
320,192,69860,1,0,0:0:0:0:
448,192,70083,1,0,0:0:0:0:
320,192,70083,1,0,0:0:0:0:
320,192,70305,1,0,0:0:0:0:
448,192,70305,1,0,0:0:0:0:
448,192,70416,1,0,0:0:0:0:
320,192,70416,1,0,0:0:0:0:
320,192,70527,1,0,0:0:0:0:
448,192,70527,1,0,0:0:0:0:
320,192,70638,1,0,0:0:0:0:
448,192,70638,1,0,0:0:0:0:
320,192,70750,1,0,0:0:0:0:
448,192,70750,1,0,0:0:0:0:
448,192,70862,1,0,0:0:0:0:
320,192,70862,1,0,0:0:0:0:
448,192,70972,1,0,0:0:0:0:
320,192,70972,1,0,0:0:0:0:
448,192,71084,1,0,0:0:0:0:
320,192,71084,1,0,0:0:0:0:
320,192,71195,1,0,0:0:0:0:
448,192,71195,1,0,0:0:0:0:
320,192,71307,1,0,0:0:0:0:
448,192,71307,1,0,0:0:0:0:
320,192,71417,1,0,0:0:0:0:
448,192,71417,1,0,0:0:0:0:
448,192,71529,1,0,0:0:0:0:
320,192,71529,1,0,0:0:0:0:
448,192,71641,1,0,0:0:0:0:
320,192,71641,1,0,0:0:0:0:
320,192,71752,1,0,0:0:0:0:
448,192,71752,1,0,0:0:0:0:
320,192,71863,1,0,0:0:0:0:
448,192,71863,1,0,0:0:0:0:
448,192,72086,1,0,0:0:0:0:
320,192,72086,1,0,0:0:0:0:
320,192,72308,1,0,0:0:0:0:
448,192,72308,1,0,0:0:0:0:
448,192,72420,1,0,0:0:0:0:
320,192,72420,1,0,0:0:0:0:
448,192,72531,1,0,0:0:0:0:
320,192,72531,1,0,0:0:0:0:
320,192,72643,1,0,0:0:0:0:
448,192,72643,1,0,0:0:0:0:
320,192,72753,1,0,0:0:0:0:
448,192,72753,1,0,0:0:0:0:
448,192,72865,1,0,0:0:0:0:
320,192,72865,1,0,0:0:0:0:
320,192,72976,1,0,0:0:0:0:
448,192,72976,1,0,0:0:0:0:
320,192,73087,1,0,0:0:0:0:
448,192,73087,1,0,0:0:0:0:
448,192,73198,1,0,0:0:0:0:
320,192,73198,1,0,0:0:0:0:
320,192,73310,1,0,0:0:0:0:
448,192,73310,1,0,0:0:0:0:
320,192,73422,1,0,0:0:0:0:
448,192,73422,1,0,0:0:0:0:
448,192,73532,1,0,0:0:0:0:
320,192,73532,1,0,0:0:0:0:
448,192,73644,1,0,0:0:0:0:
320,192,73644,1,0,0:0:0:0:
448,192,73867,1,0,0:0:0:0:
320,192,73867,1,0,0:0:0:0:
448,192,73977,1,0,0:0:0:0:
320,192,73977,1,0,0:0:0:0:
320,192,74089,1,0,0:0:0:0:
448,192,74089,1,0,0:0:0:0:
448,192,74201,1,0,0:0:0:0:
320,192,74201,1,0,0:0:0:0:
448,192,74312,1,0,0:0:0:0:
320,192,74312,1,0,0:0:0:0:
320,192,74423,1,0,0:0:0:0:
448,192,74423,1,0,0:0:0:0:
320,192,74534,1,0,0:0:0:0:
448,192,74534,1,0,0:0:0:0:
448,192,74646,1,0,0:0:0:0:
320,192,74646,1,0,0:0:0:0:
320,192,74757,1,0,0:0:0:0:
448,192,74757,1,0,0:0:0:0:
448,192,74980,1,0,0:0:0:0:
320,192,74980,1,0,0:0:0:0:
320,192,75202,1,0,0:0:0:0:
448,192,75202,1,0,0:0:0:0:
320,192,75425,1,0,0:0:0:0:
448,192,75425,1,0,0:0:0:0:
320,192,75647,1,0,0:0:0:0:
448,192,75647,1,0,0:0:0:0:
448,192,75758,1,0,0:0:0:0:
320,192,75758,1,0,0:0:0:0:
320,192,75870,1,0,0:0:0:0:
448,192,75870,1,0,0:0:0:0:
448,192,76092,1,0,0:0:0:0:
320,192,76092,1,0,0:0:0:0:
320,192,76204,1,0,0:0:0:0:
448,192,76204,1,0,0:0:0:0:
320,192,76315,1,0,0:0:0:0:
448,192,76315,1,0,0:0:0:0:
448,192,76427,1,0,0:0:0:0:
320,192,76427,1,0,0:0:0:0:
448,192,76537,1,0,0:0:0:0:
320,192,76537,1,0,0:0:0:0:
320,192,76649,1,0,0:0:0:0:
448,192,76649,1,0,0:0:0:0:
320,192,76761,1,0,0:0:0:0:
448,192,76761,1,0,0:0:0:0:
320,192,76872,1,0,0:0:0:0:
448,192,76872,1,0,0:0:0:0:
320,192,76983,1,0,0:0:0:0:
448,192,76983,1,0,0:0:0:0:
320,192,77094,1,0,0:0:0:0:
448,192,77094,1,0,0:0:0:0:
448,192,77206,1,0,0:0:0:0:
320,192,77206,1,0,0:0:0:0:
448,192,77428,1,0,0:0:0:0:
320,192,77428,1,0,0:0:0:0:
320,192,77651,1,0,0:0:0:0:
448,192,77651,1,0,0:0:0:0:
448,192,77762,1,0,0:0:0:0:
320,192,77762,1,0,0:0:0:0:
320,192,77873,1,0,0:0:0:0:
448,192,77873,1,0,0:0:0:0:
320,192,77985,1,0,0:0:0:0:
448,192,77985,1,0,0:0:0:0:
448,192,78096,1,0,0:0:0:0:
320,192,78096,1,0,0:0:0:0:
320,192,78207,1,0,0:0:0:0:
448,192,78207,1,0,0:0:0:0:
448,192,78318,1,0,0:0:0:0:
320,192,78318,1,0,0:0:0:0:
448,192,78430,1,0,0:0:0:0:
320,192,78430,1,0,0:0:0:0:
448,192,78542,1,0,0:0:0:0:
320,192,78542,1,0,0:0:0:0:
320,192,78652,1,0,0:0:0:0:
448,192,78652,1,0,0:0:0:0:
320,192,78764,1,0,0:0:0:0:
448,192,78764,1,0,0:0:0:0:
320,192,78875,1,0,0:0:0:0:
448,192,78875,1,0,0:0:0:0:
448,192,78987,1,0,0:0:0:0:
320,192,78987,1,0,0:0:0:0:
448,192,79209,1,0,0:0:0:0:
320,192,79209,1,0,0:0:0:0:
320,192,79321,1,0,0:0:0:0:
448,192,79321,1,0,0:0:0:0:
320,192,79432,1,0,0:0:0:0:
448,192,79432,1,0,0:0:0:0:
448,192,79654,1,0,0:0:0:0:
320,192,79654,1,0,0:0:0:0:
320,192,79766,1,0,0:0:0:0:
448,192,79766,1,0,0:0:0:0:
320,192,79877,1,0,0:0:0:0:
448,192,79877,1,0,0:0:0:0:
448,192,79988,1,0,0:0:0:0:
320,192,79988,1,0,0:0:0:0:
448,192,80100,1,0,0:0:0:0:
320,192,80100,1,0,0:0:0:0:
320,192,80211,1,0,0:0:0:0:
448,192,80211,1,0,0:0:0:0:
320,192,80322,1,0,0:0:0:0:
448,192,80322,1,0,0:0:0:0:
448,192,80433,1,0,0:0:0:0:
320,192,80433,1,0,0:0:0:0:
448,192,80545,1,0,0:0:0:0:
320,192,80545,1,0,0:0:0:0:
320,192,80656,1,0,0:0:0:0:
448,192,80656,1,0,0:0:0:0:
448,192,80767,1,0,0:0:0:0:
320,192,80767,1,0,0:0:0:0:
320,192,80990,1,0,0:0:0:0:
448,192,80990,1,0,0:0:0:0:
448,192,81102,1,0,0:0:0:0:
320,192,81102,1,0,0:0:0:0:
448,192,81212,1,0,0:0:0:0:
320,192,81212,1,0,0:0:0:0:
320,192,81324,1,0,0:0:0:0:
448,192,81324,1,0,0:0:0:0:
320,192,81435,1,0,0:0:0:0:
448,192,81435,1,0,0:0:0:0:
320,192,81547,1,0,0:0:0:0:
448,192,81547,1,0,0:0:0:0:
320,192,81657,1,0,0:0:0:0:
448,192,81657,1,0,0:0:0:0:
320,192,81769,1,0,0:0:0:0:
448,192,81769,1,0,0:0:0:0:
448,192,81881,1,0,0:0:0:0:
320,192,81881,1,0,0:0:0:0:
320,192,81992,1,0,0:0:0:0:
448,192,81992,1,0,0:0:0:0:
320,192,82103,1,0,0:0:0:0:
448,192,82103,1,0,0:0:0:0:
448,192,82326,1,0,0:0:0:0:
320,192,82326,1,0,0:0:0:0:
320,192,82548,1,0,0:0:0:0:
448,192,82548,1,0,0:0:0:0:
320,192,82771,1,0,0:0:0:0:
448,192,82771,1,0,0:0:0:0:
448,192,82882,1,0,0:0:0:0:
320,192,82882,1,0,0:0:0:0:
320,192,82993,1,0,0:0:0:0:
448,192,82993,1,0,0:0:0:0:
448,192,83216,1,0,0:0:0:0:
320,192,83216,1,0,0:0:0:0:
320,192,83327,1,0,0:0:0:0:
448,192,83327,1,0,0:0:0:0:
320,192,83438,1,0,0:0:0:0:
448,192,83438,1,0,0:0:0:0:
448,192,83550,1,0,0:0:0:0:
320,192,83550,1,0,0:0:0:0:
448,192,83662,1,0,0:0:0:0:
320,192,83662,1,0,0:0:0:0:
320,192,83772,1,0,0:0:0:0:
448,192,83772,1,0,0:0:0:0:
320,192,83884,1,0,0:0:0:0:
448,192,83884,1,0,0:0:0:0:
320,192,83995,1,0,0:0:0:0:
448,192,83995,1,0,0:0:0:0:
320,192,84107,1,0,0:0:0:0:
448,192,84107,1,0,0:0:0:0:
320,192,84217,1,0,0:0:0:0:
448,192,84217,1,0,0:0:0:0:
448,192,84329,1,0,0:0:0:0:
320,192,84329,1,0,0:0:0:0:
448,192,84552,1,0,0:0:0:0:
320,192,84552,1,0,0:0:0:0:
320,192,84774,1,0,0:0:0:0:
448,192,84774,1,0,0:0:0:0:
448,192,84886,1,0,0:0:0:0:
320,192,84886,1,0,0:0:0:0:
320,192,84997,1,0,0:0:0:0:
448,192,84997,1,0,0:0:0:0:
320,192,85108,1,0,0:0:0:0:
448,192,85108,1,0,0:0:0:0:
448,192,85220,1,0,0:0:0:0:
320,192,85220,1,0,0:0:0:0:
320,192,85331,1,0,0:0:0:0:
448,192,85331,1,0,0:0:0:0:
448,192,85442,1,0,0:0:0:0:
320,192,85442,1,0,0:0:0:0:
448,192,85553,1,0,0:0:0:0:
320,192,85553,1,0,0:0:0:0:
448,192,85665,1,0,0:0:0:0:
320,192,85665,1,0,0:0:0:0:
320,192,85776,1,0,0:0:0:0:
448,192,85776,1,0,0:0:0:0:
320,192,85887,1,0,0:0:0:0:
448,192,85887,1,0,0:0:0:0:
320,192,85998,1,0,0:0:0:0:
448,192,85998,1,0,0:0:0:0:
448,192,86110,1,0,0:0:0:0:
320,192,86110,1,0,0:0:0:0:
448,192,86332,1,0,0:0:0:0:
320,192,86332,1,0,0:0:0:0:
320,192,86444,1,0,0:0:0:0:
448,192,86444,1,0,0:0:0:0:
320,192,86555,1,0,0:0:0:0:
448,192,86555,1,0,0:0:0:0:
448,192,86777,1,0,0:0:0:0:
320,192,86777,1,0,0:0:0:0:
320,192,86889,1,0,0:0:0:0:
448,192,86889,1,0,0:0:0:0:
320,192,87001,1,0,0:0:0:0:
448,192,87001,1,0,0:0:0:0:
448,192,87112,1,0,0:0:0:0:
320,192,87112,1,0,0:0:0:0:
448,192,87223,1,0,0:0:0:0:
320,192,87223,1,0,0:0:0:0:
320,192,87334,1,0,0:0:0:0:
448,192,87334,1,0,0:0:0:0:
320,192,87446,1,0,0:0:0:0:
448,192,87446,1,0,0:0:0:0:
448,192,87557,1,0,0:0:0:0:
320,192,87557,1,0,0:0:0:0:
448,192,87668,1,0,0:0:0:0:
320,192,87668,1,0,0:0:0:0:
320,192,87780,1,0,0:0:0:0:
448,192,87780,1,0,0:0:0:0:
448,192,87891,1,0,0:0:0:0:
320,192,87891,1,0,0:0:0:0:
320,192,88113,1,0,0:0:0:0:
448,192,88113,1,0,0:0:0:0:
448,192,88225,1,0,0:0:0:0:
320,192,88225,1,0,0:0:0:0:
448,192,88336,1,0,0:0:0:0:
320,192,88336,1,0,0:0:0:0:
320,192,88447,1,0,0:0:0:0:
448,192,88447,1,0,0:0:0:0:
320,192,88558,1,0,0:0:0:0:
448,192,88558,1,0,0:0:0:0:
320,192,88670,1,0,0:0:0:0:
448,192,88670,1,0,0:0:0:0:
320,192,88782,1,0,0:0:0:0:
448,192,88782,1,0,0:0:0:0:
320,192,88892,1,0,0:0:0:0:
448,192,88892,1,0,0:0:0:0:
448,192,89004,1,0,0:0:0:0:
320,192,89004,1,0,0:0:0:0:
320,192,89115,1,0,0:0:0:0:
448,192,89115,1,0,0:0:0:0:
320,192,89227,1,0,0:0:0:0:
448,192,89227,1,0,0:0:0:0:
448,192,89449,1,0,0:0:0:0:
320,192,89449,1,0,0:0:0:0:
320,192,89672,1,0,0:0:0:0:
448,192,89672,1,0,0:0:0:0:
448,192,89894,1,0,0:0:0:0:
320,192,89894,1,0,0:0:0:0:
320,192,90116,1,0,0:0:0:0:
448,192,90116,1,0,0:0:0:0:
448,192,90228,1,0,0:0:0:0:
320,192,90228,1,0,0:0:0:0:
320,192,90451,1,0,0:0:0:0:
448,192,90451,1,0,0:0:0:0:
320,192,90562,1,0,0:0:0:0:
448,192,90562,1,0,0:0:0:0:
448,192,90673,1,0,0:0:0:0:
320,192,90673,1,0,0:0:0:0:
320,192,90785,1,0,0:0:0:0:
448,192,90785,1,0,0:0:0:0:
320,192,91007,1,0,0:0:0:0:
448,192,91007,1,0,0:0:0:0:
448,192,91230,1,0,0:0:0:0:
320,192,91230,1,0,0:0:0:0:
448,192,91452,1,0,0:0:0:0:
320,192,91452,1,0,0:0:0:0:
320,192,91675,1,0,0:0:0:0:
448,192,91675,1,0,0:0:0:0:
448,192,91787,1,0,0:0:0:0:
320,192,91787,1,0,0:0:0:0:
320,192,91897,1,0,0:0:0:0:
448,192,91897,1,0,0:0:0:0:
320,192,92009,1,0,0:0:0:0:
448,192,92009,1,0,0:0:0:0:
320,192,92121,1,0,0:0:0:0:
448,192,92121,1,0,0:0:0:0:
448,192,92232,1,0,0:0:0:0:
320,192,92232,1,0,0:0:0:0:
448,192,92343,1,0,0:0:0:0:
320,192,92343,1,0,0:0:0:0:
448,192,92454,1,0,0:0:0:0:
320,192,92454,1,0,0:0:0:0:
320,192,92566,1,0,0:0:0:0:
448,192,92566,1,0,0:0:0:0:
320,192,92676,1,0,0:0:0:0:
448,192,92676,1,0,0:0:0:0:
320,192,92788,1,0,0:0:0:0:
448,192,92788,1,0,0:0:0:0:
448,192,92900,1,0,0:0:0:0:
320,192,92900,1,0,0:0:0:0:
448,192,93011,1,0,0:0:0:0:
320,192,93011,1,0,0:0:0:0:
320,192,93122,1,0,0:0:0:0:
448,192,93122,1,0,0:0:0:0:
320,192,93233,1,0,0:0:0:0:
448,192,93233,1,0,0:0:0:0:
448,192,93456,1,0,0:0:0:0:
320,192,93456,1,0,0:0:0:0:
320,192,93678,1,0,0:0:0:0:
448,192,93678,1,0,0:0:0:0:
448,192,93790,1,0,0:0:0:0:
320,192,93790,1,0,0:0:0:0:
448,192,93902,1,0,0:0:0:0:
320,192,93902,1,0,0:0:0:0:
320,192,94012,1,0,0:0:0:0:
448,192,94012,1,0,0:0:0:0:
320,192,94124,1,0,0:0:0:0:
448,192,94124,1,0,0:0:0:0:
448,192,94235,1,0,0:0:0:0:
320,192,94235,1,0,0:0:0:0:
320,192,94347,1,0,0:0:0:0:
448,192,94347,1,0,0:0:0:0:
320,192,94457,1,0,0:0:0:0:
448,192,94457,1,0,0:0:0:0:
448,192,94569,1,0,0:0:0:0:
320,192,94569,1,0,0:0:0:0:
320,192,94681,1,0,0:0:0:0:
448,192,94681,1,0,0:0:0:0:
320,192,94792,1,0,0:0:0:0:
448,192,94792,1,0,0:0:0:0:
448,192,94903,1,0,0:0:0:0:
320,192,94903,1,0,0:0:0:0:
448,192,95014,1,0,0:0:0:0:
320,192,95014,1,0,0:0:0:0:
448,192,95236,1,0,0:0:0:0:
320,192,95236,1,0,0:0:0:0:
448,192,95348,1,0,0:0:0:0:
320,192,95348,1,0,0:0:0:0:
320,192,95460,1,0,0:0:0:0:
448,192,95460,1,0,0:0:0:0:
448,192,95571,1,0,0:0:0:0:
320,192,95571,1,0,0:0:0:0:
448,192,95682,1,0,0:0:0:0:
320,192,95682,1,0,0:0:0:0:
320,192,95793,1,0,0:0:0:0:
448,192,95793,1,0,0:0:0:0:
320,192,95905,1,0,0:0:0:0:
448,192,95905,1,0,0:0:0:0:
448,192,96016,1,0,0:0:0:0:
320,192,96016,1,0,0:0:0:0:
320,192,96127,1,0,0:0:0:0:
448,192,96127,1,0,0:0:0:0:
448,192,96350,1,0,0:0:0:0:
320,192,96350,1,0,0:0:0:0:
320,192,96572,1,0,0:0:0:0:
448,192,96572,1,0,0:0:0:0:
320,192,96795,1,0,0:0:0:0:
448,192,96795,1,0,0:0:0:0:
448,192,97017,1,0,0:0:0:0:
320,192,97017,1,0,0:0:0:0:
320,192,97241,1,0,0:0:0:0:
448,192,97241,1,0,0:0:0:0:
448,192,97352,1,0,0:0:0:0:
320,192,97352,1,0,0:0:0:0:
320,192,97574,1,0,0:0:0:0:
448,192,97574,1,0,0:0:0:0:
320,192,97686,1,0,0:0:0:0:
448,192,97686,1,0,0:0:0:0:
448,192,97796,1,0,0:0:0:0:
320,192,97796,1,0,0:0:0:0:
320,192,97908,1,0,0:0:0:0:
448,192,97908,1,0,0:0:0:0:
320,192,98131,1,0,0:0:0:0:
448,192,98131,1,0,0:0:0:0:
448,192,98353,1,0,0:0:0:0:
320,192,98353,1,0,0:0:0:0:
448,192,98576,1,0,0:0:0:0:
320,192,98576,1,0,0:0:0:0:
320,192,98798,1,0,0:0:0:0:
448,192,98798,1,0,0:0:0:0:
448,192,98910,1,0,0:0:0:0:
320,192,98910,1,0,0:0:0:0:
320,192,99022,1,0,0:0:0:0:
448,192,99022,1,0,0:0:0:0:
320,192,99132,1,0,0:0:0:0:
448,192,99132,1,0,0:0:0:0:
320,192,99244,1,0,0:0:0:0:
448,192,99244,1,0,0:0:0:0:
448,192,99355,1,0,0:0:0:0:
320,192,99355,1,0,0:0:0:0:
448,192,99467,1,0,0:0:0:0:
320,192,99467,1,0,0:0:0:0:
448,192,99577,1,0,0:0:0:0:
320,192,99577,1,0,0:0:0:0:
320,192,99689,1,0,0:0:0:0:
448,192,99689,1,0,0:0:0:0:
320,192,99801,1,0,0:0:0:0:
448,192,99801,1,0,0:0:0:0:
320,192,99912,1,0,0:0:0:0:
448,192,99912,1,0,0:0:0:0:
448,192,100023,1,0,0:0:0:0:
320,192,100023,1,0,0:0:0:0:
448,192,100134,1,0,0:0:0:0:
320,192,100134,1,0,0:0:0:0:
320,192,100246,1,0,0:0:0:0:
448,192,100246,1,0,0:0:0:0:
320,192,100356,1,0,0:0:0:0:
448,192,100356,1,0,0:0:0:0:
448,192,100580,1,0,0:0:0:0:
320,192,100580,1,0,0:0:0:0:
320,192,100802,1,0,0:0:0:0:
448,192,100802,1,0,0:0:0:0:
448,192,100913,1,0,0:0:0:0:
320,192,100913,1,0,0:0:0:0:
448,192,101025,1,0,0:0:0:0:
320,192,101025,1,0,0:0:0:0:
320,192,101136,1,0,0:0:0:0:
448,192,101136,1,0,0:0:0:0:
320,192,101247,1,0,0:0:0:0:
448,192,101247,1,0,0:0:0:0:
448,192,101358,1,0,0:0:0:0:
320,192,101358,1,0,0:0:0:0:
320,192,101470,1,0,0:0:0:0:
448,192,101470,1,0,0:0:0:0:
320,192,101582,1,0,0:0:0:0:
448,192,101582,1,0,0:0:0:0:
448,192,101692,1,0,0:0:0:0:
320,192,101692,1,0,0:0:0:0:
320,192,101804,1,0,0:0:0:0:
448,192,101804,1,0,0:0:0:0:
320,192,101915,1,0,0:0:0:0:
448,192,101915,1,0,0:0:0:0:
448,192,102027,1,0,0:0:0:0:
320,192,102027,1,0,0:0:0:0:
448,192,102137,1,0,0:0:0:0:
320,192,102137,1,0,0:0:0:0:
448,192,102361,1,0,0:0:0:0:
320,192,102361,1,0,0:0:0:0:
448,192,102472,1,0,0:0:0:0:
320,192,102472,1,0,0:0:0:0:
320,192,102583,1,0,0:0:0:0:
448,192,102583,1,0,0:0:0:0:
448,192,102694,1,0,0:0:0:0:
320,192,102694,1,0,0:0:0:0:
448,192,102806,1,0,0:0:0:0:
320,192,102806,1,0,0:0:0:0:
320,192,102916,1,0,0:0:0:0:
448,192,102916,1,0,0:0:0:0:
320,192,103028,1,0,0:0:0:0:
448,192,103028,1,0,0:0:0:0:
448,192,103140,1,0,0:0:0:0:
320,192,103140,1,0,0:0:0:0:
320,192,103251,1,0,0:0:0:0:
448,192,103251,1,0,0:0:0:0:
448,192,103473,1,0,0:0:0:0:
320,192,103473,1,0,0:0:0:0:
320,192,103696,1,0,0:0:0:0:
448,192,103696,1,0,0:0:0:0:
320,192,103918,1,0,0:0:0:0:
448,192,103918,1,0,0:0:0:0:
320,192,104142,1,0,0:0:0:0:
448,192,104142,1,0,0:0:0:0:
448,192,104252,1,0,0:0:0:0:
320,192,104252,1,0,0:0:0:0:
320,192,104364,1,0,0:0:0:0:
448,192,104364,1,0,0:0:0:0:
448,192,104587,1,0,0:0:0:0:
320,192,104587,1,0,0:0:0:0:
320,192,104697,1,0,0:0:0:0:
448,192,104697,1,0,0:0:0:0:
320,192,104809,1,0,0:0:0:0:
448,192,104809,1,0,0:0:0:0:
448,192,104921,1,0,0:0:0:0:
320,192,104921,1,0,0:0:0:0:
448,192,105031,1,0,0:0:0:0:
320,192,105031,1,0,0:0:0:0:
320,192,105143,1,0,0:0:0:0:
448,192,105143,1,0,0:0:0:0:
320,192,105254,1,0,0:0:0:0:
448,192,105254,1,0,0:0:0:0:
320,192,105366,1,0,0:0:0:0:
448,192,105366,1,0,0:0:0:0:
320,192,105476,1,0,0:0:0:0:
448,192,105476,1,0,0:0:0:0:
320,192,105588,1,0,0:0:0:0:
448,192,105588,1,0,0:0:0:0:
448,192,105700,1,0,0:0:0:0:
320,192,105700,1,0,0:0:0:0:
448,192,105922,1,0,0:0:0:0:
320,192,105922,1,0,0:0:0:0:
320,192,106145,1,0,0:0:0:0:
448,192,106145,1,0,0:0:0:0:
448,192,106256,1,0,0:0:0:0:
320,192,106256,1,0,0:0:0:0:
320,192,106367,1,0,0:0:0:0:
448,192,106367,1,0,0:0:0:0:
320,192,106478,1,0,0:0:0:0:
448,192,106478,1,0,0:0:0:0:
448,192,106590,1,0,0:0:0:0:
320,192,106590,1,0,0:0:0:0:
320,192,106702,1,0,0:0:0:0:
448,192,106702,1,0,0:0:0:0:
448,192,106812,1,0,0:0:0:0:
320,192,106812,1,0,0:0:0:0:
448,192,106924,1,0,0:0:0:0:
320,192,106924,1,0,0:0:0:0:
448,192,107035,1,0,0:0:0:0:
320,192,107035,1,0,0:0:0:0:
320,192,107147,1,0,0:0:0:0:
448,192,107147,1,0,0:0:0:0:
320,192,107257,1,0,0:0:0:0:
448,192,107257,1,0,0:0:0:0:
320,192,107369,1,0,0:0:0:0:
448,192,107369,1,0,0:0:0:0:
448,192,107481,1,0,0:0:0:0:
320,192,107481,1,0,0:0:0:0:
448,192,107703,1,0,0:0:0:0:
320,192,107703,1,0,0:0:0:0:
320,192,107814,1,0,0:0:0:0:
448,192,107814,1,0,0:0:0:0:
320,192,107926,1,0,0:0:0:0:
448,192,107926,1,0,0:0:0:0:
448,192,108148,1,0,0:0:0:0:
320,192,108148,1,0,0:0:0:0:
320,192,108260,1,0,0:0:0:0:
448,192,108260,1,0,0:0:0:0:
320,192,108371,1,0,0:0:0:0:
448,192,108371,1,0,0:0:0:0:
448,192,108482,1,0,0:0:0:0:
320,192,108482,1,0,0:0:0:0:
448,192,108593,1,0,0:0:0:0:
320,192,108593,1,0,0:0:0:0:
320,192,108705,1,0,0:0:0:0:
448,192,108705,1,0,0:0:0:0:
320,192,108816,1,0,0:0:0:0:
448,192,108816,1,0,0:0:0:0:
448,192,108927,1,0,0:0:0:0:
320,192,108927,1,0,0:0:0:0:
448,192,109038,1,0,0:0:0:0:
320,192,109038,1,0,0:0:0:0:
320,192,109150,1,0,0:0:0:0:
448,192,109150,1,0,0:0:0:0:
448,192,109262,1,0,0:0:0:0:
320,192,109262,1,0,0:0:0:0:
320,192,109484,1,0,0:0:0:0:
448,192,109484,1,0,0:0:0:0:
448,192,109595,1,0,0:0:0:0:
320,192,109595,1,0,0:0:0:0:
448,192,109707,1,0,0:0:0:0:
320,192,109707,1,0,0:0:0:0:
320,192,109817,1,0,0:0:0:0:
448,192,109817,1,0,0:0:0:0:
320,192,109929,1,0,0:0:0:0:
448,192,109929,1,0,0:0:0:0:
320,192,110041,1,0,0:0:0:0:
448,192,110041,1,0,0:0:0:0:
320,192,110151,1,0,0:0:0:0:
448,192,110151,1,0,0:0:0:0:
320,192,110263,1,0,0:0:0:0:
448,192,110263,1,0,0:0:0:0:
448,192,110374,1,0,0:0:0:0:
320,192,110374,1,0,0:0:0:0:
320,192,110486,1,0,0:0:0:0:
448,192,110486,1,0,0:0:0:0:
320,192,110596,1,0,0:0:0:0:
448,192,110596,1,0,0:0:0:0:
448,192,110820,1,0,0:0:0:0:
320,192,110820,1,0,0:0:0:0:
320,192,111042,1,0,0:0:0:0:
448,192,111042,1,0,0:0:0:0:
320,192,111265,1,0,0:0:0:0:
448,192,111265,1,0,0:0:0:0:
448,192,111376,1,0,0:0:0:0:
320,192,111376,1,0,0:0:0:0:
320,192,111487,1,0,0:0:0:0:
448,192,111487,1,0,0:0:0:0:
448,192,111710,1,0,0:0:0:0:
320,192,111710,1,0,0:0:0:0:
320,192,111822,1,0,0:0:0:0:
448,192,111822,1,0,0:0:0:0:
320,192,111932,1,0,0:0:0:0:
448,192,111932,1,0,0:0:0:0:
448,192,112044,1,0,0:0:0:0:
320,192,112044,1,0,0:0:0:0:
448,192,112155,1,0,0:0:0:0:
320,192,112155,1,0,0:0:0:0:
320,192,112267,1,0,0:0:0:0:
448,192,112267,1,0,0:0:0:0:
320,192,112377,1,0,0:0:0:0:
448,192,112377,1,0,0:0:0:0:
320,192,112489,1,0,0:0:0:0:
448,192,112489,1,0,0:0:0:0:
320,192,112601,1,0,0:0:0:0:
448,192,112601,1,0,0:0:0:0:
320,192,112711,1,0,0:0:0:0:
448,192,112711,1,0,0:0:0:0:
448,192,112823,1,0,0:0:0:0:
320,192,112823,1,0,0:0:0:0:
448,192,113046,1,0,0:0:0:0:
320,192,113046,1,0,0:0:0:0:
320,192,113268,1,0,0:0:0:0:
448,192,113268,1,0,0:0:0:0:
448,192,113380,1,0,0:0:0:0:
320,192,113380,1,0,0:0:0:0:
320,192,113491,1,0,0:0:0:0:
448,192,113491,1,0,0:0:0:0:
320,192,113602,1,0,0:0:0:0:
448,192,113602,1,0,0:0:0:0:
448,192,113713,1,0,0:0:0:0:
320,192,113713,1,0,0:0:0:0:
320,192,113825,1,0,0:0:0:0:
448,192,113825,1,0,0:0:0:0:
448,192,113936,1,0,0:0:0:0:
320,192,113936,1,0,0:0:0:0:
448,192,114047,1,0,0:0:0:0:
320,192,114047,1,0,0:0:0:0:
448,192,114158,1,0,0:0:0:0:
320,192,114158,1,0,0:0:0:0:
320,192,114270,1,0,0:0:0:0:
448,192,114270,1,0,0:0:0:0:
320,192,114382,1,0,0:0:0:0:
448,192,114382,1,0,0:0:0:0:
320,192,114492,1,0,0:0:0:0:
448,192,114492,1,0,0:0:0:0:
448,192,114604,1,0,0:0:0:0:
320,192,114604,1,0,0:0:0:0:
448,192,114827,1,0,0:0:0:0:
320,192,114827,1,0,0:0:0:0:
320,192,114937,1,0,0:0:0:0:
448,192,114937,1,0,0:0:0:0:
320,192,115049,1,0,0:0:0:0:
448,192,115049,1,0,0:0:0:0:
448,192,115271,1,0,0:0:0:0:
320,192,115271,1,0,0:0:0:0:
320,192,115383,1,0,0:0:0:0:
448,192,115383,1,0,0:0:0:0:
320,192,115494,1,0,0:0:0:0:
448,192,115494,1,0,0:0:0:0:
448,192,115606,1,0,0:0:0:0:
320,192,115606,1,0,0:0:0:0:
448,192,115716,1,0,0:0:0:0:
320,192,115716,1,0,0:0:0:0:
320,192,115828,1,0,0:0:0:0:
448,192,115828,1,0,0:0:0:0:
320,192,115940,1,0,0:0:0:0:
448,192,115940,1,0,0:0:0:0:
448,192,116051,1,0,0:0:0:0:
320,192,116051,1,0,0:0:0:0:
448,192,116162,1,0,0:0:0:0:
320,192,116162,1,0,0:0:0:0:
320,192,116273,1,0,0:0:0:0:
448,192,116273,1,0,0:0:0:0:
448,192,116385,1,0,0:0:0:0:
320,192,116385,1,0,0:0:0:0:
320,192,116607,1,0,0:0:0:0:
448,192,116607,1,0,0:0:0:0:
448,192,116718,1,0,0:0:0:0:
320,192,116718,1,0,0:0:0:0:
448,192,116830,1,0,0:0:0:0:
320,192,116830,1,0,0:0:0:0:
320,192,116942,1,0,0:0:0:0:
448,192,116942,1,0,0:0:0:0:
320,192,117052,1,0,0:0:0:0:
448,192,117052,1,0,0:0:0:0:
320,192,117164,1,0,0:0:0:0:
448,192,117164,1,0,0:0:0:0:
320,192,117275,1,0,0:0:0:0:
448,192,117275,1,0,0:0:0:0:
320,192,117387,1,0,0:0:0:0:
448,192,117387,1,0,0:0:0:0:
448,192,117497,1,0,0:0:0:0:
320,192,117497,1,0,0:0:0:0:
320,192,117609,1,0,0:0:0:0:
448,192,117609,1,0,0:0:0:0:
320,192,117721,1,0,0:0:0:0:
448,192,117721,1,0,0:0:0:0:
448,192,117943,1,0,0:0:0:0:
320,192,117943,1,0,0:0:0:0:
320,192,118166,1,0,0:0:0:0:
448,192,118166,1,0,0:0:0:0:
