osu file format v14

[General]
AudioFilename: audio.mp3
AudioLeadIn: 0
PreviewTime: 50121
Countdown: 1
SampleSet: Soft
StackLeniency: 0.7
Mode: 0
LetterboxInBreaks: 0
WidescreenStoryboard: 0

[Editor]
DistanceSpacing: 1
BeatDivisor: 4
GridSize: 4
TimelineZoom: 1

[Metadata]
Title:Lights Out
TitleUnicode:Lights Out
Artist:NUWANDA
ArtistUnicode:NUWANDA
Creator:Skairul
Version:Easy
Source:
Tags:trap trapwolf trapcity
BeatmapID:1977339
BeatmapSetID:946679

[Difficulty]
HPDrainRate:2
CircleSize:2.5
OverallDifficulty:3
ApproachRate:3.5
SliderMultiplier:0.7
SliderTickRate:1

[Events]
//Background and Video events
0,0,"big_1481246630_image.jpg",0,0
//Break Periods
2,47760,49107
2,97517,107644
2,120930,122278
//Storyboard Layer 0 (Background)
//Storyboard Layer 1 (Fail)
//Storyboard Layer 2 (Pass)
//Storyboard Layer 3 (Foreground)
//Storyboard Sound Samples

[TimingPoints]
0,365.853658536585,4,3,0,75,1,0
24146,-100,4,2,0,65,0,0
35853,-100,4,2,0,70,0,0
46829,-100,4,2,0,50,0,0
49756,-100,4,3,0,90,0,0
73902,-100,4,3,0,100,0,1
79390,-100,4,2,0,70,0,1
80487,-100,4,3,0,100,0,1
84146,-100,4,2,0,90,0,1
84878,-100,4,3,0,100,0,1
95853,-100,4,2,0,90,0,0
97317,-100,4,3,0,100,0,0
109024,-100,4,3,0,75,0,0
120731,-100,4,3,0,60,0,0
122926,-100,4,3,0,90,0,0
145609,-100,4,3,0,100,0,0
147073,-100,4,3,0,100,0,1
152560,-100,4,2,0,100,0,1
152926,-100,4,2,0,60,0,1
153658,-100,4,3,0,100,0,1
157317,-100,4,2,0,85,0,1
158048,-100,4,3,0,100,0,1
169024,-100,4,3,0,100,0,0
170487,-100,4,2,0,100,0,0

[Colours]
Combo1 : 0,0,193
Combo2 : 192,192,192
Combo3 : 128,128,128
Combo4 : 0,128,255
Combo5 : 128,255,255
Combo6 : 63,63,63

[HitObjects]
427,47,731,6,0,P|443:114|427:181,1,140,4|2,0:0|0:0,0:0:0:0:
426,181,2926,1,2,0:0:0:0:
287,116,3658,2,0,P|271:188|288:252,1,140,4|2,0:0|0:0,0:0:0:0:
287,250,5487,1,4,0:0:0:0:
223,304,5853,2,0,P|185:312|128:293,1,70,2|0,0:0|0:0,0:0:0:0:
95,248,6585,6,0,L|79:92,1,140,4|2,0:0|0:0,0:0:0:0:
80,108,8780,1,2,0:0:0:0:
239,56,9512,2,0,L|255:212,1,140,4|2,0:0|0:0,0:0:0:0:
253,195,11707,1,2,0:0:0:0:
407,268,12439,38,0,P|423:200|411:128,1,140,4|2,0:0|0:3,0:3:0:0:
355,72,13536,1,8,0:2:0:0:
283,120,13902,2,0,P|243:124|203:116,1,70,0|4,0:0|0:0,0:0:0:0:
155,56,14634,2,0,P|115:52|75:60,1,70,2|8,0:0|0:2,0:0:0:0:
39,124,15365,22,0,L|59:272,1,140,4|2,3:0|0:0,0:0:0:0:
111,328,16463,1,8,0:2:0:0:
191,300,16829,2,0,P|231:296|271:304,1,70,0|4,0:0|0:0,0:0:0:0:
327,352,17561,2,0,P|367:356|407:348,1,70,2|8,0:0|0:2,0:0:0:0:
451,288,18292,6,0,L|439:207,1,70,4|0,0:0|0:0,0:0:0:0:
379,163,19024,2,0,L|367:82,1,70,2|8,0:0|0:2,0:0:0:0:
311,31,19756,1,0,0:0:0:0:
231,59,20121,1,4,0:0:0:0:
155,19,20487,2,0,P|146:52|154:95,1,70,2|8,0:0|0:2,0:0:0:0:
215,143,21219,38,0,P|223:176|215:219,1,70,4|0,0:0|0:0,0:0:0:0:
154,266,21951,2,0,P|148:300|157:334,1,70,2|8,0:0|0:2,0:0:0:0:
231,296,22682,2,0,L|303:336,2,70
218,211,23780,1,0,0:0:0:0:
249,131,24146,37,0,0:0:0:0:
471,315,25609,2,0,P|487:247|475:175,2,140
229,242,28170,1,0,0:0:0:0:
284,178,28536,70,0,L|354:191,2,70
239,106,29634,1,0,0:0:0:0:
197,32,29999,1,0,0:0:0:0:
117,329,31463,2,0,B|213:347|213:347|264:332,2,140
40,111,34024,5,0,0:0:0:0:
106,59,34390,2,0,P|139:51|182:59,1,70
229,120,35122,2,0,P|263:126|297:117,1,70
378,96,35853,6,0,L|362:239,1,140,0|8,0:0|0:0,0:0:0:0:
204,293,37317,2,0,B|100:268|100:268|64:277,2,140,0|8|0,0:0|0:0|0:0,0:0:0:0:
368,335,39512,1,8,0:0:0:0:
445,186,40243,22,0,P|372:166|298:181,1,140,0|8,0:0|0:0,0:0:0:0:
231,209,41341,1,0,0:0:0:0:
152,177,41707,1,0,0:0:0:0:
3,255,42439,1,8,0:0:0:0:
151,333,43170,2,0,B|255:358|255:358|291:349,2,140,0|8|0,0:0|0:0|0:0,0:0:0:0:
148,164,45365,37,8,0:0:0:0:
310,121,46097,2,0,P|318:193|294:257,1,140,0|8,0:0|0:0,0:0:0:0:
203,311,47560,1,0,0:0:0:0:
130,164,50487,37,4,0:0:0:0:
60,116,50853,2,0,P|116:80|192:106,1,140,8|8,0:2|0:0,0:0:0:0:
219,173,51951,2,0,L|189:246,2,70,0|8|0,0:0|0:0|0:0,0:0:0:0:
289,127,53048,1,8,0:2:0:0:
366,159,53414,5,4,0:0:0:0:
413,89,53780,2,0,P|449:145|423:221,1,140,8|8,0:2|0:2,0:0:0:0:
353,245,54878,2,0,L|362:318,2,70,0|8|0,0:0|0:2|0:0,0:0:0:0:
288,191,55975,1,8,0:2:0:0:
212,154,56341,38,0,P|177:149|143:157,1,70,4|2,0:0|0:0,0:0:0:0:
85,217,57073,2,0,P|80:251|88:285,1,70,0|2,0:0|0:0,0:0:0:0:
157,332,57804,2,0,L|237:320,1,70,0|2,0:0|0:0,0:0:0:0:
308,338,58536,1,2,0:0:0:0:
388,312,58902,1,2,0:0:0:0:
465,343,59268,70,0,P|470:304|461:273,1,70,0|2,0:0|0:0,0:0:0:0:
395,224,59999,2,0,L|311:233,1,70,0|2,0:0|0:0,0:0:0:0:
253,275,60731,2,0,L|183:267,1,70,0|2,0:0|0:0,0:0:0:0:
117,215,61463,1,2,0:0:0:0:
144,135,61829,1,2,0:0:0:0:
108,58,62195,22,0,P|142:50|176:56,1,70,4|4,0:0|0:0,0:0:0:0:
228,121,62926,2,0,P|262:126|296:119,1,70,4|4,0:0|0:0,0:0:0:0:
370,78,63658,2,0,B|430:21,2,70,4|4|4,0:0|0:0|0:0,0:0:0:0:
368,162,64756,1,4,0:0:0:0:
367,245,65121,22,0,B|307:302,1,70,4|4,0:0|0:0,0:0:0:0:
232,281,65853,2,0,B|172:338,1,70,4|4,0:0|0:0,0:0:0:0:
106,290,66585,2,0,P|98:323|102:358,2,70,4|4|4,0:0|0:0|0:0,0:0:0:0:
67,215,67682,1,4,0:0:0:0:
105,140,68048,5,4,0:0:0:0:
256,192,68414,12,0,72439,0:0:0:0:
459,315,73902,70,0,P|391:335|319:307,1,140,0|2,0:0|0:0,0:0:0:0:
255,271,74999,1,0,0:0:0:0:
271,187,75365,2,0,L|259:115,1,70,0|4,0:0|0:0,0:0:0:0:
195,63,76097,2,0,P|161:58|127:65,1,70,2|0,0:0|0:0,0:0:0:0:
79,135,76829,38,0,L|71:215,1,70,4|4,0:0|0:0,0:0:0:0:
123,271,77560,1,2,0:0:0:0:
199,231,77926,2,0,P|267:215|339:239,1,140,0|4,0:0|0:0,0:0:0:0:
407,275,79024,1,2,0:0:0:0:
479,231,79390,5,2,0:0:0:0:
443,155,79756,2,0,L|447:75,1,70
367,59,80487,2,0,P|283:79|223:63,1,140,4|0,0:0|0:0,0:0:0:0:
151,91,81585,1,4,0:0:0:0:
71,59,81951,2,0,P|66:93|73:127,1,70,2|0,0:0|0:0,0:0:0:0:
139,179,82682,22,0,L|223:191,2,70,4|4|2,0:0|0:0|0:0,0:0:0:0:
59,211,83780,1,0,0:0:0:0:
23,287,84146,2,0,P|55:295|91:289,1,70
169,258,84878,38,0,L|238:303,1,70
307,270,85609,1,4,0:0:0:0:
386,297,85975,1,4,0:0:0:0:
465,324,86341,2,0,P|468:289|460:255,1,70,2|0,0:0|0:0,0:0:0:0:
387,213,87073,2,0,P|383:178|391:144,1,70,0|4,0:0|0:0,0:0:0:0:
440,76,87804,2,0,L|509:75,2,70,2|0|4,0:0|0:0|0:0,0:0:0:0:
364,38,88902,5,4,0:0:0:0:
296,88,89268,2,0,L|223:84,2,70,2|0|0,0:0|0:0|0:0,0:0:0:0:
371,124,90365,2,0,P|386:186|360:262,1,140,4|0,0:0|0:0,0:0:0:0:
296,307,91463,1,2,0:0:0:0:
217,337,91829,21,2,0:0:0:0:
155,279,92195,2,0,L|167:202,1,70
235,163,92926,2,0,L|247:86,1,70,0|4,0:0|0:0,0:0:0:0:
323,61,93658,1,2,0:0:0:0:
399,96,94024,1,0,0:0:0:0:
472,58,94390,38,0,P|481:88|476:126,1,70,4|0,0:0|0:0,0:0:0:0:
415,183,95121,2,0,L|337:180,1,70,2|0,0:0|0:0,0:0:0:0:
268,144,95853,6,0,P|259:114|263:75,2,70
277,227,96951,1,0,0:0:0:0:
235,300,97317,1,4,0:0:0:0:
384,115,109024,6,0,P|400:182|383:249,1,140,4|2,0:0|0:0,0:0:0:0:
225,305,110487,2,0,B|122:290|122:290|90:304,2,140,0|2|4,0:0|0:0|0:0,0:0:0:0:
306,324,112317,1,4,0:0:0:0:
381,287,112682,1,2,0:0:0:0:
449,133,113414,2,0,P|381:116|314:132,1,140,0|2,0:0|0:0,0:0:0:0:
231,150,114512,1,0,0:0:0:0:
151,121,114878,53,4,0:0:0:0:
48,253,115609,1,2,0:0:0:0:
212,285,116341,2,0,B|315:300|315:300|347:286,2,140,0|2|4,0:0|0:0|0:0,0:0:0:0:
160,218,118170,1,4,0:0:0:0:
196,142,118536,69,2,0:0:0:0:
350,75,119268,1,4,0:0:0:0:
417,228,119999,2,0,P|349:244|282:227,1,140,4|4,0:0|0:0,0:0:0:0:
52,346,123658,5,4,0:0:0:0:
114,289,124024,2,0,P|121:254|116:220,1,70,8|0,0:2|0:0,0:0:0:0:
49,171,124755,2,0,P|42:136|50:102,1,70,8|0,0:2|0:0,0:0:0:0:
123,60,125487,2,0,L|205:50,1,70,8|0,0:2|0:0,0:0:0:0:
265,94,126219,1,8,0:2:0:0:
325,35,126585,6,0,P|349:96|309:166,1,140,4|0,0:0|0:0,0:0:0:0:
235,176,127682,1,8,0:2:0:0:
171,121,128048,2,0,L|125:64,2,70,0|8|0,0:0|0:2|0:0,0:0:0:0:
156,203,129146,1,8,0:2:0:0:
86,250,129512,6,0,L|96:331,1,70,0|2,0:0|0:0,0:0:0:0:
169,358,130243,2,0,P|204:365|238:360,1,70,0|2,0:0|0:0,0:0:0:0:
303,308,130975,2,0,P|310:273|305:239,1,70,0|2,0:0|0:0,0:0:0:0:
256,170,131707,1,2,0:0:0:0:
299,97,132073,1,2,0:0:0:0:
358,38,132439,6,0,P|382:99|342:169,1,140,0|0,0:0|0:0,0:0:0:0:
278,204,133536,1,2,0:0:0:0:
196,225,133902,2,0,L|171:303,2,70
161,148,134999,1,2,0:0:0:0:
212,81,135365,6,0,P|246:73|280:78,1,70,4|4,0:0|0:0,0:0:0:0:
355,115,136097,2,0,L|347:191,1,70,4|4,0:0|0:0,0:0:0:0:
280,235,136829,2,0,L|272:311,1,70,4|4,0:0|0:0,0:0:0:0:
335,360,137560,1,4,0:0:0:0:
413,329,137926,1,4,0:0:0:0:
444,251,138292,38,0,P|409:245|372:254,1,70,4|4,0:0|0:0,0:0:0:0:
296,282,139024,2,0,P|262:290|227:284,1,70,4|4,0:0|0:0,0:0:0:0:
169,223,139756,2,0,L|150:148,2,70,4|4|4,0:0|0:0|0:0,0:0:0:0:
112,284,140853,1,4,0:0:0:0:
34,251,141219,5,4,0:0:0:0:
256,192,141585,12,0,145609,0:0:0:0:
440,61,147073,5,4,0:0:0:0:
453,143,147439,1,0,0:0:0:0:
466,225,147804,1,2,0:0:0:0:
413,290,148170,2,0,P|378:297|344:289,1,70
279,236,148902,2,0,P|245:228|211:235,1,70,4|2,0:0|0:0,0:0:0:0:
130,211,149634,37,0,0:0:0:0:
69,268,149999,2,0,L|60:352,2,70,4|4|2,0:0|0:0|0:0,0:0:0:0:
13,204,151097,1,0,0:0:0:0:
68,141,151463,2,0,P|142:120|197:148,1,140,0|2,0:0|0:0,0:0:0:0:
278,132,152560,5,0,0:0:0:0:
320,204,152926,2,0,L|314:285,1,70,8|0,0:0|0:0,0:0:0:0:
242,322,153658,2,0,B|145:338|145:338|98:320,2,140,2|0|2,0:0|0:0|0:0,0:0:0:0:
317,358,155487,1,0,0:0:0:0:
389,316,155853,22,0,P|396:282|389:248,1,70,4|4,0:0|0:0,0:0:0:0:
426,172,156585,1,2,0:0:0:0:
383,99,156951,1,0,0:0:0:0:
417,22,157317,2,0,P|383:14|349:21,1,70
291,82,158048,38,0,L|217:76,1,70,2|0,0:0|0:0,0:0:0:0:
144,40,158780,1,4,0:0:0:0:
59,38,159146,1,4,0:0:0:0:
25,114,159512,2,0,L|33:197,1,70,2|0,0:0|0:0,0:0:0:0:
105,224,160243,2,0,L|113:307,1,70,0|4,0:0|0:0,0:0:0:0:
183,338,160975,2,0,P|250:319|319:336,1,140,2|4,0:0|0:0,0:0:0:0:
398,312,162073,5,4,0:0:0:0:
440,239,162439,1,2,0:0:0:0:
405,162,162804,2,0,P|439:155|474:163,2,70,0|0|4,0:0|0:0|0:0,0:0:0:0:
328,196,163902,2,0,P|294:203|259:195,1,70,2|0,0:0|0:0,0:0:0:0:
184,158,164634,21,4,0:0:0:0:
111,199,164999,1,0,0:0:0:0:
51,139,165365,2,0,P|27:202|57:264,1,140,2|0,0:0|0:0,0:0:0:0:
136,291,166463,2,0,L|211:275,1,70,4|2,0:0|0:0,0:0:0:0:
285,300,167195,1,0,0:0:0:0:
353,251,167560,38,0,L|375:175,2,70,4|4|2,0:0|0:0|0:0,0:0:0:0:
404,317,168658,1,0,0:0:0:0:
475,272,169024,2,0,P|482:238|474:203,1,70
416,143,169756,1,0,0:0:0:0:
457,70,170121,1,0,0:0:0:0:
400,8,170487,5,0,0:0:0:0:
