osu file format v14

[General]
AudioFilename: audio.mp3
AudioLeadIn: 0
PreviewTime: 32494
Countdown: 0
SampleSet: Soft
StackLeniency: 0.5
Mode: 0
LetterboxInBreaks: 0
WidescreenStoryboard: 1

[Editor]
DistanceSpacing: 1.1
BeatDivisor: 4
GridSize: 4
TimelineZoom: 1.6

[Metadata]
Title:Renai Kansoku
TitleUnicode:恋愛観測
Artist:NU-KO
ArtistUnicode:NU-KO
Creator:Lunala
Version:Normal
Source:pop'n music 20 fantasia
Tags:jubeat plus saucer pon happy lovegazer power of nature pnm cs rhythmin kaorin ハッピーラブゲイザー ポップンリズミン ポップンガーリィパック1 love observation kyousuke- japanese video game
BeatmapID:2159062
BeatmapSetID:1025210

[Difficulty]
HPDrainRate:3
CircleSize:3
OverallDifficulty:5
ApproachRate:5.8
SliderMultiplier:1
SliderTickRate:1

[Events]
//Background and Video events
0,0,"21.jpg",0,0
//Break Periods
//Storyboard Layer 0 (Background)
//Storyboard Layer 1 (Fail)
//Storyboard Layer 2 (Pass)
//Storyboard Layer 3 (Foreground)
//Storyboard Layer 4 (Overlay)
//Storyboard Sound Samples

[TimingPoints]
35,319.148936170213,4,2,1,70,1,0
1312,-100,4,2,1,70,0,0
3705,-125,4,2,1,60,0,0
4503,-100,4,2,1,60,0,0
4981,-125,4,2,1,55,0,0
5779,-100,4,2,1,50,0,0
6417,-100,4,2,1,45,0,0
11364,-100,4,2,1,55,0,0
20780,-100,4,2,1,45,0,0
21737,-100,4,2,1,60,0,0
30513,-100,4,2,1,65,0,0
33226,-100,4,2,1,75,0,1
53652,-100,4,2,1,65,0,0
65141,-100,4,2,1,70,0,0
72800,-100,4,2,1,70,0,0
75354,-100,4,2,1,65,0,0
76630,-125,4,2,1,55,0,0
77907,-100,4,2,1,60,0,0
85566,-100,4,2,1,65,0,0
88120,-100,4,2,1,75,0,1
103439,-100,4,2,1,60,0,0
111098,-125,4,2,1,50,0,0
112215,-100,4,2,1,45,0,0
114929,-100,4,2,1,5,0,0

[Colours]
Combo1 : 255,128,64
Combo2 : 60,255,60

[HitObjects]
70,96,673,5,8,0:3:0:0:
167,145,992,1,8,0:3:0:0:
249,72,1311,6,0,L|310:71,1,50,2|0,0:0|0:0,0:0:0:0:
349,92,1630,2,0,L|414:89,1,50,8|0,0:0|0:0,0:0:0:0:
454,92,1949,2,0,P|459:37|439:4,2,75,8|8|12,0:0|0:0|0:0,0:0:0:0:
426,198,2747,2,0,L|440:268,1,50,8|4,0:0|0:0,0:0:0:0:
368,334,3226,6,0,L|350:237,1,75,8|8,0:0|0:0,0:0:0:0:
298,224,3705,2,0,B|227:205|238:257|166:240,1,120,12|0,0:0|0:0,0:0:0:0:
81,147,4503,6,0,L|81:57,1,75,8|8,0:0|0:0,0:0:0:0:
140,42,4981,2,0,B|238:23|209:89|303:62,1,160,12|0,0:0|0:0,0:0:0:0:
346,50,5779,1,10,0:0:0:0:
475,157,6417,6,0,L|468:263,1,100,4|2,0:0|0:0,0:0:0:0:
383,326,7056,2,0,L|397:390,2,50,2|0|2,0:0|0:0|0:0,0:0:0:0:
318,231,7694,1,2,0:0:0:0:
216,273,8013,1,2,0:0:0:0:
146,192,8332,1,2,0:0:0:0:
201,95,8652,1,2,0:0:0:0:
309,121,8971,6,0,P|371:134|414:112,1,100,2|2,0:0|0:0,0:0:0:0:
468,32,9609,2,0,P|406:19|363:41,1,100,2|2,0:0|0:0,0:0:0:0:
309,121,10247,1,2,0:0:0:0:
295,230,10566,1,2,0:0:0:0:
380,299,10886,2,0,L|449:290,2,50,8|8|8,0:3|0:3|0:3,0:0:0:0:
337,334,11364,6,0,P|270:342|230:312,1,100,4|0,0:0|0:0,0:0:0:0:
193,310,11843,2,0,L|80:318,1,100,8|2,0:0|0:0,0:0:0:0:
26,229,12481,1,8,0:0:0:0:
26,229,12641,2,0,L|143:221,1,100,2|0,0:0|0:0,0:0:0:0:
180,224,13120,2,0,L|170:163,1,50,8|8,0:0|0:3,0:0:0:0:
246,93,13598,2,0,L|260:149,1,50,0|8,0:0|0:0,0:0:0:0:
275,193,13917,6,0,P|330:171|376:200,1,100,4|0,0:0|0:0,0:0:0:0:
411,214,14396,2,0,L|405:331,1,100,8|2,0:0|0:0,0:0:0:0:
299,340,15035,1,8,0:0:0:0:
299,340,15194,2,0,L|304:236,1,100,2|0,0:0|0:0,0:0:0:0:
275,193,15673,2,0,L|214:205,1,50,8|8,0:0|0:3,0:0:0:0:
137,136,16152,2,0,L|203:125,1,50,0|8,0:0|0:0,0:0:0:0:
240,119,16471,6,0,P|245:66|219:21,1,100,4|0,0:0|0:0,0:0:0:0:
170,13,16949,2,0,B|123:34|123:34|68:6,1,100,8|2,0:0|0:0,0:0:0:0:
14,100,17588,1,8,0:0:0:0:
96,172,17907,2,0,L|97:232,1,50,2|0,0:0|0:0,0:0:0:0:
138,258,18226,2,0,L|135:312,1,50,8|0,0:0|0:0,0:0:0:0:
131,363,18545,2,0,L|241:337,1,100,8|8,0:3|0:0,0:0:0:0:
281,328,19024,5,2,0:0:0:0:
366,259,19343,2,0,L|361:198,1,50,8|8,0:0|0:0,0:0:0:0:
361,153,19662,2,0,P|324:170|265:144,1,100,2|0,0:0|0:0,0:0:0:0:
236,108,20141,2,0,L|170:120,1,50,8|0,0:0|0:0,0:0:0:0:
132,127,20460,5,2,0:0:0:0:
63,209,20779,1,0,0:0:0:0:
120,303,21098,1,0,0:0:0:0:
225,274,21417,1,8,0:0:0:0:
233,168,21737,6,0,L|302:171,2,50,8|8|8,0:3|0:3|0:3,0:0:0:0:
190,132,22215,2,0,L|192:74,2,50,8|8|8,0:3|0:3|0:3,0:0:0:0:
146,165,22694,2,0,L|86:161,1,50,8|8,0:3|0:3,0:0:0:0:
41,160,23013,6,0,L|53:230,1,50,4|0,0:0|0:0,0:0:0:0:
71,317,23492,1,10,0:0:0:0:
169,268,23811,1,8,0:0:0:0:
271,308,24130,2,0,P|324:325|376:297,1,100,2|8,0:0|0:3,0:0:0:0:
417,213,24769,2,0,P|364:196|312:224,1,100,2|0,0:0|0:0,0:0:0:0:
271,226,25247,1,8,0:3:0:0:
183,159,25566,6,0,L|188:93,1,50,4|0,0:0|0:0,0:0:0:0:
265,31,26045,1,2,0:0:0:0:
322,125,26364,1,8,0:0:0:0:
271,226,26683,2,0,P|255:277|275:320,1,100,2|8,0:0|0:3,0:0:0:0:
365,258,27322,2,0,P|381:207|361:164,1,100,2|0,0:0|0:0,0:0:0:0:
322,125,27800,1,8,0:3:0:0:
216,157,28120,6,0,L|150:153,1,50,4|0,0:0|0:0,0:0:0:0:
56,144,28598,1,2,0:0:0:0:
139,72,28917,1,8,0:3:0:0:
216,157,29237,2,0,P|224:218|205:257,1,100,2|8,0:0|0:3,0:0:0:0:
201,361,29875,2,0,L|306:339,1,100,2|8,0:0|0:3,0:0:0:0:
409,345,30513,6,0,L|422:226,1,100,4|0,0:0|0:0,0:0:0:0:
426,191,30992,2,0,L|365:200,1,50,8|0,0:0|0:0,0:0:0:0:
321,193,31311,2,0,L|322:131,2,50,8|0|8,0:0|0:0|0:0,0:0:0:0:
318,247,31790,1,0,0:0:0:0:
275,281,31949,6,0,P|245:271|159:260,1,100,4|8,0:0|0:3,0:0:0:0:
123,248,32428,2,0,L|227:211,1,100,8|8,0:3|0:3,0:0:0:0:
250,170,32907,1,8,0:3:0:0:
314,81,33226,5,12,0:0:0:0:
407,139,33545,1,8,0:0:0:0:
448,241,33864,2,0,L|446:306,2,50,2|0|8,0:0|0:0|0:0,0:0:0:0:
393,237,34343,2,0,P|345:245|306:285,1,100,2|0,0:0|0:0,0:0:0:0:
276,324,34822,1,8,0:0:0:0:
173,284,35141,6,0,L|175:211,1,50,2|0,0:0|0:0,0:0:0:0:
131,195,35460,2,0,L|136:131,1,50,8|0,0:0|0:0,0:0:0:0:
123,91,35779,2,0,P|168:117|229:91,1,100,2|8,0:0|0:0,0:0:0:0:
298,42,36417,2,0,L|353:44,1,50,2|0,0:0|0:0,0:0:0:0:
402,39,36737,2,0,L|396:96,1,50,8|0,0:0|0:0,0:0:0:0:
396,143,37056,6,0,L|503:129,2,100,2|8|2,0:0|0:0|0:0,0:0:0:0:
333,233,38013,1,8,0:0:0:0:
289,266,38173,2,0,B|247:287|247:287|194:258,1,100,2|0,0:0|0:0,0:0:0:0:
159,224,38652,1,8,0:0:0:0:
197,185,38811,2,0,P|231:129|209:88,1,100,2|0,0:0|0:0,0:0:0:0:
201,49,39290,1,8,0:0:0:0:
149,68,39449,2,0,B|83:104|83:104|5:67,1,150,2|8,0:0|0:0,0:0:0:0:
12,180,40247,6,0,L|19:237,1,50,2|0,0:0|0:0,0:0:0:0:
58,266,40566,2,0,L|52:324,1,50,8|0,0:0|0:0,0:0:0:0:
44,370,40886,1,2,0:0:0:0:
146,329,41205,1,8,0:0:0:0:
255,334,41524,2,0,L|321:343,1,50,2|2,0:0|0:0,0:0:0:0:
405,296,42003,6,0,P|366:278|345:217,1,100,6|0,0:0|0:0,0:0:0:0:
342,172,42481,2,0,L|403:166,1,50,8|8,0:3|0:3,0:0:0:0:
445,153,42800,2,0,L|424:89,1,50,8|8,0:3|0:3,0:0:0:0:
412,52,43120,1,8,0:0:0:0:
312,98,43439,5,12,0:0:0:0:
218,40,43758,1,8,0:0:0:0:
136,114,44077,2,0,L|153:178,2,50,2|0|8,0:0|0:0|0:0,0:0:0:0:
97,74,44556,2,0,P|63:111|65:170,1,100,2|0,0:0|0:0,0:0:0:0:
65,213,45035,1,8,0:0:0:0:
138,295,45354,6,0,L|196:292,1,50,2|0,0:0|0:0,0:0:0:0:
241,278,45673,2,0,L|294:281,1,50,8|0,0:0|0:0,0:0:0:0:
346,279,45992,2,0,P|398:293|439:266,1,100,2|8,0:0|0:0,0:0:0:0:
472,166,46630,2,0,L|415:154,1,50,2|0,0:0|0:0,0:0:0:0:
369,142,46949,2,0,L|386:72,1,50,8|0,0:0|0:0,0:0:0:0:
396,40,47269,6,0,L|281:54,2,100,2|8|2,0:0|0:0|0:0,0:0:0:0:
478,112,48226,1,8,0:0:0:0:
449,159,48386,2,0,B|406:185|406:185|347:159,1,100,2|2,0:0|0:0,0:0:0:0:
307,150,48864,1,8,0:0:0:0:
278,197,49024,2,0,P|259:258|311:301,1,100,2|2,0:0|0:0,0:0:0:0:
307,330,49503,1,8,0:0:0:0:
331,379,49662,2,0,L|192:361,1,100,2|2,0:0|0:0,0:0:0:0:
176,362,50141,1,8,0:0:0:0:
170,252,50460,5,2,0:0:0:0:
76,309,50779,1,8,0:0:0:0:
72,200,51098,2,0,P|100:146|154:134,1,100,2|8,0:0|0:0,0:0:0:0:
238,170,51737,2,0,P|210:224|156:236,1,100,2|8,0:0|0:0,0:0:0:0:
134,133,52375,2,0,L|129:74,2,50,8|8|8,0:3|0:3|0:3,0:0:0:0:
212,56,53013,2,0,L|202:-16,2,50,8|8|8,0:3|0:3|0:3,0:3:0:0:
303,117,53652,6,0,L|288:224,1,100,6|8,0:0|0:1,0:1:0:0:
277,270,54130,2,0,P|325:251|375:269,1,100,8|0,0:3|0:1,0:1:0:0:
417,291,54609,2,0,L|405:359,1,50,8|0,0:0|0:1,0:1:0:0:
303,379,55088,2,0,L|245:372,1,50,0|8,0:0|0:0,0:0:0:0:
199,361,55407,2,0,P|157:329|148:284,1,100,0|0,0:0|0:3,0:0:0:0:
141,230,55886,1,8,0:0:0:0:
212,146,56205,6,0,P|252:201|249:245,1,100,2|8,0:0|0:0,0:0:0:0:
242,284,56683,2,0,L|354:260,1,100,8|0,0:3|0:0,0:0:0:0:
394,254,57162,2,0,L|451:270,1,50,8|0,0:0|0:0,0:0:0:0:
470,161,57641,1,0,0:0:0:0:
470,161,57800,2,0,L|401:145,1,50,8|0,0:0|0:0,0:0:0:0:
368,133,58120,2,0,P|321:157|266:128,1,100,2|8,0:0|0:3,0:0:0:0:
184,86,58758,6,0,L|194:199,1,100,6|8,0:0|0:0,0:0:0:0:
198,240,59237,2,0,P|150:214|88:221,1,100,8|0,0:3|0:0,0:0:0:0:
51,226,59715,2,0,L|67:294,1,50,8|0,0:0|0:0,0:0:0:0:
146,345,60194,2,0,L|205:336,1,50,0|8,0:0|0:0,0:0:0:0:
249,327,60513,2,0,P|302:321|358:352,1,100,8|0,0:3|0:0,0:0:0:0:
391,365,60992,1,8,0:0:0:0:
470,288,61311,6,0,B|442:244|442:244|461:180,1,100,2|8,0:0|0:0,0:0:0:0:
476,147,61790,2,0,L|369:169,1,100,8|0,0:3|0:0,0:0:0:0:
322,170,62269,1,8,0:0:0:0:
273,143,62428,2,0,P|264:84|303:48,1,100,4|0,0:0|0:0,0:0:0:0:
334,27,62907,1,8,0:0:0:0:
412,106,63226,6,0,L|414:171,2,50,2|0|8,0:0|0:0|0:0,0:0:0:0:
322,170,63864,2,0,L|330:228,1,50,6|8,0:0|0:3,0:0:0:0:
296,263,64183,2,0,L|304:316,1,50,8|0,0:3|0:0,0:0:0:0:
330,360,64503,2,0,L|216:350,1,100,2|8,0:0|0:3,0:0:0:0:
121,334,65141,6,0,L|76:356,2,50,2|2|2,0:0|0:0|0:0,0:0:0:0:
141,282,65620,1,2,0:0:0:0:
141,282,65779,2,0,L|123:219,2,50,2|2|2,0:0|0:0|0:0,0:0:0:0:
192,300,66258,2,0,P|269:314|341:260,1,150,6|8,0:0|0:0,0:0:0:0:
434,249,67056,2,0,L|441:298,2,50,8|8|8,0:3|0:3|0:3,0:0:0:0:
374,156,67694,6,0,L|377:95,2,50,2|2|2,0:0|0:0|0:0,0:0:0:0:
349,205,68173,1,2,0:0:0:0:
349,205,68332,2,0,L|358:274,2,50,2|2|2,0:0|0:0|0:0,0:0:0:0:
301,176,68811,2,0,B|216:158|249:230|145:200,1,150,6|8,0:0|0:0,0:0:0:0:
70,140,69609,2,0,L|64:79,2,50,0|0|0,0:3|0:3|0:3,0:0:0:0:
160,203,70247,6,0,L|151:314,1,100,6|8,0:0|0:0,0:0:0:0:
237,372,70886,2,0,L|246:261,1,100,2|8,0:0|0:0,0:0:0:0:
303,179,71524,1,2,0:0:0:0:
368,90,71843,1,8,0:0:0:0:
303,2,72162,1,2,0:0:0:0:
199,35,72481,1,8,0:0:0:0:
199,145,72800,6,0,L|105:128,2,75,2|8|8,0:0|0:0|0:0,0:0:0:0:
225,193,73439,2,0,L|208:287,2,75,2|8|8,0:0|0:3|0:0,0:0:0:0:
272,165,74077,2,0,L|366:182,2,75,4|8|8,0:0|0:0|0:0,0:0:0:0:
240,119,74715,2,0,L|256:25,2,75,2|8|8,0:0|0:0|0:0,0:0:0:0:
228,172,75354,5,2,0:0:0:0:
123,299,75832,2,0,L|235:280,1,100,8|8,0:0|0:3,0:0:0:0:
276,285,76311,2,0,L|343:304,1,50,8|8,0:3|0:3,0:0:0:0:
376,306,76630,2,0,P|404:283|352:119,1,240,6|0,0:0|0:0,0:0:0:0:
245,139,77907,5,8,0:0:0:0:
322,216,78226,1,8,0:0:0:0:
452,118,79024,5,8,0:0:0:0:
375,38,79343,1,8,0:0:0:0:
235,124,79822,2,0,L|241:177,2,50,8|0|8,0:0|0:0|0:0,0:0:0:0:
138,71,80460,6,0,P|119:123|136:167,1,100,4|2,0:0|0:0,0:0:0:0:
154,271,81098,2,0,L|142:321,2,50,2|0|2,0:0|0:0|0:0,0:0:0:0:
259,240,81737,2,0,L|270:177,2,50,2|0|2,0:0|0:0|0:0,0:0:0:0:
328,324,82375,1,2,0:0:0:0:
432,288,82694,6,0,L|483:275,1,50,2|2,0:0|0:0,0:0:0:0:
496,110,83332,2,0,L|445:123,1,50,2|2,0:0|0:0,0:0:0:0:
295,185,83971,2,0,L|364:168,1,50,2|2,0:0|0:0,0:0:0:0:
170,57,84769,5,0,0:0:0:0:
170,57,84928,2,0,P|150:119|171:165,1,100,2|2,0:0|0:0,0:0:0:0:
173,203,85407,1,0,0:0:0:0:
180,257,85566,6,0,L|73:248,1,100,2|8,0:0|0:3,0:0:0:0:
25,245,86045,2,0,L|56:355,1,100,2|0,0:0|0:0,0:0:0:0:
98,370,86524,2,0,L|163:356,1,50,2|8,0:0|0:3,0:0:0:0:
254,336,87003,2,0,B|341:321|318:373|409:355,1,150,2|8,0:0|0:3,0:0:0:0:
487,291,87800,1,8,0:3:0:0:
450,187,88120,5,12,0:0:0:0:
340,190,88439,1,8,0:0:0:0:
252,122,88758,2,0,L|247:55,2,50,2|0|8,0:0|0:0|0:0,0:0:0:0:
219,166,89237,2,0,P|169:154|105:168,1,100,2|0,0:0|0:0,0:0:0:0:
68,175,89715,1,8,0:0:0:0:
41,286,90035,6,0,L|103:297,1,50,2|0,0:0|0:0,0:0:0:0:
121,340,90354,2,0,L|179:351,1,50,8|0,0:0|0:0,0:0:0:0:
223,364,90673,2,0,P|239:288|223:262,1,100,2|8,0:0|0:0,0:0:0:0:
264,166,91311,2,0,L|324:174,1,50,2|0,0:0|0:0,0:0:0:0:
368,180,91630,2,0,L|364:117,1,50,8|0,0:0|0:0,0:0:0:0:
359,75,91949,6,0,L|478:99,2,100,2|8|2,0:0|0:0|0:0,0:0:0:0:
251,51,92907,1,8,0:0:0:0:
227,100,93066,2,0,B|198:148|198:148|232:234,1,100,2|2,0:0|0:0,0:0:0:0:
248,232,93545,1,8,0:0:0:0:
274,280,93705,2,0,L|144:303,1,100,2|2,0:0|0:0,0:0:0:0:
127,324,94183,1,8,0:0:0:0:
83,357,94343,2,0,P|52:284|86:250,1,100,2|2,0:0|0:0,0:0:0:0:
78,221,94822,1,8,0:0:0:0:
58,112,95141,6,0,B|36:64|36:64|71:6,1,100,2|8,0:0|0:0,0:0:0:0:
170,26,95779,1,2,0:0:0:0:
250,101,96098,1,8,0:0:0:0:
231,209,96417,1,2,0:0:0:0:
129,250,96737,1,8,0:0:0:0:
50,173,97056,2,0,L|54:106,2,50,2|0|8,0:0|0:0|0:0,0:0:0:0:
129,250,97694,2,0,L|125:314,2,50,2|0|8,0:0|0:0|0:0,0:0:0:0:
231,209,98332,6,0,L|289:215,1,50,8|8,0:0|0:0,0:0:0:0:
388,192,98811,1,8,0:0:0:0:
304,120,99130,1,8,0:0:0:0:
231,209,99449,2,0,L|239:312,2,100,8|8|8,0:0|0:0|0:0,0:0:0:0:
304,120,100407,2,0,L|298:50,1,50,8|8,0:0|0:3,0:0:0:0:
197,28,100886,6,0,L|191:84,2,50,4|0|8,0:0|0:0|0:0,0:0:0:0:
299,70,101524,1,2,0:0:0:0:
231,156,101843,1,8,0:0:0:0:
120,155,102162,2,0,L|64:140,2,50,8|0|8,0:3|0:0|0:0,0:0:0:0:
172,251,102800,2,0,L|154:318,2,50,8|8|8,0:3|0:3|0:3,0:0:0:0:
231,156,103439,6,0,P|273:159|320:121,1,100,4|8,0:0|0:0,0:0:0:0:
364,96,103917,2,0,L|379:201,1,100,8|0,0:3|0:0,0:0:0:0:
380,250,104396,2,0,L|444:223,1,50,8|0,0:0|0:0,0:0:0:0:
385,332,104875,2,0,L|321:355,1,50,0|8,0:0|0:0,0:0:0:0:
283,355,105194,2,0,P|256:358|202:294,1,100,8|0,0:3|0:0,0:0:0:0:
176,265,105673,1,8,0:0:0:0:
190,156,105992,6,0,L|89:173,1,100,2|8,0:0|0:0,0:0:0:0:
37,183,106471,2,0,P|61:122|51:77,1,100,8|0,0:3|0:0,0:0:0:0:
28,41,106949,1,8,0:0:0:0:
136,25,107269,2,0,L|195:9,2,50,2|0|8,0:0|0:0|0:0,0:0:0:0:
149,78,107747,2,0,B|247:62|205:126|303:102,1,150,8|8,0:3|0:0,0:0:0:0:
400,119,108545,6,0,L|398:184,1,50,4|8,0:0|0:3,0:0:0:0:
377,220,108864,2,0,L|391:274,1,50,8|8,0:3|0:0,0:0:0:0:
402,322,109183,2,0,L|463:306,2,50,2|0|8,0:0|0:0|0:0,0:0:0:0:
295,295,109822,6,0,L|231:305,1,50,4|8,0:0|0:3,0:0:0:0:
190,306,110141,2,0,L|128:292,1,50,8|8,0:3|0:0,0:0:0:0:
86,287,110460,2,0,L|95:356,2,50,2|0|8,0:0|0:0|0:0,0:0:0:0:
131,186,111098,6,0,B|278:141|213:270|375:207,1,240,2|0,0:0|0:0,0:0:0:0:
407,194,112215,1,12,0:0:0:0:
256,192,112375,12,0,114928,0:0:0:0:
