osu file format v14

[General]
AudioFilename: audio.mp3
AudioLeadIn: 0
PreviewTime: 32494
Countdown: 0
SampleSet: Soft
StackLeniency: 0.2
Mode: 0
LetterboxInBreaks: 0
WidescreenStoryboard: 0

[Editor]
DistanceSpacing: 1.1
BeatDivisor: 4
GridSize: 4
TimelineZoom: 1.6

[Metadata]
Title:Renai Kansoku
TitleUnicode:恋愛観測
Artist:NU-KO
ArtistUnicode:NU-KO
Creator:Lunala
Version:Love
Source:pop'n music 20 fantasia
Tags:jubeat plus saucer pon happy lovegazer power of nature pnm cs rhythmin kaorin ハッピーラブゲイザー ポップンリズミン ポップンガーリィパック1 love observation kyousuke- japanese video game
BeatmapID:2144316
BeatmapSetID:1025210

[Difficulty]
HPDrainRate:6
CircleSize:4
OverallDifficulty:8.5
ApproachRate:9.1
SliderMultiplier:1.6
SliderTickRate:1

[Events]
//Background and Video events
0,0,"21.jpg",0,0
//Break Periods
//Storyboard Layer 0 (Background)
//Storyboard Layer 1 (Fail)
//Storyboard Layer 2 (Pass)
//Storyboard Layer 3 (Foreground)
//Storyboard Layer 4 (Overlay)
//Storyboard Sound Samples

[TimingPoints]
35,319.148936170213,4,2,1,70,1,0
1311,-76.9230769230769,4,2,1,70,0,0
1630,-66.6666666666667,4,2,1,70,0,0
3705,-133.333333333333,4,2,1,60,0,0
4503,-83.3333333333333,4,2,1,60,0,0
4981,-166.666666666667,4,2,1,55,0,0
5779,-153.846153846154,4,2,1,50,0,0
6417,-133.333333333333,4,2,1,45,0,0
11364,-111.111111111111,4,2,1,55,0,0
20780,-133.333333333333,4,2,1,45,0,0
21737,-100,4,2,1,60,0,0
30513,-100,4,2,1,65,0,0
33226,-76.9230769230769,4,2,1,75,0,1
41524,-25.6410256410256,4,2,1,75,0,1
41683,-51.2820512820513,4,2,1,75,0,1
42003,-76.9230769230769,4,2,1,75,0,1
53652,-90.9090909090909,4,2,1,65,0,0
65141,-90.9090909090909,4,2,1,70,0,0
72800,-66.6666666666667,4,2,1,70,0,0
75354,-90.9090909090909,4,2,1,65,0,0
76630,-142.857142857143,4,2,1,55,0,0
77907,-90.9090909090909,4,2,1,60,0,0
85566,-90.9090909090909,4,2,1,65,0,0
88120,-76.9230769230769,4,2,1,75,0,1
98332,-83.3333333333333,4,2,1,75,0,1
103439,-90.9090909090909,4,2,1,60,0,0
111098,-90.9090909090909,4,2,1,50,0,0
112215,-238.095238095238,4,2,1,45,0,0
114929,-238.095238095238,4,2,1,5,0,0

[Colours]
Combo1 : 255,128,64
Combo2 : 60,255,60

[HitObjects]
22,242,673,5,8,0:3:0:0:
52,262,753,1,8,0:3:0:0:
75,296,832,1,8,0:3:0:0:
76,339,912,1,8,0:3:0:0:
54,375,992,5,8,0:3:0:0:
59,336,1072,1,8,0:3:0:0:
76,306,1152,1,8,0:3:0:0:
104,286,1231,1,8,0:3:0:0:
141,277,1311,6,0,B|236:259|196:323|318:290,1,155.999992858887,2|0,0:0|0:0,0:0:0:0:
300,374,1630,2,0,P|230:342|272:221,1,180.000006866455,8|0,0:0|0:0,0:0:0:0:
362,189,1949,6,0,B|416:219|416:219|353:241,1,120.000004577637,8|0,0:0|0:0,0:0:0:0:
323,72,2189,2,0,B|321:10|321:10|372:53,1,120.000004577637,8|0,0:0|0:0,0:0:0:0:
244,160,2428,2,0,B|187:150|187:150|168:118|168:118|138:140|138:140|59:124,1,180.000006866455,12|0,0:0|0:0,0:0:0:0:
13,0,2747,2,0,L|34:56,1,60.0000022888184,8|0,0:0|0:0,0:0:0:0:
47,252,2907,2,0,B|-11:300|-11:300|4:148,1,180.000006866455,4|0,0:0|0:0,0:0:0:0:
177,267,3226,6,0,B|203:318|203:318|154:390,1,120.000004577637,8|0,0:0|0:0,0:0:0:0:
193,170,3465,2,0,B|170:119|170:119|210:47,1,120.000004577637,8|0,0:0|0:0,0:0:0:0:
367,220,3705,2,0,B|282:235|282:235|260:295|260:295|228:269|150:264,1,240.000009155274,12|0,0:0|0:0,0:0:0:0:
125,116,4503,6,0,P|171:22|194:17,1,95.9999970703126,8|0,0:0|0:0,0:0:0:0:
58,179,4742,2,0,P|4:130|-1:95,1,95.9999970703126,8|0,0:0|0:0,0:0:0:0:
199,190,4981,2,0,B|298:169|266:255|379:223,1,191.999994140625,12|0,0:0|0:0,0:0:0:0:
409,82,5779,2,0,B|299:89|299:89|330:101|349:139,1,181.999991668702,10|0,0:0|0:0,0:0:0:0:
218,117,6417,6,0,P|217:59|239:33,1,90.0000034332277,4|0,0:0|0:0,0:0:0:0:
161,5,6737,2,0,L|74:20,1,60.0000022888184,2|0,0:0|0:0,0:0:0:0:
40,132,7056,1,2,0:0:0:0:
115,90,7215,1,0,0:0:0:0:
37,50,7375,1,2,0:0:0:0:
117,169,7535,2,0,L|125:247,1,60.0000022888184,0|2,0:0|0:0,0:0:0:0:
99,314,7854,2,0,L|112:391,1,60.0000022888184,0|2,0:0|0:0,0:0:0:0:
208,383,8173,1,0,0:0:0:0:
264,285,8332,2,0,P|262:208|251:190,1,90.0000034332277,2|0,0:0|0:0,0:0:0:0:
231,153,8652,2,0,L|291:151,1,60.0000022888184,2|0,0:0|0:0,0:0:0:0:
441,155,8971,5,2,0:0:0:0:
363,188,9130,1,0,0:0:0:0:
354,104,9290,1,2,0:0:0:0:
437,73,9449,1,0,0:0:0:0:
512,172,9609,2,0,L|505:244,2,60.0000022888184,2|0|2,0:0|0:0|0:0,0:0:0:0:
419,256,10088,2,0,L|433:328,1,60.0000022888184,0|2,0:0|0:0,0:0:0:0:
343,384,10407,1,0,0:0:0:0:
318,230,10566,2,0,L|334:300,1,60.0000022888184,2|0,0:0|0:0,0:0:0:0:
199,244,10886,1,8,0:3:0:0:
252,157,11045,1,8,0:3:0:0:
252,157,11125,1,8,0:3:0:0:
252,157,11205,1,8,0:3:0:0:
258,307,11364,6,0,P|226:327|120:286,1,143.999995605469,4|0,0:0|0:0,0:0:0:0:
72,226,11843,2,0,L|-1:239,1,71.9999978027344,8|0,0:0|0:0,0:0:0:0:
25,139,12162,2,0,L|113:123,1,71.9999978027344,2|0,0:0|0:0,0:0:0:0:
228,137,12481,1,8,0:0:0:0:
149,176,12641,2,0,P|142:125|199:59,1,143.999995605469,2|0,0:0|0:0,0:0:0:0:
305,162,13120,1,8,0:0:0:0:
209,249,13279,1,8,0:3:0:0:
209,249,13359,1,8,0:3:0:0:
209,249,13439,1,8,0:3:0:0:
228,137,13598,1,0,0:0:0:0:
287,282,13758,1,8,0:0:0:0:
149,176,13917,6,0,L|-1:189,1,143.999995605469,4|0,0:0|0:0,0:0:0:0:
228,137,14396,2,0,L|304:128,1,71.9999978027344,8|0,0:0|0:0,0:0:0:0:
422,208,14715,2,0,L|339:206,1,71.9999978027344,2|0,0:0|0:0,0:0:0:0:
351,302,15035,1,8,0:0:0:0:
488,273,15194,2,0,P|516:228|483:141,1,143.999995605469,2|0,0:0|0:0,0:0:0:0:
370,102,15673,1,8,0:0:0:0:
422,208,15832,1,8,0:3:0:0:
422,208,15912,1,8,0:3:0:0:
422,208,15992,1,8,0:3:0:0:
451,88,16152,1,0,0:0:0:0:
336,221,16311,1,8,0:0:0:0:
194,156,16471,6,0,B|136:174|136:174|46:118,1,143.999995605469,4|0,0:0|0:0,0:0:0:0:
247,28,16949,2,0,P|266:110|258:129,1,71.9999978027344,8|0,0:0|0:0,0:0:0:0:
195,226,17269,2,0,P|197:151|217:125,1,71.9999978027344,2|0,0:0|0:0,0:0:0:0:
321,190,17588,1,8,0:0:0:0:
254,297,17747,1,0,0:0:0:0:
123,236,17907,2,0,L|200:225,1,71.9999978027344,2|0,0:0|0:0,0:0:0:0:
53,164,18226,2,0,L|141:151,1,71.9999978027344,8|0,0:0|0:0,0:0:0:0:
222,77,18545,1,8,0:3:0:0:
222,77,18625,1,8,0:3:0:0:
222,77,18705,1,8,0:3:0:0:
205,170,18864,1,8,0:0:0:0:
298,0,19024,6,0,P|336:59|298:147,1,143.999995605469,2|8,0:0|0:0,0:0:0:0:
222,77,19503,1,8,0:0:0:0:
332,205,19662,2,0,L|481:181,1,143.999995605469,2|0,0:0|0:0,0:0:0:0:
417,280,20141,2,0,L|338:292,1,71.9999978027344,8|0,0:0|0:0,0:0:0:0:
238,282,20460,5,2,0:0:0:0:
238,282,20779,1,0,0:0:0:0:
238,282,21098,1,0,0:0:0:0:
238,282,21417,1,8,0:0:0:0:
60,149,21737,5,8,0:3:0:0:
158,213,21896,1,8,0:3:0:0:
158,213,21976,1,8,0:3:0:0:
158,213,22056,2,0,L|151:267,1,40,8|0,0:3|0:0,0:0:0:0:
238,155,22215,2,0,L|246:85,1,40,8|0,0:3|0:0,0:0:0:0:
344,65,22375,2,0,L|394:49,1,40,8|0,0:3|0:0,0:0:0:0:
467,132,22535,2,0,L|417:153,1,40,8|0,0:3|0:0,0:0:0:0:
345,240,22694,5,8,0:3:0:0:
308,237,22774,1,8,0:3:0:0:
299,199,22854,1,8,0:3:0:0:
333,176,22933,1,8,0:3:0:0:
368,202,23013,6,0,B|382:246|382:246|358:301,1,80,4|0,0:0|0:0,0:0:0:0:
364,325,23253,1,8,0:3:0:0:
364,325,23332,2,0,L|435:315,1,40,8|0,0:3|0:0,0:0:0:0:
263,384,23492,2,0,L|151:366,1,80,10|0,0:0|0:0,0:0:0:0:
89,229,23811,1,8,0:0:0:0:
99,217,23891,1,0,0:0:0:0:
114,205,23971,2,0,L|105:281,1,40,0|0,0:0|0:0,0:0:0:0:
32,287,24130,6,0,B|5:232|5:232|37:157,1,120,2|0,0:0|0:0,0:0:0:0:
124,76,24449,1,8,0:3:0:0:
115,53,24529,1,8,0:3:0:0:
85,42,24609,1,8,0:3:0:0:
52,66,24689,1,8,0:3:0:0:
94,76,24769,2,0,B|197:56|158:132|254:112,1,160,2|0,0:0|0:0,0:0:0:0:
369,106,25247,1,8,0:3:0:0:
369,106,25327,1,8,0:3:0:0:
369,106,25407,2,0,L|374:161,1,40,8|0,0:3|0:0,0:0:0:0:
329,266,25566,6,0,B|290:250|290:250|229:271,1,80,4|0,0:0|0:0,0:0:0:0:
212,268,25806,1,8,0:3:0:0:
212,268,25886,2,0,L|240:219,1,40,8|0,0:3|0:0,0:0:0:0:
423,227,26045,2,0,P|492:216|502:155,1,120,2|0,0:0|0:0,0:0:0:0:
386,112,26364,1,8,0:0:0:0:
376,100,26444,1,8,0:3:0:0:
368,87,26524,2,0,L|380:157,1,40,8|0,0:3|0:0,0:0:0:0:
329,266,26683,6,0,B|330:308|312:333|312:333|336:349|345:385,1,120,2|0,0:0|0:0,0:0:0:0:
267,185,27003,1,8,0:3:0:0:
276,162,27082,1,8,0:3:0:0:
306,151,27162,1,8,0:3:0:0:
339,175,27242,1,8,0:3:0:0:
297,185,27322,2,0,B|231:149|231:149|191:154|191:154|127:129,1,160,2|0,0:0|0:0,0:0:0:0:
29,201,27800,1,8,0:3:0:0:
29,201,27880,1,8,0:3:0:0:
29,201,27960,2,0,L|83:220,1,40,8|0,0:3|0:0,0:0:0:0:
162,355,28120,6,0,B|177:315|177:315|156:256,1,80,4|0,0:0|0:0,0:0:0:0:
157,252,28359,1,8,0:3:0:0:
157,252,28439,2,0,L|146:301,1,40,8|0,0:3|0:0,0:0:0:0:
264,303,28598,2,0,L|388:281,1,120,2|0,0:0|0:0,0:0:0:0:
398,183,28917,5,8,0:3:0:0:
407,160,28997,1,8,0:3:0:0:
437,149,29077,1,8,0:3:0:0:
470,173,29157,1,8,0:3:0:0:
428,183,29237,2,0,B|289:135,1,120,2|0,0:0|0:0,0:0:0:0:
162,114,29556,5,8,0:3:0:0:
182,80,29636,1,8,0:3:0:0:
213,73,29715,1,8,0:3:0:0:
208,108,29795,1,8,0:3:0:0:
178,150,29875,2,0,B|149:102|149:102|186:34,1,120,2|0,0:0|0:0,0:0:0:0:
289,216,30194,5,8,0:3:0:0:
323,229,30274,1,8,0:3:0:0:
347,265,30354,1,8,0:3:0:0:
342,304,30433,1,8,0:3:0:0:
317,332,30513,6,0,B|222:304|257:374|137:324,1,160,4|0,0:0|0:0,0:0:0:0:
0,211,30992,1,8,0:0:0:0:
160,167,31152,1,0,0:0:0:0:
24,291,31311,1,8,0:0:0:0:
94,119,31471,1,0,0:0:0:0:
100,323,31630,1,8,0:0:0:0:
12,116,31790,1,0,0:0:0:0:
187,322,31949,5,4,0:0:0:0:
319,185,32109,1,8,0:3:0:0:
319,185,32189,1,8,0:3:0:0:
319,185,32269,2,0,L|318:130,1,40,8|0,0:3|0:0,0:0:0:0:
314,74,32428,2,0,P|332:159|290:210,1,120,8|0,0:3|0:0,0:0:0:0:
303,225,32747,5,8,0:3:0:0:
339,220,32827,1,8,0:3:0:0:
377,237,32907,1,8,0:3:0:0:
405,263,32987,1,8,0:3:0:0:
417,306,33066,1,8,0:3:0:0:
222,289,33226,6,0,P|214:180|263:141,1,155.999992858887,12|0,0:0|0:0,0:0:0:0:
291,310,33545,2,0,B|255:313|222:288|222:288|193:336|139:345,1,155.999992858887,8|0,0:0|0:0,0:0:0:0:
12,279,33864,1,2,0:0:0:0:
120,182,34024,1,0,0:0:0:0:
93,361,34183,1,8,0:0:0:0:
117,92,34343,6,0,P|170:97|220:208,1,155.999992858887,2|0,0:0|0:0,0:0:0:0:
159,251,34662,2,0,L|100:235,1,51.999997619629
246,315,34822,2,0,B|310:298|310:298|348:313|348:313|421:299,1,155.999992858887,8|0,0:0|0:0,0:0:0:0:
476,219,35141,1,2,0:0:0:0:
344,164,35300,1,0,0:0:0:0:
416,297,35460,1,8,0:0:0:0:
432,87,35620,1,0,0:0:0:0:
244,158,35779,6,0,L|263:335,1,155.999992858887,2|0,0:0|0:0,0:0:0:0:
187,384,36098,2,0,B|158:344|158:344|185:262,1,103.999995239258,8|0,0:0|0:0,0:0:0:0:
328,176,36417,1,2,0:0:0:0:
354,262,36577,1,0,0:0:0:0:
127,162,36737,1,8,0:0:0:0:
151,76,36896,1,0,0:0:0:0:
127,270,37056,6,0,B|16:281|16:281|51:224,1,155.999992858887,2|0,0:0|0:0,0:0:0:0:
235,259,37375,2,0,P|220:333|123:362,1,155.999992858887,8|0,0:0|0:0,0:0:0:0:
304,178,37694,2,0,B|370:188|370:188|387:217|387:217|475:227,1,155.999992858887,2|0,0:0|0:0,0:0:0:0:
495,140,38013,1,8,0:0:0:0:
409,34,38173,1,0,0:0:0:0:
255,115,38332,6,0,P|224:196|296:263,1,155.999992858887,2|0,0:0|0:0,0:0:0:0:
338,307,38652,1,8,0:0:0:0:
304,178,38811,1,0,0:0:0:0:
173,282,38971,2,0,L|195:399,1,103.999995239258,2|0,0:0|0:0,0:0:0:0:
22,297,39290,1,8,0:0:0:0:
77,170,39449,1,0,0:0:0:0:
239,220,39609,6,0,B|338:194|299:269|412:232,1,155.999992858887,2|0,0:0|0:0,0:0:0:0:
477,307,39928,2,0,P|495:369|444:377,1,103.999995239258,8|0,0:0|0:0,0:0:0:0:
490,215,40247,2,0,P|532:161|497:68,1,155.999992858887,2|0,0:0|0:0,0:0:0:0:
462,0,40566,2,0,P|420:54|443:116,1,103.999995239258,8|0,0:0|0:0,0:0:0:0:
343,255,40886,6,0,B|280:233|280:233|245:248|245:248|165:227,1,155.999992858887,2|0,0:0|0:0,0:0:0:0:
125,84,41205,2,0,B|158:67|180:27|180:27|165:74|175:138,1,155.999992858887,8|0,0:0|0:0,0:0:0:0:
65,199,41524,6,0,B|34:178|-11:179|-11:179|36:169|86:128,1,155.999992858887,2|0,0:0|0:0,0:0:0:0:
188,208,41683,6,0,B|186:245|209:284|209:284|176:247|116:224,1,155.999992858887,2|8,0:0|0:0,0:0:0:0:
323,103,42003,6,0,B|433:73|386:157|513:102,1,155.999992858887,6|0,0:0|0:0,0:0:0:0:
440,23,42322,1,8,0:3:0:0:
288,35,42481,1,8,0:3:0:0:
259,53,42561,1,8,0:3:0:0:
242,90,42641,1,8,0:3:0:0:
324,226,42800,1,8,0:3:0:0:
353,207,42880,1,8,0:3:0:0:
370,171,42960,1,8,0:3:0:0:
194,148,43120,5,8,0:0:0:0:
226,269,43279,1,0,0:0:0:0:
434,241,43439,6,0,P|448:131|389:87,1,155.999992858887,12|0,0:0|0:0,0:0:0:0:
361,274,43758,2,0,B|403:274|435:240|435:240|472:270|540:250,1,155.999992858887,8|0,0:0|0:0,0:0:0:0:
428,363,44077,1,2,0:0:0:0:
358,189,44237,1,0,0:0:0:0:
499,289,44396,1,8,0:0:0:0:
285,234,44556,6,0,P|287:141|367:104,1,155.999992858887,2|0,0:0|0:0,0:0:0:0:
433,72,44875,2,0,L|440:156,1,51.999997619629,0|0,0:0|0:0,0:0:0:0:
358,189,45035,2,0,B|291:147|291:147|179:170,1,155.999992858887,8|0,0:0|0:0,0:0:0:0:
118,310,45354,1,2,0:0:0:0:
206,242,45513,1,0,0:0:0:0:
31,349,45673,2,0,B|96:337|96:337|129:352|129:352|191:339,1,155.999992858887,8|0,0:0|0:0,0:0:0:0:
233,115,45992,6,0,P|184:207|227:256,1,155.999992858887,2|0,0:0|0:0,0:0:0:0:
381,259,46311,2,0,P|310:261|289:315,1,103.999995239258,8|0,0:0|0:0,0:0:0:0:
424,371,46630,1,2,0:0:0:0:
468,279,46790,1,0,0:0:0:0:
260,169,46949,1,8,0:0:0:0:
283,263,47109,1,0,0:0:0:0:
159,110,47269,6,0,B|148:-1|148:-1|205:34,1,155.999992858887,2|0,0:0|0:0,0:0:0:0:
107,195,47588,2,0,P|33:180|4:83,1,155.999992858887,8|0,0:0|0:0,0:0:0:0:
198,235,47907,2,0,B|208:301|208:301|237:318|237:318|247:406,1,155.999992858887,2|0,0:0|0:0,0:0:0:0:
111,343,48226,1,8,0:0:0:0:
291,191,48386,6,0,B|386:158|376:250|502:188,1,207.999990478516,2|2,0:0|0:0,0:0:0:0:
382,78,48864,1,8,0:0:0:0:
205,133,49024,2,0,P|202:237|319:285,1,207.999990478516,2|2,0:0|0:0,0:0:0:0:
453,282,49503,1,8,0:0:0:0:
291,191,49662,2,0,B|219:202|219:202|196:246|196:246|150:226|88:234,1,207.999990478516,2|0,0:0|0:0,0:0:0:0:
0,133,50141,1,8,0:0:0:0:
84,39,50300,1,0,0:0:0:0:
170,148,50460,6,0,B|194:227|194:227|135:336,1,155.999992858887,2|0,0:0|0:0,0:0:0:0:
59,314,50779,2,0,L|242:287,1,155.999992858887,8|0,0:0|0:0,0:0:0:0:
414,384,51098,6,0,B|379:382|349:344|349:344|316:365|316:365|236:359,1,155.999992858887,2|0,0:0|0:0,0:0:0:0:
297,267,51417,1,8,0:0:0:0:
382,219,51577,1,0,0:0:0:0:
491,281,51737,6,0,L|460:117,1,155.999992858887,2|0,0:0|0:0,0:0:0:0:
429,8,52056,1,8,0:0:0:0:
343,74,52215,1,0,0:0:0:0:
187,75,52375,5,8,0:3:0:0:
273,22,52535,1,8,0:3:0:0:
228,158,52694,1,8,0:3:0:0:
124,135,52854,1,8,0:3:0:0:
328,116,53013,5,8,0:3:0:0:
385,204,53173,1,8,0:3:0:0:
212,261,53332,1,8,0:3:0:0:
228,158,53492,1,8,0:3:0:0:
320,322,53652,6,0,L|325:366,2,44.0000013427735,6|0|0,0:0|0:0|0:0,0:0:0:0:
338,188,53971,1,8,0:0:0:0:
469,253,54130,1,8,0:3:0:0:
495,276,54210,1,8,0:3:0:0:
466,294,54290,1,2,0:0:0:0:
429,124,54449,5,0,0:0:0:0:
438,101,54529,1,0,0:0:0:0:
468,90,54609,1,8,0:0:0:0:
501,114,54689,1,0,0:0:0:0:
459,124,54769,2,0,B|356:104|395:180|295:158,1,176.000005371094,0|0,0:0|0:0,0:0:0:0:
186,95,55247,1,8,0:0:0:0:
308,49,55407,1,0,0:0:0:0:
197,180,55566,5,2,0:0:0:0:
156,185,55646,1,0,0:3:0:0:
126,173,55726,1,0,0:3:0:0:
101,138,55806,1,0,0:3:0:0:
96,102,55886,1,8,0:0:0:0:
83,80,55965,1,0,0:3:0:0:
61,66,56045,1,0,0:3:0:0:
35,64,56125,1,0,0:3:0:0:
13,75,56205,6,0,L|16:141,2,44.0000013427735,2|0|0,0:0|0:0|0:0,0:0:0:0:
186,95,56524,1,8,0:0:0:0:
114,238,56683,1,8,0:3:0:0:
92,261,56763,1,8,0:3:0:0:
82,228,56843,1,2,0:0:0:0:
291,203,57003,5,0,0:0:0:0:
282,180,57082,1,0,0:0:0:0:
252,169,57162,1,8,0:0:0:0:
219,193,57242,1,0,0:0:0:0:
261,203,57322,2,0,B|364:183|325:259|425:237,1,176.000005371094,0|0,0:0|0:0,0:0:0:0:
414,76,57800,6,0,B|365:58|365:58|393:176,1,132.00000402832,8|0,0:0|0:0,0:0:0:0:
484,295,58120,2,0,P|511:224|469:171,1,132.00000402832,2|0,0:0|0:0,0:0:0:0:
398,244,58439,1,8,0:3:0:0:
377,264,58519,1,8,0:3:0:0:
370,297,58598,1,8,0:3:0:0:
378,328,58678,1,8,0:3:0:0:
404,354,58758,6,0,L|296:331,1,88.000002685547,6|0,0:0|0:0,0:0:0:0:
189,274,59077,1,8,0:0:0:0:
291,192,59237,1,8,0:3:0:0:
320,177,59316,1,8,0:3:0:0:
316,208,59396,1,2,0:0:0:0:
155,131,59556,5,0,0:0:0:0:
164,108,59636,1,0,0:0:0:0:
194,97,59715,1,8,0:0:0:0:
227,121,59795,1,0,0:0:0:0:
185,131,59875,2,0,B|82:111|121:187|21:165,1,176.000005371094,0|0,0:0|0:0,0:0:0:0:
0,4,60354,1,8,0:0:0:0:
119,46,60513,1,0,0:0:0:0:
200,204,60673,5,2,0:0:0:0:
241,209,60753,1,0,0:0:0:0:
271,197,60832,1,0,0:0:0:0:
296,162,60912,1,0,0:0:0:0:
301,126,60992,1,8,0:0:0:0:
314,104,61072,1,0,0:0:0:0:
336,90,61152,1,0,0:0:0:0:
362,88,61231,1,0,0:0:0:0:
384,99,61311,6,0,L|381:165,2,44.0000013427735,2|0|0,0:0|0:0|0:0,0:0:0:0:
495,154,61630,1,8,0:0:0:0:
421,279,61790,1,8,0:3:0:0:
397,250,61870,1,8,0:3:0:0:
434,244,61949,1,2,0:0:0:0:
259,321,62109,5,0,0:0:0:0:
250,344,62189,1,0,0:0:0:0:
220,355,62269,1,8,0:0:0:0:
187,331,62348,1,0,0:0:0:0:
229,321,62428,6,0,B|304:340|304:340|334:320|334:320|357:362|418:362,1,176.000005371094,4|0,0:0|0:0,0:0:0:0:
193,236,62907,2,0,P|110:270|112:339,1,132.00000402832,8|0,0:0|0:0,0:0:0:0:
226,140,63226,2,0,B|231:96|231:96|193:42,1,88.000002685547,2|0,0:0|0:0,0:0:0:0:
340,232,63545,2,0,B|415:217|397:272|485:246,1,132.00000402832,8|0,0:0|0:0,0:0:0:0:
469,146,63864,5,6,0:0:0:0:
380,88,64024,1,8,0:3:0:0:
340,232,64183,1,8,0:3:0:0:
430,302,64343,1,0,0:0:0:0:
301,119,64503,1,2,0:0:0:0:
252,255,64662,5,8,0:3:0:0:
220,269,64742,1,8,0:3:0:0:
185,271,64822,1,8,0:3:0:0:
152,257,64902,1,8,0:3:0:0:
137,229,64981,1,8,0:3:0:0:
108,214,65061,1,8,0:3:0:0:
75,215,65141,5,2,0:0:0:0:
86,328,65300,1,2,0:0:0:0:
185,271,65460,1,2,0:0:0:0:
16,274,65620,5,2,0:0:0:0:
174,353,65779,1,2,0:0:0:0:
158,177,65939,1,2,0:0:0:0:
61,359,66098,1,2,0:0:0:0:
283,284,66258,6,0,B|392:261|355:338|475:298,1,176.000005371094,6|0,0:0|0:0,0:0:0:0:
507,129,66737,2,0,P|422:155|432:216,1,132.00000402832,8|0,0:0|0:0,0:0:0:0:
414,226,67056,5,8,0:3:0:0:
377,203,67136,1,8,0:3:0:0:
339,199,67215,1,8,0:3:0:0:
303,218,67295,1,8,0:3:0:0:
279,250,67375,1,8,0:3:0:0:
243,263,67455,1,8,0:3:0:0:
202,263,67535,1,8,0:3:0:0:
162,243,67614,1,8,0:3:0:0:
143,210,67694,5,2,0:0:0:0:
138,94,67854,1,2,0:0:0:0:
238,149,68013,1,2,0:0:0:0:
77,148,68173,5,2,0:0:0:0:
223,68,68332,1,2,0:0:0:0:
219,232,68492,1,2,0:0:0:0:
124,57,68652,1,2,0:0:0:0:
313,3,68811,6,0,P|344:62|297:156,1,176.000005371094,6|0,0:0|0:0,0:0:0:0:
286,319,69290,2,0,B|346:286|346:286|429:328,1,132.00000402832,8|0,0:0|0:0,0:0:0:0:
445,332,69609,5,0,0:3:0:0:
428,303,69689,1,0,0:3:0:0:
425,265,69769,1,0,0:3:0:0:
436,232,69848,1,0,0:3:0:0:
465,210,69928,1,0,0:3:0:0:
424,224,70008,1,0,0:3:0:0:
393,224,70088,1,0,0:3:0:0:
364,211,70167,1,0,0:3:0:0:
337,181,70247,6,0,L|220:201,1,88.000002685547,6|0,0:0|0:0,0:0:0:0:
175,128,70487,1,0,0:0:0:0:
175,128,70566,2,0,L|284:108,1,88.000002685547,8|0,0:0|0:0,0:0:0:0:
337,181,70806,1,0,0:0:0:0:
337,181,70886,2,0,L|328:298,1,88.000002685547,2|0,0:0|0:0,0:0:0:0:
280,357,71125,2,0,L|208:339,1,44.0000013427735,0|8,0:0|0:0,0:0:0:0:
102,322,71285,6,0,L|147:310,2,44.0000013427735,0|0|0,0:0|0:0|0:0,0:0:0:0:
84,281,71524,5,2,0:0:0:0:
95,243,71604,1,0,0:0:0:0:
126,218,71683,1,0,0:0:0:0:
165,217,71763,1,0,0:0:0:0:
204,237,71843,5,8,0:0:0:0:
246,243,71923,1,0,0:0:0:0:
286,224,72003,1,0,0:0:0:0:
309,188,72082,1,0,0:0:0:0:
308,144,72162,5,2,0:0:0:0:
284,108,72242,1,0,0:0:0:0:
245,91,72322,1,0,0:0:0:0:
201,101,72402,1,0,0:0:0:0:
220,109,72481,5,8,0:0:0:0:
246,113,72561,1,0,0:0:0:0:
284,108,72641,1,0,0:0:0:0:
316,71,72721,1,0,0:0:0:0:
320,28,72800,6,0,B|374:65|374:65|450:38,1,120.000004577637,2|0,0:0|0:0,0:0:0:0:
509,70,73040,2,0,B|518:-18|518:-18|463:20,1,120.000004577637,8|0,0:0|0:0,0:0:0:0:
441,119,73279,2,0,L|438:194,1,60.0000022888184,8|0,0:0|0:0,0:0:0:0:
489,251,73439,6,0,P|400:210|361:240,1,120.000004577637,2|0,0:0|0:0,0:0:0:0:
302,304,73678,2,0,B|374:320|374:320|435:276,1,120.000004577637,8|0,0:3|0:3,0:0:0:0:
481,372,73917,2,0,L|407:388,1,60.0000022888184,8|0,0:0|0:0,0:0:0:0:
222,319,74077,6,0,B|218:227|218:227|275:273,1,120.000004577637,4|0,0:0|0:0,0:0:0:0:
386,189,74316,2,0,P|372:247|304:259,1,120.000004577637,8|0,0:0|0:0,0:0:0:0:
256,147,74556,2,0,L|319:192,1,60.0000022888184,8|0,0:0|0:0,0:0:0:0:
171,159,74715,6,0,B|117:165|117:165|58:81,1,120.000004577637,2|0,0:0|0:0,0:0:0:0:
89,7,74955,2,0,P|158:48|144:102,1,120.000004577637,8|0,0:0|0:0,0:0:0:0:
171,159,75194,1,8,0:0:0:0:
322,266,75354,6,0,L|451:253,1,88.000002685547,2|0,0:0|0:0,0:0:0:0:
451,255,75593,1,8,0:3:0:0:
451,255,75673,1,8,0:3:0:0:
378,346,75832,2,0,L|270:357,1,88.000002685547,8|0,0:0|0:0,0:0:0:0:
249,362,76072,1,8,0:3:0:0:
249,362,76152,1,8,0:3:0:0:
121,274,76311,5,8,0:3:0:0:
137,238,76391,1,8,0:3:0:0:
171,214,76471,1,8,0:3:0:0:
214,217,76550,1,8,0:3:0:0:
246,243,76630,6,0,B|124:218|155:319|14:268,1,223.999993164063,6|0,0:0|0:0,0:0:0:0:
87,182,77428,1,0,0:0:0:0:
174,75,77588,2,0,L|159:156,1,55.9999982910157,0|0,0:0|0:0,0:0:0:0:
277,229,77907,6,0,P|205:254|144:220,1,132.00000402832,8|0,0:0|0:0,0:0:0:0:
307,150,78226,2,0,P|296:205|257:245,1,88.000002685547,8|0,0:0|0:0,0:0:0:0:
212,162,78545,5,0,0:0:0:0:
263,76,78705,1,0,0:0:0:0:
277,229,78864,1,0,0:0:0:0:
340,46,79024,6,0,P|421:98|423:151,1,132.00000402832,8|0,0:0|0:0,0:0:0:0:
263,76,79343,2,0,P|319:45|354:50,1,88.000002685547,8|0,0:0|0:0,0:0:0:0:
277,229,79662,1,8,0:3:0:0:
277,229,79742,1,8,0:3:0:0:
277,229,79822,2,0,P|228:231|177:184,1,88.000002685547,8|0,0:0|0:0,0:0:0:0:
148,42,80141,2,0,P|172:91|161:136,1,88.000002685547,8|0,0:0|0:0,0:0:0:0:
0,220,80460,6,0,L|129:192,1,132.00000402832,4|0,0:0|0:0,0:0:0:0:
230,261,80779,2,0,B|240:215|240:215|202:153,1,88.000002685547,2|0,0:0|0:0,0:0:0:0:
124,68,81098,1,2,0:0:0:0:
125,160,81258,1,0,0:0:0:0:
297,101,81417,1,2,0:0:0:0:
237,27,81577,1,0,0:0:0:0:
329,183,81737,6,0,L|441:160,1,88.000002685547,2|0,0:0|0:0,0:0:0:0:
235,271,82056,2,0,B|186:255|186:255|160:266|160:266|89:245,1,132.00000402832,2|0,0:0|0:0,0:0:0:0:
70,101,82375,2,0,B|110:79|110:79|94:176,1,132.00000402832,2|0,0:0|0:0,0:0:0:0:
31,223,82694,5,2,0:0:0:0:
173,155,82854,1,2,0:0:0:0:
305,235,83013,2,0,P|317:282|233:348,1,132.00000402832,2|0,0:0|0:0,0:0:0:0:
235,271,83332,5,2,0:0:0:0:
371,365,83492,1,0,0:0:0:0:
399,223,83652,2,0,B|405:135|405:135|364:172,1,132.00000402832,2|0,0:0|0:0,0:0:0:0:
305,235,83971,5,2,0:0:0:0:
418,302,84130,1,2,0:0:0:0:
255,157,84290,2,0,B|144:135|186:214|74:184,1,176.000005371094,2|2,0:0|0:0,0:0:0:0:
173,35,84769,5,0,0:0:0:0:
317,108,84928,2,0,P|328:181|298:216,1,88.000002685547,2|0,0:0|0:0,0:0:0:0:
167,287,85247,1,2,0:0:0:0:
238,212,85407,1,0,0:0:0:0:
289,361,85566,5,2,0:0:0:0:
158,321,85726,1,8,0:3:0:0:
135,296,85806,1,8,0:3:0:0:
167,287,85886,1,8,0:3:0:0:
320,251,86045,2,0,L|450:264,1,88.000002685547,2|8,0:0|0:3,0:0:0:0:
507,164,86364,1,0,0:0:0:0:
391,99,86524,1,2,0:0:0:0:
304,233,86683,5,8,0:3:0:0:
320,251,86763,1,8,0:3:0:0:
352,251,86843,1,8,0:3:0:0:
375,217,86923,1,8,0:3:0:0:
337,202,87003,2,0,B|234:182|273:258|173:236,1,176.000005371094,2|0,0:0|0:0,0:0:0:0:
78,121,87481,1,8,0:3:0:0:
78,121,87561,1,8,0:3:0:0:
78,121,87641,1,8,0:3:0:0:
111,275,87800,1,8,0:3:0:0:
11,192,87960,1,8,0:3:0:0:
169,59,88120,6,0,P|177:168|128:207,1,155.999992858887,12|0,0:0|0:0,0:0:0:0:
101,36,88439,2,0,B|137:34|168:61|168:61|200:15|254:9,1,155.999992858887,8|0,0:0|0:0,0:0:0:0:
332,44,88758,1,2,0:0:0:0:
396,165,88917,1,0,0:0:0:0:
239,108,89077,1,8,0:0:0:0:
427,83,89237,6,0,P|470:113|458:234,1,155.999992858887,2|0,0:0|0:0,0:0:0:0:
407,266,89556,2,0,L|349:258,1,51.999997619629,0|0,0:0|0:0,0:0:0:0:
245,176,89715,2,0,B|309:159|309:159|347:174|347:174|420:160,1,155.999992858887,8|0,0:0|0:0,0:0:0:0:
427,83,90035,1,2,0:0:0:0:
298,45,90194,1,0,0:0:0:0:
144,168,90354,6,0,B|112:100|112:100|148:6,1,155.999992858887,8|0,0:0|0:0,0:0:0:0:
233,155,90673,2,0,P|218:229|149:265,1,155.999992858887,2|0,0:0|0:0,0:0:0:0:
16,327,90992,2,0,L|118:355,1,103.999995239258,8|0,0:0|0:0,0:0:0:0:
282,341,91311,1,2,0:0:0:0:
321,245,91471,1,0,0:0:0:0:
168,172,91630,1,8,0:0:0:0:
192,270,91790,1,0,0:0:0:0:
271,116,91949,6,0,B|282:5|282:5|225:40,1,155.999992858887,2|0,0:0|0:0,0:0:0:0:
327,206,92269,2,0,P|401:191|430:94,1,155.999992858887,8|0,0:0|0:0,0:0:0:0:
178,201,92588,2,0,B|120:179|120:179|82:192|82:192|-1:165,1,155.999992858887,2|0,0:0|0:0,0:0:0:0:
154,99,92907,1,8,0:0:0:0:
327,206,93066,6,0,P|350:298|280:376,1,207.999990478516,2|2,0:0|0:0,0:0:0:0:
125,371,93545,1,8,0:0:0:0:
266,287,93705,2,0,B|344:273|344:273|380:298|380:298|421:259|500:289,1,207.999990478516,2|2,0:0|0:0,0:0:0:0:
497,167,94183,1,8,0:0:0:0:
349,58,94343,2,0,P|284:79|354:183,1,207.999990478516,2|2,0:0|0:0,0:0:0:0:
497,167,94822,1,8,0:0:0:0:
464,39,94981,1,0,0:0:0:0:
333,120,95141,6,0,B|309:199|309:199|368:308,1,155.999992858887,2|0,0:0|0:0,0:0:0:0:
432,308,95460,2,0,L|249:281,1,155.999992858887,8|0,0:0|0:0,0:0:0:0:
77,378,95779,6,0,B|112:376|142:338|142:338|175:359|175:359|255:353,1,155.999992858887,2|0,0:0|0:0,0:0:0:0:
194,261,96098,1,8,0:0:0:0:
109,213,96258,1,0,0:0:0:0:
0,275,96417,6,0,L|31:111,1,155.999992858887,2|0,0:0|0:0,0:0:0:0:
62,2,96737,1,8,0:0:0:0:
148,68,96896,1,0,0:0:0:0:
304,69,97056,5,2,0:0:0:0:
218,14,97215,1,0,0:0:0:0:
263,152,97375,1,8,0:0:0:0:
360,131,97535,1,0,0:0:0:0:
168,88,97694,5,2,0:0:0:0:
111,180,97854,1,0,0:0:0:0:
279,255,98013,1,8,0:0:0:0:
263,152,98173,1,0,0:0:0:0:
164,317,98332,6,0,L|157:364,2,47.9999985351563,8|0|8,0:0|0:0|0:0,0:0:0:0:
411,314,98811,2,0,B|367:322|367:322|292:264,1,95.9999970703126,8|0,0:0|0:0,0:0:0:0:
490,169,99130,2,0,B|516:215|516:215|487:274,1,95.9999970703126,8|0,0:0|0:0,0:0:0:0:
402,93,99449,6,0,P|431:20|506:3,1,143.999995605469,8|0,0:0|0:0,0:0:0:0:
326,152,99769,2,0,P|283:94|301:16,1,143.999995605469,8|0,0:0|0:0,0:0:0:0:
356,246,100088,2,0,B|241:227|289:304|142:271,1,191.999994140625,8|8,0:0|0:0,0:0:0:0:
69,120,100566,5,8,0:3:0:0:
97,114,100646,1,8,0:3:0:0:
130,128,100726,1,8,0:3:0:0:
152,159,100806,1,8,0:3:0:0:
150,191,100886,5,4,0:0:0:0:
57,286,101045,1,0,0:0:0:0:
1,154,101205,2,0,P|0:86|30:53,1,95.9999970703126,8|0,0:0|0:0,0:0:0:0:
238,170,101524,2,0,L|203:356,1,143.999995605469,2|0,0:0|0:0,0:0:0:0:
299,383,101843,2,0,B|322:335|322:335|289:262,1,95.9999970703126,8|0,0:0|0:0,0:0:0:0:
45,368,102162,6,0,L|147:349,1,95.9999970703126,8|0,0:3|0:0,0:0:0:0:
315,275,102481,2,0,L|198:295,1,95.9999970703126,8|0,0:0|0:0,0:0:0:0:
154,182,102800,5,8,0:3:0:0:
335,184,102960,1,8,0:3:0:0:
369,191,103040,1,8,0:3:0:0:
396,215,103120,1,8,0:3:0:0:
408,248,103199,1,8,0:3:0:0:
412,285,103279,1,8,0:3:0:0:
403,319,103359,1,8,0:3:0:0:
374,347,103439,6,0,L|451:362,2,44.0000013427735,4|0|0,0:0|0:0|0:0,0:0:0:0:
276,265,103758,1,8,0:0:0:0:
161,343,103917,1,8,0:3:0:0:
126,367,103997,1,8,0:3:0:0:
161,383,104077,1,2,0:0:0:0:
141,231,104237,5,0,0:0:0:0:
132,208,104316,1,0,0:0:0:0:
102,197,104396,1,8,0:0:0:0:
69,221,104476,1,0,0:0:0:0:
111,231,104556,2,0,B|214:211|175:287|275:265,1,176.000005371094
353,126,105035,1,8,0:0:0:0:
252,187,105194,1,0,0:0:0:0:
406,204,105354,5,8,0:3:0:0:
437,179,105433,1,0,0:0:0:0:
452,152,105513,1,0,0:0:0:0:
450,108,105593,1,0,0:0:0:0:
430,77,105673,1,8,0:0:0:0:
426,53,105753,1,0,0:0:0:0:
433,28,105832,1,0,0:0:0:0:
452,9,105912,1,0,0:0:0:0:
476,4,105992,6,0,L|515:55,2,44.0000013427735,2|0|0,0:0|0:0|0:0,0:0:0:0:
346,20,106311,1,8,0:0:0:0:
231,112,106471,1,8,0:3:0:0:
217,76,106550,1,8,0:3:0:0:
256,82,106630,1,2,0:0:0:0:
300,172,106790,5,0,0:0:0:0:
271,207,106870,1,0,0:0:0:0:
238,219,106949,1,8,0:0:0:0:
199,217,107029,1,0,0:0:0:0:
169,205,107109,1,0,0:0:0:0:
144,170,107189,1,0,0:0:0:0:
139,134,107269,1,2,0:0:0:0:
126,112,107348,1,0,0:0:0:0:
104,98,107428,1,0,0:0:0:0:
78,96,107508,1,0,0:0:0:0:
47,102,107588,1,8,0:0:0:0:
26,119,107667,1,0,0:0:0:0:
10,146,107747,6,0,B|91:113|91:113|138:130|138:130|257:93,1,220.000006713867,8|0,0:3|0:0,0:0:0:0:
367,87,108226,1,8,0:0:0:0:
363,52,108306,1,0,0:0:0:0:
342,20,108386,1,0,0:0:0:0:
224,204,108545,5,4,0:0:0:0:
383,171,108705,1,8,0:3:0:0:
383,171,108785,1,8,0:3:0:0:
383,171,108864,1,8,0:3:0:0:
196,116,109024,1,8,0:0:0:0:
311,257,109183,1,2,0:0:0:0:
292,113,109343,1,0,0:0:0:0:
105,162,109503,1,8,0:0:0:0:
69,268,109662,1,0,0:0:0:0:
244,318,109822,5,4,0:0:0:0:
261,126,109981,1,8,0:3:0:0:
261,126,110061,1,8,0:3:0:0:
261,126,110141,1,8,0:3:0:0:
153,257,110300,1,8,0:0:0:0:
345,188,110460,1,2,0:0:0:0:
164,164,110620,1,0,0:0:0:0:
336,282,110779,1,8,0:0:0:0:
377,283,110859,1,8,0:3:0:0:
407,266,110939,1,8,0:3:0:0:
433,235,111019,1,8,0:3:0:0:
435,188,111098,5,2,0:0:0:0:
345,188,111258,1,0,0:0:0:0:
270,235,111417,1,0,0:0:0:0:
262,319,111577,1,0,0:0:0:0:
187,271,111737,1,0,0:0:0:0:
100,285,111896,1,0,0:0:0:0:
49,353,112056,1,0,0:0:0:0:
187,271,112215,6,0,B|206:257|303:246|283:337|375:349|433:295|433:295|374:295|315:251|335:189|335:189|356:143|411:154|435:187|399:235|388:209,1,571.19998256836,12|0,0:0|0:0,0:0:0:0:
