osu file format v14

[General]
AudioFilename: audio.mp3
AudioLeadIn: 0
PreviewTime: 32494
Countdown: 0
SampleSet: Soft
StackLeniency: 0.2
Mode: 0
LetterboxInBreaks: 0
WidescreenStoryboard: 1

[Editor]
DistanceSpacing: 1.1
BeatDivisor: 4
GridSize: 4
TimelineZoom: 1.6

[Metadata]
Title:Renai Kansoku
TitleUnicode:恋愛観測
Artist:NU-KO
ArtistUnicode:NU-KO
Creator:Lunala
Version:Hard
Source:pop'n music 20 fantasia
Tags:jubeat plus saucer pon happy lovegazer power of nature pnm cs rhythmin kaorin ハッピーラブゲイザー ポップンリズミン ポップンガーリィパック1 love observation kyousuke- japanese video game
BeatmapID:2145369
BeatmapSetID:1025210

[Difficulty]
HPDrainRate:5
CircleSize:3.5
OverallDifficulty:7
ApproachRate:8
SliderMultiplier:1.4
SliderTickRate:1

[Events]
//Background and Video events
0,0,"21.jpg",0,0
//Break Periods
//Storyboard Layer 0 (Background)
//Storyboard Layer 1 (Fail)
//Storyboard Layer 2 (Pass)
//Storyboard Layer 3 (Foreground)
//Storyboard Layer 4 (Overlay)
//Storyboard Sound Samples

[TimingPoints]
35,319.148936170213,4,2,1,70,1,0
1311,-90.9090909090909,4,2,1,70,0,0
3705,-90.9090909090909,4,2,1,60,0,0
4503,-111.111111111111,4,2,1,60,0,0
4981,-111.111111111111,4,2,1,55,0,0
4982,-166.666666666667,4,2,1,55,0,0
5779,-153.846153846154,4,2,1,50,0,0
6417,-133.333333333333,4,2,1,45,0,0
11364,-111.111111111111,4,2,1,55,0,0
20780,-133.333333333333,4,2,1,45,0,0
21737,-100,4,2,1,60,0,0
30513,-100,4,2,1,65,0,0
33226,-90.9090909090909,4,2,1,75,0,1
53652,-100,4,2,1,65,0,0
65141,-100,4,2,1,70,0,0
72800,-100,4,2,1,70,0,0
75354,-100,4,2,1,65,0,0
76630,-142.857142857143,4,2,1,55,0,0
77907,-100,4,2,1,60,0,0
85566,-100,4,2,1,65,0,0
88120,-90.9090909090909,4,2,1,75,0,1
103439,-100,4,2,1,60,0,0
111098,-133.333333333333,4,2,1,50,0,0
112215,-200,4,2,1,45,0,0
114929,-200,4,2,1,5,0,0

[Colours]
Combo1 : 255,128,64
Combo2 : 60,255,60

[HitObjects]
70,88,673,6,0,L|69:48,2,35,8|8|8,0:3|0:3|0:3,0:0:0:0:
117,170,992,2,0,L|116:212,2,35,8|8|8,0:3|0:3|0:3,0:0:0:0:
196,107,1311,6,0,P|222:167|201:227,1,115.50000352478,2|0,0:0|0:0,0:0:0:0:
188,252,1630,2,0,L|280:236,1,77.0000023498536,8|0,0:0|0:0,0:0:0:0:
362,269,1949,2,0,L|353:414,2,115.50000352478,8|8|12,0:0|0:0|0:0,0:0:0:0:
426,92,2747,5,8,0:0:0:0:
350,137,2907,2,0,P|302:143|262:158,1,77.0000023498536,4|0,0:0|0:0,0:0:0:0:
192,175,3226,2,0,L|202:35,2,115.50000352478,8|8|12,0:0|0:0|0:0,0:0:0:0:
274,247,4503,2,0,P|344:246|385:268,2,94.499997116089,8|8|12,0:0|0:0|0:0,0:0:0:0:
32,197,5779,6,0,B|115:177|103:256|194:226,1,159.249992710114,10|0,0:0|0:0,0:0:0:0:
223,218,6417,6,0,L|219:289,1,52.5000020027161,4|0,0:0|0:0,0:0:0:0:
309,207,6737,2,0,L|311:146,1,52.5000020027161,2|0,0:0|0:0,0:0:0:0:
375,81,7056,2,0,L|365:6,2,52.5000020027161,2|0|2,0:0|0:0|0:0,0:0:0:0:
452,144,7535,2,0,P|472:206|460:244,1,105.000004005432
382,287,8013,1,2,0:0:0:0:
408,368,8173,2,0,L|514:361,1,105.000004005432,0|0,0:0|0:0,0:0:0:0:
512,277,8652,1,2,0:0:0:0:
389,189,8971,6,0,L|321:196,1,52.5000020027161,2|0,0:0|0:0,0:0:0:0:
259,235,9290,2,0,L|194:240,1,52.5000020027161,2|0,0:0|0:0,0:0:0:0:
145,308,9609,2,0,L|152:365,2,52.5000020027161,2|0|2,0:0|0:0|0:0,0:0:0:0:
76,237,10088,2,0,P|60:181|89:128,1,105.000004005432
195,190,10566,2,0,L|134:187,1,52.5000020027161,2|0,0:0|0:0,0:0:0:0:
174,102,10886,2,0,L|242:105,2,52.5000020027161,8|8|8,0:3|0:3|0:3,0:0:0:0:
276,40,11364,6,0,P|315:109|284:161,1,125.999996154785,6|0,0:0|0:0,0:0:0:0:
272,230,11843,2,0,L|281:308,1,62.9999980773926,8|0,0:0|0:0,0:0:0:0:
373,334,12162,2,0,L|363:247,1,62.9999980773926,2|0,0:0|0:0,0:0:0:0:
356,184,12481,1,8,0:0:0:0:
272,230,12641,6,0,P|224:244|156:200,1,125.999996154785,2|0,0:0|0:0,0:0:0:0:
127,129,13120,1,8,0:0:0:0:
223,101,13279,2,0,L|230:179,1,62.9999980773926,8|8,0:3|0:3,0:0:0:0:
272,230,13519,1,0,0:0:0:0:
272,230,13598,2,0,L|279:306,1,62.9999980773926,0|8,0:0|0:0,0:0:0:0:
217,352,13917,6,0,P|287:336|345:371,1,125.999996154785,4|0,0:0|0:0,0:0:0:0:
425,368,14396,2,0,L|489:356,1,62.9999980773926,8|0,0:0|0:0,0:0:0:0:
512,252,14715,2,0,L|373:281,1,125.999996154785,2|8,0:0|0:0,0:0:0:0:
316,204,15194,6,0,P|317:134|363:90,1,125.999996154785,2|0,0:0|0:0,0:0:0:0:
453,190,15673,2,0,L|387:169,1,62.9999980773926,8|8,0:0|0:3,0:0:0:0:
352,94,15992,1,8,0:3:0:0:
352,94,16072,1,0,0:0:0:0:
352,94,16152,2,0,L|270:71,1,62.9999980773926,0|8,0:0|0:0,0:0:0:0:
196,47,16471,6,0,L|214:177,1,125.999996154785,4|0,0:0|0:0,0:0:0:0:
145,243,16949,2,0,L|71:232,1,62.9999980773926,8|0,0:0|0:0,0:0:0:0:
231,289,17269,2,0,L|373:263,1,125.999996154785,2|8,0:0|0:0,0:0:0:0:
441,304,17747,1,0,0:0:0:0:
502,234,17907,6,0,L|502:169,1,62.9999980773926,2|0,0:0|0:0,0:0:0:0:
418,130,18226,2,0,L|422:63,1,62.9999980773926,8|0,0:0|0:0,0:0:0:0:
325,22,18545,2,0,L|337:78,2,31.4999990386963,8|8|8,0:3|0:3|0:3,0:0:0:0:
268,123,18864,1,8,0:0:0:0:
190,173,19024,6,0,P|177:111|208:57,1,125.999996154785,2|8,0:0|0:0,0:0:0:0:
268,123,19503,1,8,0:0:0:0:
190,173,19662,2,0,L|38:166,1,125.999996154785,2|0,0:0|0:0,0:0:0:0:
7,248,20141,2,0,L|97:253,1,62.9999980773926,8|0,0:0|0:0,0:0:0:0:
160,272,20460,5,2,0:0:0:0:
160,272,20779,1,0,0:0:0:0:
160,272,21098,1,0,0:0:0:0:
160,272,21417,1,8,0:0:0:0:
251,183,21737,5,8,0:3:0:0:
314,242,21896,2,0,L|317:285,2,35,8|8|8,0:3|0:3|0:3,0:0:0:0:
328,153,22215,1,8,0:3:0:0:
392,216,22375,2,0,L|395:259,2,35,8|0|8,0:3|0:0|0:3,0:0:0:0:
416,127,22694,1,8,0:3:0:0:
348,63,22854,1,8,0:3:0:0:
252,95,23013,6,0,B|195:117|195:117|122:78,1,140,4|8,0:0|0:3,0:0:0:0:
35,120,23492,2,0,L|43:197,1,70,10|0,0:0|0:0,0:0:0:0:
129,256,23811,2,0,L|123:160,1,70,8|0,0:0|0:0,0:0:0:0:
212,218,24130,2,0,P|217:291|183:333,1,105,2|0,0:0|0:0,0:0:0:0:
173,352,24449,2,0,L|254:344,1,70,8|8,0:3|0:3,0:0:0:0:
348,308,24769,2,0,B|413:338|413:338|487:299,1,140,2|0,0:0|0:0,0:0:0:0:
512,224,25247,1,8,0:3:0:0:
512,224,25327,1,8,0:3:0:0:
512,224,25407,1,8,0:3:0:0:
429,157,25566,6,0,P|388:177|303:140,1,140,4|8,0:0|0:3,0:0:0:0:
376,29,26045,2,0,L|370:108,1,70,2|0,0:0|0:0,0:0:0:0:
301,213,26364,2,0,L|307:118,1,70,8|8,0:0|0:3,0:0:0:0:
208,191,26683,2,0,P|212:247|262:294,1,105,2|0,0:0|0:0,0:0:0:0:
273,307,27003,2,0,L|176:306,1,70,8|8,0:3|0:3,0:0:0:0:
122,211,27322,2,0,P|132:139|193:107,1,140,2|0,0:0|0:0,0:0:0:0:
208,191,27800,1,8,0:3:0:0:
208,191,27880,1,8,0:3:0:0:
208,191,27960,1,8,0:3:0:0:
143,287,28120,6,0,L|0:282,1,140,4|8,0:0|0:3,0:0:0:0:
92,361,28598,2,0,L|182:364,1,70,2|0,0:0|0:0,0:0:0:0:
264,332,28917,2,0,P|271:290|245:237,1,70,8|8,0:3|0:3,0:0:0:0:
354,193,29237,2,0,P|340:248|374:300,1,105,2|0,0:0|0:0,0:0:0:0:
394,323,29556,2,0,L|467:313,1,70,8|8,0:3|0:3,0:0:0:0:
512,226,29875,2,0,L|437:234,1,70,2|0,0:0|0:0,0:0:0:0:
354,193,30194,1,8,0:3:0:0:
354,193,30274,1,8,0:3:0:0:
354,193,30354,1,8,0:3:0:0:
270,137,30513,6,0,P|244:67|282:9,1,140,4|0,0:0|0:0,0:0:0:0:
357,123,30992,2,0,L|354:192,1,70,8|0,0:0|0:0,0:0:0:0:
274,279,31311,2,0,L|277:210,1,70,8|0,0:0|0:0,0:0:0:0:
189,270,31630,2,0,L|186:339,1,70,8|0,0:0|0:0,0:0:0:0:
103,384,31949,1,4,0:0:0:0:
28,348,32109,1,8,0:3:0:0:
28,348,32189,1,8,0:3:0:0:
28,348,32269,1,8,0:3:0:0:
48,264,32428,1,8,0:3:0:0:
162,197,32747,5,8,0:3:0:0:
88,136,32907,2,0,L|1:153,1,70,8|8,0:3|0:3,0:0:0:0:
96,29,33226,6,0,P|160:56|181:97,1,115.50000352478,12|0,0:0|0:0,0:0:0:0:
237,141,33545,2,0,L|322:123,1,77.0000023498536,8|0,0:0|0:0,0:0:0:0:
409,142,33864,1,2,0:0:0:0:
471,71,34024,1,0,0:0:0:0:
374,50,34183,1,8,0:0:0:0:
312,125,34343,6,0,L|324:250,1,115.50000352478,2|0,0:0|0:0,0:0:0:0:
379,300,34662,2,0,L|460:270,1,77.0000023498536,0|8,0:0|0:0,0:0:0:0:
218,309,35141,2,0,L|124:335,1,77.0000023498536,2|0,0:0|0:0,0:0:0:0:
55,258,35460,2,0,L|149:230,1,77.0000023498536,8|0,0:0|0:0,0:0:0:0:
211,150,35779,6,0,P|226:79|164:17,1,154.000004699707,2|8,0:0|0:0,0:0:0:0:
130,99,36258,1,0,0:0:0:0:
211,150,36417,2,0,L|293:140,1,77.0000023498536,2|0,0:0|0:0,0:0:0:0:
378,179,36737,2,0,L|479:165,1,77.0000023498536,8|0,0:0|0:0,0:0:0:0:
508,89,37056,5,2,0:0:0:0:
370,38,37375,1,8,0:0:0:0:
378,179,37694,2,0,L|393:289,1,77.0000023498536,2|0,0:0|0:0,0:0:0:0:
349,340,38013,1,8,0:0:0:0:
270,283,38173,6,0,P|203:267|124:329,1,154.000004699707,2|0,0:0|0:0,0:0:0:0:
215,364,38652,1,8,0:0:0:0:
270,283,38811,2,0,L|256:118,1,154.000004699707,2|0,0:0|0:0,0:0:0:0:
200,53,39290,1,8,0:0:0:0:
143,131,39449,6,0,B|108:206|108:206|151:285,1,154.000004699707,2|0,0:0|0:0,0:0:0:0:
184,350,39928,1,8,0:0:0:0:
87,342,40088,1,0,0:0:0:0:
23,266,40247,2,0,P|21:183|59:146,1,115.50000352478,2|0,0:0|0:0,0:0:0:0:
66,122,40566,2,0,L|161:133,1,77.0000023498536,8|0,0:0|0:0,0:0:0:0:
247,163,40886,6,0,L|335:148,1,77.0000023498536,2|0,0:0|0:0,0:0:0:0:
409,42,41205,2,0,P|355:52|328:99,1,77.0000023498536,8|0,0:0|0:0,0:0:0:0:
406,129,41524,1,2,0:0:0:0:
496,88,41683,2,0,P|511:33|494:-9,1,77.0000023498536,2|8,0:0|0:0,0:0:0:0:
406,129,42003,6,0,L|427:318,1,154.000004699707,6|0,0:0|0:0,0:0:0:0:
363,356,42481,2,0,L|317:349,2,38.5000011749268,8|8|8,0:3|0:3|0:3,0:0:0:0:
280,271,42800,2,0,L|332:258,2,38.5000011749268,8|8|8,0:3|0:3|0:3,0:0:0:0:
194,327,43120,1,8,0:0:0:0:
104,285,43279,1,0,0:0:0:0:
134,191,43439,6,0,P|196:164|262:206,1,115.50000352478,12|0,0:0|0:0,0:0:0:0:
312,195,43758,2,0,L|309:97,1,77.0000023498536,8|0,0:0|0:0,0:0:0:0:
344,29,44077,1,2,0:0:0:0:
439,66,44237,1,0,0:0:0:0:
407,148,44396,1,8,0:0:0:0:
309,118,44556,6,0,P|242:111|196:77,1,115.50000352478,2|0,0:0|0:0,0:0:0:0:
124,43,44875,2,0,L|134:156,1,77.0000023498536,0|8,0:0|0:0,0:0:0:0:
16,240,45354,2,0,L|5:158,1,77.0000023498536,2|0,0:0|0:0,0:0:0:0:
114,206,45673,2,0,L|124:286,1,77.0000023498536,8|0,0:0|0:0,0:0:0:0:
165,372,45992,6,0,P|233:333|289:360,1,115.50000352478,2|0,0:0|0:0,0:0:0:0:
301,359,46311,2,0,L|380:344,1,77.0000023498536,8|0,0:0|0:0,0:0:0:0:
425,236,46630,2,0,L|326:255,1,77.0000023498536,2|0,0:0|0:0,0:0:0:0:
274,169,46949,2,0,L|357:154,1,77.0000023498536,8|0,0:0|0:0,0:0:0:0:
429,81,47269,5,2,0:0:0:0:
282,22,47588,1,8,0:0:0:0:
274,169,47907,2,0,L|289:261,1,77.0000023498536,2|0,0:0|0:0,0:0:0:0:
341,321,48226,1,8,0:0:0:0:
260,370,48386,6,0,L|97:354,1,154.000004699707,2|2,0:0|0:0,0:0:0:0:
47,278,48864,1,8,0:0:0:0:
117,205,49024,2,0,P|126:134|63:74,1,154.000004699707,2|2,0:0|0:0,0:0:0:0:
30,161,49503,1,8,0:0:0:0:
117,205,49662,6,0,L|300:181,1,154.000004699707,2|2,0:0|0:0,0:0:0:0:
309,102,50141,2,0,L|223:109,1,77.0000023498536,8|0,0:0|0:0,0:0:0:0:
385,155,50460,2,0,P|398:85|389:64,1,77.0000023498536,2|0,0:0|0:0,0:0:0:0:
299,183,50779,2,0,P|300:248|312:271,1,77.0000023498536,8|0,0:0|0:0,0:0:0:0:
318,335,51098,6,0,L|173:317,1,115.50000352478,2|0,0:0|0:0,0:0:0:0:
165,308,51417,2,0,L|177:387,1,77.0000023498536,8|0,0:0|0:0,0:0:0:0:
66,321,51737,2,0,P|89:242|149:215,1,115.50000352478,2|0,0:0|0:0,0:0:0:0:
151,218,52056,2,0,L|140:136,1,77.0000023498536,8|0,0:0|0:0,0:0:0:0:
226,55,52375,6,0,L|238:147,1,77.0000023498536,8|8,0:3|0:3,0:0:0:0:
248,224,52694,1,8,0:3:0:0:
151,218,52854,1,8,0:3:0:0:
235,131,53013,2,0,L|324:132,1,77.0000023498536,8|8,0:3|0:3,0:0:0:0:
424,212,53332,2,0,L|333:208,1,77.0000023498536,8|8,0:3|0:3,0:0:0:0:
248,224,53652,6,0,P|245:294|260:318,1,70,6|0,0:0|0:0,0:0:0:0:
260,335,53891,1,0,0:0:0:0:
260,335,53971,2,0,L|170:331,1,70,8|0,0:0|0:0,0:0:0:0:
119,281,54290,2,0,L|43:290,1,70,2|0,0:0|0:0,0:0:0:0:
4,212,54609,5,8,0:0:0:0:
4,212,54689,1,0,0:0:0:0:
4,212,54769,2,0,L|91:203,1,70,0|0,0:0|0:0,0:0:0:0:
142,145,55088,1,0,0:0:0:0:
228,174,55247,2,0,P|226:104|207:83,1,70,8|0,0:0|0:0,0:0:0:0:
319,45,55566,2,0,P|313:108|325:134,1,70,2|0,0:0|0:3,0:0:0:0:
389,164,55886,2,0,L|508:149,1,105,8|0,0:0|0:3,0:0:0:0:
493,150,56205,6,0,L|501:85,2,35,2|0|0,0:0|0:0|0:0,0:0:0:0:
461,245,56524,2,0,L|475:327,1,70,8|8,0:0|0:3,0:0:0:0:
485,361,56763,1,8,0:3:0:0:
485,361,56843,2,0,P|417:353|391:363,1,70,2|0,0:0|0:0,0:0:0:0:
323,355,57162,5,8,0:0:0:0:
323,355,57242,1,0,0:0:0:0:
323,355,57322,2,0,L|227:374,1,70
162,359,57641,1,0,0:0:0:0:
185,271,57800,2,0,P|182:222|138:177,1,105,8|0,0:0|0:0,0:0:0:0:
105,162,58120,2,0,L|207:151,1,70,2|0,0:0|0:0,0:0:0:0:
200,72,58439,2,0,L|139:63,2,35,8|8|8,0:3|0:3|0:3,0:0:0:0:
284,32,58758,6,0,P|295:72|280:125,1,70,6|0,0:0|0:0,0:0:0:0:
315,183,59077,2,0,L|400:169,1,70,8|8,0:0|0:3,0:0:0:0:
427,168,59316,1,8,0:3:0:0:
427,168,59396,2,0,L|415:250,1,70,2|0,0:0|0:0,0:0:0:0:
415,332,59715,2,0,L|499:314,1,70,8|0,0:0|0:0,0:0:0:0:
327,286,60035,6,0,L|246:273,1,70,0|0,0:0|0:0,0:0:0:0:
166,259,60354,2,0,P|123:277|80:263,1,70,8|8,0:0|0:3,0:0:0:0:
56,261,60593,1,0,0:3:0:0:
56,261,60673,2,0,L|64:333,1,70,2|0,0:0|0:0,0:0:0:0:
118,199,60992,2,0,L|109:83,1,105,8|0,0:0|0:0,0:0:0:0:
103,53,61311,6,0,L|195:64,1,70,2|0,0:0|0:0,0:0:0:0:
260,95,61630,2,0,L|352:84,1,70,8|0,0:0|0:0,0:0:0:0:
376,88,61870,1,0,0:0:0:0:
376,88,61949,2,0,L|368:167,1,70,2|0,0:0|0:0,0:0:0:0:
285,207,62269,1,8,0:0:0:0:
199,150,62428,6,0,P|188:62|241:16,1,140,4|0,0:0|0:0,0:0:0:0:
260,95,62907,2,0,L|131:83,1,105,8|0,0:0|0:0,0:0:0:0:
104,81,63226,2,0,L|113:171,1,70,2|0,0:0|0:0,0:0:0:0:
163,225,63545,2,0,L|147:342,1,105,8|0,0:0|0:0,0:0:0:0:
143,380,63864,6,0,L|239:368,1,70,6|8,0:0|0:3,0:0:0:0:
308,346,64183,1,8,0:3:0:0:
257,268,64343,1,0,0:0:0:0:
306,182,64503,2,0,L|403:189,1,70,2|8,0:0|0:3,0:0:0:0:
422,193,64742,1,8,0:3:0:0:
422,193,64822,2,0,L|412:127,2,35,8|8|8,0:3|0:3|0:3,0:0:0:0:
500,120,65141,6,0,P|501:70|473:27,1,70,2|2,0:0|0:0,0:0:0:0:
420,2,65460,1,2,0:0:0:0:
395,89,65620,2,0,P|394:137|418:181,1,70,2|2,0:0|0:0,0:0:0:0:
488,212,65939,1,2,0:0:0:0:
500,120,66098,1,2,0:0:0:0:
395,89,66258,6,0,B|337:82|343:142|229:103,1,140,6|0,0:0|0:0,0:0:0:0:
167,103,66737,2,0,L|180:179,1,70,8|0,0:0|0:0,0:0:0:0:
100,239,67056,2,0,L|84:183,2,35,8|8|8,0:3|0:3|0:3,0:0:0:0:
135,333,67375,2,0,L|123:381,2,35,8|8|8,0:3|0:3|0:3,0:0:0:0:
204,252,67694,6,0,P|263:247|286:222,1,70,2|2,0:0|0:0,0:0:0:0:
312,155,68013,1,2,0:0:0:0:
214,149,68173,2,0,P|155:154|132:179,1,70,2|2,0:0|0:0,0:0:0:0:
107,241,68492,1,2,0:0:0:0:
204,252,68652,1,2,0:0:0:0:
214,149,68811,6,0,P|214:76|158:28,1,140,6|0,0:0|0:0,0:0:0:0:
74,117,69290,2,0,L|151:107,1,70,8|0,0:0|0:0,0:0:0:0:
292,69,69609,2,0,L|298:26,2,35,0|0|0,0:3|0:3|0:3,0:0:0:0:
300,153,69928,2,0,L|293:187,2,35,0|0|0,0:3|0:3|0:3,0:0:0:0:
389,125,70247,6,0,P|409:173|394:218,1,70,6|0,0:0|0:0,0:0:0:0:
398,232,70487,1,0,0:0:0:0:
398,232,70566,2,0,L|491:222,1,70,8|0,0:0|0:0,0:0:0:0:
420,319,70886,2,0,L|330:322,1,70,2|0,0:0|0:0,0:0:0:0:
300,320,71125,1,0,0:0:0:0:
300,320,71205,2,0,P|253:342|193:300,1,105,8|0,0:0|0:0,0:0:0:0:
152,312,71524,6,0,L|158:368,2,35,2|0|0,0:0|0:0|0:0,0:0:0:0:
81,253,71843,2,0,L|29:276,2,35,8|0|0,0:0|0:0|0:0,0:0:0:0:
111,170,72162,2,0,L|73:128,2,35,2|0|0,0:0|0:0|0:0,0:0:0:0:
205,175,72481,2,0,L|233:126,2,35,8|0|0,0:0|0:0|0:0,0:0:0:0:
229,263,72800,6,0,L|365:253,2,105,2|8|8,0:0|0:0|0:0,0:0:0:0:
127,199,73439,2,0,L|-6:210,2,105,2|8|8,0:0|0:3|0:0,0:0:0:0:
233,127,74077,2,0,P|241:48|214:9,2,105,4|8|8,0:0|0:0|0:0,0:0:0:0:
127,199,74715,2,0,P|119:278|146:317,2,105,2|8|8,0:0|0:0|0:0,0:0:0:0:
231,125,75354,5,2,0:0:0:0:
303,55,75513,2,0,L|295:14,2,35,0|8|8,0:0|0:3|0:3,0:0:0:0:
367,137,75832,2,0,P|380:183|365:226,1,70,8|0,0:0|0:0,0:0:0:0:
372,257,76072,1,8,0:3:0:0:
372,257,76152,1,8,0:3:0:0:
279,287,76311,2,0,P|275:223|295:196,1,70,8|8,0:3|0:3,0:0:0:0:
372,257,76630,6,0,B|288:229|302:307|181:279,1,195.999994018555,6|0,0:0|0:0,0:0:0:0:
91,242,77428,1,0,0:0:0:0:
25,308,77588,2,0,L|31:369,1,48.9999985046387,0|0,0:0|0:0,0:0:0:0:
91,242,77907,6,0,P|97:166|77:131,1,105,8|0,0:0|0:0,0:0:0:0:
53,108,78226,2,0,L|138:102,1,70,8|0,0:0|0:0,0:0:0:0:
215,67,78545,2,0,L|196:-2,2,70,0|0|0,0:0|0:0|0:0,0:0:0:0:
290,142,79024,6,0,L|285:268,1,105,8|0,0:0|0:0,0:0:0:0:
283,292,79343,2,0,L|364:276,1,70,8|0,0:0|0:0,0:0:0:0:
445,246,79662,1,8,0:3:0:0:
445,246,79742,1,8,0:3:0:0:
445,246,79822,2,0,P|440:184|418:159,1,70,8|0,0:0|0:0,0:0:0:0:
359,132,80141,2,0,L|268:145,1,70,8|0,0:0|0:0,0:0:0:0:
190,140,80460,6,0,P|129:154|66:107,1,140,4|2,0:0|0:0,0:0:0:0:
144,63,80939,1,0,0:0:0:0:
190,140,81098,2,0,L|184:219,1,70,2|0,0:0|0:0,0:0:0:0:
271,249,81417,2,0,L|259:337,1,70,2|0,0:0|0:0,0:0:0:0:
180,373,81737,6,0,P|127:381|91:355,1,70,2|0,0:0|0:0,0:0:0:0:
86,257,82056,2,0,P|132:275|150:316,1,70,2|0,0:0|0:0,0:0:0:0:
0,289,82375,2,0,P|0:228|24:200,1,70,2|0,0:0|0:0,0:0:0:0:
69,156,82694,1,2,0:0:0:0:
160,208,82854,6,0,L|329:180,1,140,2|0,0:0|0:0,0:0:0:0:
376,125,83332,1,2,0:0:0:0:
388,37,83492,2,0,P|311:55|285:123,1,140,2|0,0:0|0:0,0:0:0:0:
298,185,83971,1,2,0:0:0:0:
379,252,84130,6,0,B|421:268|452:300|452:300|464:161,1,210,2|2,0:0|0:0,0:0:0:0:
376,125,84769,1,0,0:0:0:0:
298,185,84928,2,0,L|213:182,1,70,2|0,0:0|0:0,0:0:0:0:
146,98,85247,2,0,L|222:102,1,70,2|0,0:0|0:0,0:0:0:0:
85,164,85566,6,0,P|52:128|49:79,1,70,2|8,0:0|0:3,0:0:0:0:
44,63,85806,1,8,0:3:0:0:
44,63,85886,1,8,0:3:0:0:
146,98,86045,2,0,P|178:156|147:230,1,140,2|0,0:0|0:0,0:0:0:0:
68,276,86524,1,2,0:0:0:0:
160,325,86683,2,0,L|252:310,1,70,8|8,0:3|0:3,0:0:0:0:
339,317,87003,2,0,B|389:330|417:373|417:373|504:286,1,210,2|8,0:0|0:3,0:0:0:0:
512,189,87641,5,8,0:3:0:0:
424,230,87800,1,8,0:3:0:0:
431,133,87960,1,8,0:3:0:0:
338,175,88120,6,0,P|280:146|256:93,1,115.50000352478,12|0,0:0|0:0,0:0:0:0:
245,30,88439,2,0,L|159:42,1,77.0000023498536,8|0,0:0|0:0,0:0:0:0:
82,94,88758,1,2,0:0:0:0:
0,50,88917,1,0,0:0:0:0:
77,0,89077,1,8,0:0:0:0:
164,54,89237,6,0,P|172:109|129:173,1,115.50000352478,2|0,0:0|0:0,0:0:0:0:
123,238,89556,2,0,L|210:230,1,77.0000023498536,0|8,0:0|0:0,0:0:0:0:
348,309,90035,2,0,L|251:319,1,77.0000023498536,2|0,0:0|0:0,0:0:0:0:
343,218,90354,2,0,P|410:243|425:272,1,77.0000023498536,8|0,0:0|0:0,0:0:0:0:
483,176,90673,6,0,P|476:76|409:38,1,154.000004699707,2|8,0:0|0:0,0:0:0:0:
396,131,91152,1,0,0:0:0:0:
343,218,91311,2,0,L|361:297,1,77.0000023498536,2|0,0:0|0:0,0:0:0:0:
280,362,91630,2,0,L|262:277,1,77.0000023498536,8|0,0:0|0:0,0:0:0:0:
208,201,91949,5,2,0:0:0:0:
104,291,92269,1,8,0:0:0:0:
28,169,92588,2,0,P|23:97|37:71,1,77.0000023498536,2|0,0:0|0:0,0:0:0:0:
93,32,92907,1,8,0:0:0:0:
174,85,93066,6,0,B|257:77|240:129|326:112,1,154.000004699707,2|2,0:0|0:0,0:0:0:0:
424,82,93545,1,8,0:0:0:0:
346,21,93705,2,0,P|321:95|367:157,1,154.000004699707,2|2,0:0|0:0,0:0:0:0:
456,187,94183,1,8,0:0:0:0:
361,154,94343,6,0,L|186:168,1,154.000004699707,2|2,0:0|0:0,0:0:0:0:
160,258,94822,2,0,L|252:249,1,77.0000023498536,8|0,0:0|0:0,0:0:0:0:
92,200,95141,2,0,P|72:252|94:314,1,115.50000352478,2|0,0:0|0:0,0:0:0:0:
102,349,95460,2,0,L|7:343,1,77.0000023498536,8|0,0:0|0:0,0:0:0:0:
161,252,95779,6,0,P|177:175|139:127,1,115.50000352478,2|0,0:0|0:0,0:0:0:0:
124,125,96098,2,0,L|147:34,1,77.0000023498536,8|0,0:0|0:0,0:0:0:0:
246,22,96417,2,0,L|212:139,1,115.50000352478,2|0,0:0|0:0,0:0:0:0:
200,177,96737,2,0,L|303:165,1,77.0000023498536,8|0,0:0|0:0,0:0:0:0:
364,226,97056,5,2,0:0:0:0:
314,305,97215,1,0,0:0:0:0:
224,344,97375,2,0,P|221:280|245:248,1,77.0000023498536,8|0,0:0|0:0,0:0:0:0:
200,177,97694,1,2,0:0:0:0:
110,209,97854,1,0,0:0:0:0:
58,302,98013,2,0,L|152:296,1,77.0000023498536,8|0,0:0|0:0,0:0:0:0:
224,344,98332,5,8,0:0:0:0:
314,305,98492,1,8,0:0:0:0:
510,263,98811,2,0,L|422:250,1,77.0000023498536,8|0,0:0|0:0,0:0:0:0:
361,186,99130,2,0,P|357:117|405:73,1,115.50000352478,8|0,0:0|0:0,0:0:0:0:
463,67,99449,6,0,L|445:146,1,77.0000023498536,8|0,0:0|0:0,0:0:0:0:
361,186,99769,2,0,L|338:275,1,77.0000023498536,8|0,0:0|0:0,0:0:0:0:
256,322,100088,2,0,B|165:304|199:379|74:336,1,154.000004699707,8|8,0:0|0:0,0:0:0:0:
40,280,100566,1,8,0:3:0:0:
40,280,100646,1,8,0:3:0:0:
40,280,100726,1,8,0:3:0:0:
128,199,100886,6,0,L|137:286,1,77.0000023498536,4|0,0:0|0:0,0:0:0:0:
228,141,101205,2,0,L|222:233,1,77.0000023498536,8|0,0:0|0:0,0:0:0:0:
338,262,101524,2,0,L|334:180,1,77.0000023498536,2|0,0:0|0:0,0:0:0:0:
437,195,101843,2,0,L|418:97,1,77.0000023498536,8|0,0:0|0:0,0:0:0:0:
403,26,102162,6,0,B|365:33|341:64|341:64|310:33|264:22,1,154.000004699707,8|8,0:3|0:0,0:0:0:0:
181,40,102641,1,0,0:0:0:0:
122,110,102800,2,0,L|136:190,1,77.0000023498536,8|8,0:3|0:3,0:0:0:0:
86,268,103120,2,0,L|32:260,2,38.5000011749268,8|8|8,0:3|0:3|0:3,0:0:0:0:
185,265,103439,6,0,P|196:309|179:355,1,70,4|0,0:0|0:0,0:0:0:0:
171,377,103678,1,0,0:0:0:0:
171,377,103758,2,0,L|262:367,1,70,8|8,0:0|0:3,0:0:0:0:
314,306,104077,2,0,L|389:304,1,70,8|0,0:3|0:0,0:0:0:0:
469,307,104396,1,8,0:0:0:0:
512,224,104556,6,0,P|510:154|491:133,1,70,0|0,0:0|0:0,0:0:0:0:
446,94,104875,1,0,0:0:0:0:
368,141,105035,2,0,L|285:144,1,70,8|0,0:0|0:0,0:0:0:0:
255,150,105274,1,0,0:0:0:0:
255,150,105354,2,0,L|274:209,2,35,8|0|0,0:3|0:0|0:0,0:0:0:0:
169,89,105673,2,0,P|161:49|186:5,1,70,8|0,0:0|0:0,0:0:0:0:
251,59,105992,6,0,L|294:55,2,35,2|0|0,0:0|0:0|0:0,0:0:0:0:
177,164,106311,2,0,P|132:157|106:127,1,70,8|8,0:0|0:3,0:0:0:0:
75,118,106550,1,8,0:3:0:0:
75,118,106630,2,0,L|80:208,1,70,8|0,0:3|0:0,0:0:0:0:
91,277,106949,2,0,L|179:252,1,70,8|0,0:0|0:0,0:0:0:0:
255,221,107269,6,0,L|257:172,2,35,2|0|0,0:0|0:0|0:0,0:0:0:0:
233,313,107588,1,8,0:0:0:0:
331,287,107747,1,8,0:3:0:0:
331,287,107827,1,0,0:0:0:0:
331,287,107907,2,0,B|403:269|395:326|474:306,1,140,0|8,0:0|0:0,0:0:0:0:
512,233,108386,1,0,0:0:0:0:
421,155,108545,6,0,L|430:239,1,70,4|8,0:0|0:3,0:0:0:0:
323,177,108864,2,0,L|318:87,1,70,8|8,0:3|0:0,0:0:0:0:
407,65,109183,1,2,0:0:0:0:
421,155,109343,1,0,0:0:0:0:
323,177,109503,2,0,L|228:163,1,70,8|0,0:0|0:0,0:0:0:0:
165,243,109822,6,0,L|262:258,1,70,4|8,0:0|0:3,0:0:0:0:
315,296,110141,2,0,L|293:380,1,70,8|8,0:3|0:0,0:0:0:0:
206,383,110460,1,2,0:0:0:0:
126,323,110620,1,0,0:0:0:0:
165,243,110779,1,8,0:0:0:0:
165,243,110859,1,8,0:3:0:0:
165,243,110939,1,8,0:3:0:0:
256,186,111098,6,0,L|260:257,1,52.5000020027161,2|0,0:0|0:0,0:0:0:0:
342,146,111417,2,0,L|340:212,1,52.5000020027161,0|0,0:0|0:0,0:0:0:0:
414,273,111737,1,0,0:0:0:0:
428,191,111896,1,0,0:0:0:0:
441,109,112056,1,0,0:0:0:0:
342,146,112215,6,0,B|287:126|225:130|190:177|176:253|176:253|79:200|19:164|32:48|108:29|157:37|194:75,1,595,12|0,0:0|0:0,0:0:0:0:
