osu file format v14

[General]
AudioFilename: Long Version.mp3
AudioLeadIn: 0
PreviewTime: 52983
Countdown: 0
SampleSet: Normal
StackLeniency: 0.7
Mode: 0
LetterboxInBreaks: 0
WidescreenStoryboard: 0

[Editor]
Bookmarks: 144233
DistanceSpacing: 1.3
BeatDivisor: 4
GridSize: 4
TimelineZoom: 1.7

[Metadata]
Title:Pochiko no Shiawase na Nichijou (Long Version)
TitleUnicode:ポチコの幸せな日常(Long Version)
Artist:NU-KO
ArtistUnicode:NU-KO
Creator:SnowNiNo_
Version:Hard
Source:pop'n music Sunny Park
Tags:StarForYou arronchu1207 DeRandom Otaku Deppyforce Ren Akitoshi Corinn わんわんコア pupcore pon daichi watanabe jubeat saucer fulfill reflec beat groovin'!! upper original soundtrack vol.2 nuko yuzuki konami bemani
BeatmapID:687061
BeatmapSetID:307034

[Difficulty]
HPDrainRate:5
CircleSize:4
OverallDifficulty:6
ApproachRate:8
SliderMultiplier:1.4
SliderTickRate:1

[Events]
//Background and Video events
0,0,"B-yk9UfUIAAnrsy.jpg",0,0
//Break Periods
2,150058,158483
//Storyboard Layer 0 (Background)
//Storyboard Layer 1 (Fail)
//Storyboard Layer 2 (Pass)
//Storyboard Layer 3 (Foreground)
//Storyboard Sound Samples

[TimingPoints]
9858,312.5,4,1,2,20,1,0
10795,-100,4,1,2,40,0,0
10951,-100,4,1,2,50,0,0
11108,-100,4,1,2,50,0,0
16108,-100,4,1,2,60,0,0
16342,-100,4,1,2,5,0,0
16420,-100,4,1,2,60,0,0
16654,-100,4,1,2,5,0,0
16733,-100,4,1,2,60,0,0
18295,-100,4,1,2,80,0,0
18608,-100,4,1,2,40,0,0
19858,-100,4,1,2,40,0,0
21108,-100,4,1,2,40,0,0
22983,-100,4,1,2,60,0,0
39858,-100,4,1,2,60,0,0
48608,-100,4,1,2,60,0,0
52983,-133.333333333333,4,1,2,40,0,0
53451,-100,4,1,2,40,0,0
53920,-100,4,1,2,90,0,1
66108,-100,4,1,2,60,0,0
73608,-100,4,1,2,40,0,0
77983,-100,4,1,2,60,0,0
116108,-100,4,1,2,60,0,0
123608,-200,4,1,2,60,0,0
124545,-100,4,1,2,60,0,0
129233,-133.333333333333,4,1,2,40,0,0
129701,-100,4,1,2,90,0,0
130170,-100,4,1,2,90,0,1
142358,-100,4,1,2,60,0,0
149858,-100,4,1,2,50,0,0
181733,-111.111111111111,4,1,2,50,0,0
182670,-133.333333333333,4,1,2,20,0,0
201733,-200,4,1,2,5,0,0
202045,-100,4,1,2,40,0,0
202201,-100,4,1,2,40,0,0
203608,-100,4,1,2,90,0,1
217358,-100,4,1,2,60,0,0

[Colours]
Combo1 : 255,214,89
Combo2 : 24,197,171
Combo3 : 196,157,77
Combo4 : 249,142,158

[HitObjects]
240,160,11108,6,0,P|300:124|388:140,1,140,4|12,0:0|0:0,0:0:0:0:
444,177,11576,1,0,0:0:0:0:
417,264,11733,2,0,L|259:246,1,140,4|12,0:0|0:0,0:0:0:0:
187,251,12201,1,0,0:0:0:0:
152,166,12358,6,0,L|144:77,1,70,6|0,0:0|0:0,0:0:0:0:
222,61,12670,2,0,L|229:131,1,70,12|0,0:0|0:0,0:0:0:0:
306,97,12983,2,0,L|298:8,1,70,4|0,0:0|0:0,0:0:0:0:
383,63,13295,1,12,0:0:0:0:
407,150,13451,6,0,P|407:206|343:274,1,140,2|0,0:0|0:0,0:0:0:0:
269,299,13920,2,0,L|201:287,1,70,12|0,0:0|0:0,0:0:0:0:
126,232,14233,2,0,L|58:244,1,70,4|4,0:0|0:0,0:0:0:0:
14,324,14545,1,12,0:0:0:0:
13,162,14701,1,4,0:0:0:0:
13,162,15014,6,0,L|23:82,2,70,4|4|4,0:0|0:0|0:0,0:0:0:0:
57,244,15483,2,0,P|94:212|125:200,1,70,6|4,0:0|0:0,0:0:0:0:
163,128,15795,2,0,P|200:160|231:172,1,70,12|4,0:0|0:0,0:0:0:0:
300,127,16108,5,4,0:0:0:0:
227,293,16420,1,4,0:0:0:0:
300,127,16733,2,0,L|377:116,1,70,4|0,0:0|0:0,0:0:0:0:
360,26,17045,2,0,L|321:20,2,35,12|0|0,0:0|0:0|0:0,0:0:0:0:
443,64,17358,5,4,0:0:0:0:
369,117,17514,1,4,0:0:0:0:
450,156,17670,1,12,0:0:0:0:
376,209,17826,1,6,0:0:0:0:
376,209,18608,6,0,L|412:349,2,140,4|0|12,0:0|0:0|0:0,0:0:0:0:
310,145,19389,2,0,L|326:49,1,70,0|0,0:0|0:0,0:0:0:0:
140,93,19858,6,0,L|152:246,1,140,8|0,0:0|0:0,0:0:0:0:
195,311,20326,2,0,P|250:311|312:248,1,140
330,164,20795,1,0,0:0:0:0:
185,52,21108,6,0,P|125:48|61:96,1,140,8|0,0:0|0:0,0:0:0:0:
48,182,21576,1,0,0:0:0:0:
77,268,21733,2,0,L|66:355,2,70,8|0|0,0:0|0:0|0:0,0:0:0:0:
135,198,22201,6,0,P|179:162|283:174,1,140,0|0,0:0|0:0,0:0:0:0:
355,161,22670,2,0,L|343:253,1,70,0|0,0:0|0:0,0:0:0:0:
389,360,22983,5,4,0:0:0:0:
309,315,23139,1,0,0:0:0:0:
229,358,23295,2,0,P|181:342|157:310,1,70,4|0,0:0|0:0,0:0:0:0:
81,359,23608,6,0,P|129:306|132:221,1,140,4|12,0:0|0:0,0:0:0:0:
121,150,24076,1,0,0:0:0:0:
165,70,24233,2,0,L|316:58,1,140,4|12,0:0|0:0,0:0:0:0:
387,96,24701,1,0,0:0:0:0:
413,183,24858,6,0,L|405:262,1,70,6|0,0:0|0:0,0:0:0:0:
334,308,25170,2,0,L|326:229,1,70,12|0,0:0|0:0,0:0:0:0:
290,154,25483,1,4,0:0:0:0:
203,127,25639,1,0,0:0:0:0:
117,158,25795,2,0,L|101:250,1,70,12|0,0:0|0:0,0:0:0:0:
106,318,26108,5,4,0:0:0:0:
106,318,26264,2,0,P|178:281|245:294,1,140,0|0,0:0|0:0,0:0:0:0:
317,325,26733,2,0,P|309:283|308:245,1,70,4|0,0:0|0:0,0:0:0:0:
378,198,27045,2,0,P|386:156|387:118,1,70,12|0,0:0|0:0,0:0:0:0:
389,38,27358,5,4,0:0:0:0:
309,81,27514,1,4,0:0:0:0:
387,128,27670,1,4,0:0:0:0:
389,38,27826,1,6,0:0:0:0:
389,38,28139,5,6,0:0:0:0:
307,171,28295,1,14,0:0:0:0:
307,171,28608,6,0,P|371:191|407:268,2,140,4|12|4,0:0|0:0|0:0,0:0:0:0:
217,189,29389,2,0,L|226:105,1,70,0|12,0:0|0:0,0:0:0:0:
279,47,29701,2,0,P|320:63|423:61,1,140,0|0,0:0|0:0,0:0:0:0:
472,134,30170,2,0,L|484:182,2,35,12|0|0,0:0|0:0|0:0,0:0:0:0:
392,180,30483,2,0,L|372:265,1,70,4|0,0:0|0:0,0:0:0:0:
443,309,30795,1,12,0:0:0:0:
266,353,31108,6,0,B|114:360,1,140,4|12,0:0|0:0,0:0:0:0:
35,365,31576,1,0,0:0:0:0:
30,273,31733,2,0,L|38:193,2,70,4|0|12,0:0|0:0|0:0,0:0:0:0:
120,262,32201,6,0,P|159:229|257:223,1,140,0|2,0:0|0:0,0:0:0:0:
333,242,32670,2,0,L|326:159,1,70,12|0,0:0|0:0,0:0:0:0:
248,126,32983,2,0,L|255:43,1,70,12|0,0:0|0:0,0:0:0:0:
335,16,33295,1,12,0:0:0:0:
412,62,33451,1,0,0:0:0:0:
412,153,33608,6,0,L|402:319,1,140,4|12,0:0|0:0,0:0:0:0:
331,348,34076,1,0,0:0:0:0:
253,299,34233,2,0,P|269:259|269:219,1,70,4|0,0:0|0:0,0:0:0:0:
322,157,34545,2,0,P|306:117|306:77,1,70,12|0,0:0|0:0,0:0:0:0:
382,42,34858,6,0,L|454:62,1,70,4|0,0:0|0:0,0:0:0:0:
481,145,35170,2,0,L|409:165,1,70,12|0,0:0|0:0,0:0:0:0:
322,157,35483,1,4,0:0:0:0:
322,157,35639,1,0,0:0:0:0:
286,240,35795,2,0,L|198:224,1,70,12|0,0:0|0:0,0:0:0:0:
126,217,36108,5,4,0:0:0:0:
126,217,36264,2,0,P|146:162|126:74,1,140,0|0,0:0|0:0,0:0:0:0:
52,38,36733,2,0,L|41:112,1,70,4|0,0:0|0:0,0:0:0:0:
14,193,37045,2,0,L|25:267,1,70,12|0,0:0|0:0,0:0:0:0:
57,347,37358,6,0,P|107:329|150:331,1,70,4|2,0:0|0:0,0:0:0:0:
210,353,37670,1,12,0:0:0:0:
210,353,37826,1,0,0:0:0:0:
183,265,37983,2,0,L|180:181,1,70,4|2,0:0|0:0,0:0:0:0:
175,104,38295,1,12,0:0:0:0:
175,104,38451,1,0,0:0:0:0:
254,149,38608,6,0,P|298:157|330:181,1,70,4|2,0:0|0:0,0:0:0:0:
374,242,38920,2,0,P|343:258|309:263,1,70,12|0,0:0|0:0,0:0:0:0:
409,157,39233,2,0,P|451:193|454:290,1,140,4|12,0:0|0:0,0:0:0:0:
280,299,39858,6,0,L|196:319,1,70,4|0,0:0|0:0,0:0:0:0:
143,257,40170,2,0,L|99:233,2,35,4|0|0,0:0|0:0|0:0,0:0:0:0:
194,181,40483,6,0,L|170:97,1,70,4|0,0:0|0:0,0:0:0:0:
256,74,40795,2,0,L|292:54,2,35,4|0|0,0:0|0:0|0:0,0:0:0:0:
327,131,41108,6,0,L|415:139,1,70,4|0,0:0|0:0,0:0:0:0:
379,226,41420,2,0,L|407:250,2,35,4|0|0,0:0|0:0|0:0,0:0:0:0:
297,268,41733,6,0,P|285:308|253:340,1,70,6|4,0:0|0:0,0:0:0:0:
177,340,42045,2,0,P|189:300|221:268,1,70,6|4,0:0|0:0,0:0:0:0:
157,201,42358,6,0,L|73:169,1,70,6|0,0:0|0:0,0:0:0:0:
100,85,42670,2,0,L|84:49,2,35,4|0|0,0:0|0:0|0:0,0:0:0:0:
191,90,42983,6,0,L|267:50,1,70,4|0,0:0|0:0,0:0:0:0:
323,114,43295,2,0,L|359:110,2,35,4|0|0,0:0|0:0|0:0,0:0:0:0:
349,201,43608,6,0,L|401:253,1,70,4|0,0:0|0:0,0:0:0:0:
313,283,43920,2,0,L|309:319,2,35,4|0|0,0:0|0:0|0:0,0:0:0:0:
222,294,44233,6,0,P|174:294|142:278,1,70,6|0,0:0|0:0,0:0:0:0:
129,198,44545,2,0,P|83:181|59:155,1,70,6|0,0:0|0:0,0:0:0:0:
88,78,44858,6,0,L|168:38,1,70,6|0,0:0|0:0,0:0:0:0:
212,113,45170,2,0,L|248:113,2,35,4|0|0,0:0|0:0|0:0,0:0:0:0:
270,183,45483,6,0,L|342:227,1,70,4|0,0:0|0:0,0:0:0:0:
275,292,45795,2,0,L|287:324,2,35,4|0|0,0:0|0:0|0:0,0:0:0:0:
187,319,46108,6,0,L|99:307,1,70,4|0,0:0|0:0,0:0:0:0:
121,218,46420,2,0,L|77:194,2,35,4|0|0,0:0|0:0|0:0,0:0:0:0:
175,144,46733,6,0,P|191:100|187:60,1,70,6|4,0:0|0:0,0:0:0:0:
257,195,47045,2,0,P|241:239|245:279,1,70,6|4,0:0|0:0,0:0:0:0:
309,322,47358,5,4,0:0:0:0:
168,60,48295,5,8,0:0:0:0:
168,60,48608,6,0,P|208:48|316:80,1,140,6|12,0:0|0:0,0:0:0:0:
356,141,49076,1,0,0:0:0:0:
384,227,49233,2,0,P|404:279|372:363,1,140,4|12,0:0|0:0,0:0:0:0:
287,360,49701,1,0,0:0:0:0:
197,340,49858,6,0,L|129:296,1,70,4|0,0:0|0:0,0:0:0:0:
188,226,50170,2,0,L|160:158,1,70,12|0,0:0|0:0,0:0:0:0:
252,151,50483,2,0,L|256:67,1,70,4|0,0:0|0:0,0:0:0:0:
326,24,50795,1,12,0:0:0:0:
326,24,50951,1,0,0:0:0:0:
383,95,51108,6,0,L|393:137,3,35,4|0|0|0,0:0|0:0|0:0|0:0,0:0:0:0:
357,159,51420,2,0,L|347:201,3,35,12|0|0|0,0:0|0:0|0:0|0:0,0:0:0:0:
384,222,51733,2,0,L|394:264,3,35,4|0|0|0,0:0|0:0|0:0|0:0,0:0:0:0:
354,280,52045,2,0,L|344:322,3,35,12|0|0|0,0:0|0:0|0:0|0:0,0:0:0:0:
375,349,52358,5,4,0:0:0:0:
375,349,52514,1,4,0:0:0:0:
375,349,52670,1,12,0:0:0:0:
68,168,52983,6,0,L|56:236,2,52.5000020027161,4|4|4,0:0|0:0|0:0,0:0:0:0:
167,170,53451,6,0,P|219:154|247:58,1,140,4|0,0:0|0:0,0:0:0:0:
259,72,53842,1,0,0:0:0:0:
265,63,53920,2,0,L|355:53,1,70,12|0,0:0|0:0,0:0:0:0:
403,115,54233,2,0,L|493:124,2,70,4|0|12,0:0|0:0|0:0,0:0:0:0:
327,165,54701,6,0,P|306:200|300:234,1,70,0|4,0:0|0:0,0:0:0:0:
360,296,55014,2,0,P|381:261|387:227,1,70,0|12,0:0|0:0,0:0:0:0:
464,185,55326,2,0,L|475:340,1,140,0|0,0:0|0:0,0:0:0:0:
398,377,55795,1,12,0:0:0:0:
360,296,55951,6,0,P|319:258|233:249,1,140,0|0,0:0|0:0,0:0:0:0:
158,200,56420,2,0,P|174:168|176:134,1,70,12|0,0:0|0:0,0:0:0:0:
158,294,56733,2,0,L|166:382,2,70,4|0|12,0:0|0:0|0:0,0:0:0:0:
80,247,57201,5,4,0:0:0:0:
244,324,57514,1,4,0:0:0:0:
229,142,57826,1,4,0:0:0:0:
80,247,58139,1,4,0:0:0:0:
244,324,58451,6,0,L|394:309,1,140,4|0,0:0|0:0,0:0:0:0:
400,310,58842,1,0,0:0:0:0:
417,309,58920,2,0,P|451:278|459:246,1,70,12|0,0:0|0:0,0:0:0:0:
370,228,59233,2,0,P|336:197|328:165,1,70,4|0,0:0|0:0,0:0:0:0:
416,152,59545,1,12,0:0:0:0:
353,86,59701,6,0,B|192:71,1,140,0|0,0:0|0:0,0:0:0:0:
122,64,60170,1,12,0:0:0:0:
160,146,60326,2,0,B|299:158,1,140,0|0,0:0|0:0,0:0:0:0:
353,86,60795,1,12,0:0:0:0:
389,169,60951,6,0,L|403:310,1,140,0|0,0:0|0:0,0:0:0:0:
323,354,61420,2,0,P|290:334|245:324,1,70,12|0,0:0|0:0,0:0:0:0:
230,238,61733,2,0,P|197:258|152:268,1,70,4|0,0:0|0:0,0:0:0:0:
125,347,62045,2,0,P|91:336|61:318,1,70,12|0,0:0|0:0,0:0:0:0:
10,242,62358,6,0,P|45:215|69:119,1,140,6|12,0:0|0:0,0:0:0:0:
35,42,62826,2,0,P|73:93|158:111,1,140,0|0,0:0|0:0,0:0:0:0:
216,56,63295,2,0,P|233:92|233:127,1,70,12|0,0:0|0:0,0:0:0:0:
178,194,63608,5,4,0:0:0:0:
178,194,63764,1,4,0:0:0:0:
427,82,64233,5,4,0:0:0:0:
427,82,64389,1,4,0:0:0:0:
172,342,64858,6,0,P|184:278|257:217,1,140,4|0,0:0|0:0,0:0:0:0:
303,166,65326,2,0,P|258:190|150:179,1,140,0|0,0:0|0:0,0:0:0:0:
133,105,65795,1,0,0:0:0:0:
81,180,65951,1,0,0:0:0:0:
118,263,66108,6,0,P|163:279|196:277,1,70,4|0,0:0|0:0,0:0:0:0:
252,339,66420,2,0,P|297:323|330:325,1,70,12|0,0:0|0:0,0:0:0:0:
407,300,66733,2,0,P|415:248|359:160,1,140,4|12,0:0|0:0,0:0:0:0:
303,117,67201,1,0,0:0:0:0:
213,136,67358,5,4,0:0:0:0:
213,136,67436,1,0,0:0:0:0:
213,136,67514,2,0,L|185:204,1,70,0|12,0:0|0:0,0:0:0:0:
106,243,67826,1,0,0:0:0:0:
167,310,67983,2,0,L|263:282,1,70,4|0,0:0|0:0,0:0:0:0:
310,340,68295,1,12,0:0:0:0:
326,238,68451,6,0,P|310:162|350:106,1,140,0|0,0:0|0:0,0:0:0:0:
349,21,68920,2,0,L|264:29,1,70,12|0,0:0|0:0,0:0:0:0:
218,96,69233,2,0,L|133:88,1,70,4|0,0:0|0:0,0:0:0:0:
76,33,69545,1,12,0:0:0:0:
107,171,69701,1,0,0:0:0:0:
31,336,70014,6,0,L|43:247,2,70,4|12|4,0:0|0:0|0:0,0:0:0:0:
118,362,70483,2,0,P|160:343|190:340,1,70,6|0,0:0|0:0,0:0:0:0:
236,266,70795,2,0,P|278:285|308:288,1,70,4|0,0:0|0:0,0:0:0:0:
388,259,71108,5,4,0:0:0:0:
223,181,71420,1,4,0:0:0:0:
240,362,71733,2,0,L|150:353,1,70,4|0,0:0|0:0,0:0:0:0:
89,313,72045,2,0,L|54:316,2,35,12|0|0,0:0|0:0|0:0,0:0:0:0:
165,263,72358,5,4,0:0:0:0:
84,220,72514,1,4,0:0:0:0:
161,172,72670,1,4,0:0:0:0:
80,129,72826,1,6,0:0:0:0:
408,104,73608,6,0,P|436:164|400:240,2,140,4|4|4,0:0|0:0|0:0,0:0:0:0:
329,57,74389,1,0,0:0:0:0:
243,88,74545,2,0,P|234:136|250:171,1,70,4|0,0:0|0:0,0:0:0:0:
225,245,74858,6,0,P|196:284|96:307,2,140,4|4|4,0:0|0:0|0:0,0:0:0:0:
240,155,75639,1,0,0:0:0:0:
194,76,75795,2,0,P|154:63|105:72,1,70,4|0,0:0|0:0,0:0:0:0:
53,119,76108,6,0,L|46:196,1,70,4|0,0:0|0:0,0:0:0:0:
114,249,76420,2,0,L|121:326,1,70,4|0,0:0|0:0,0:0:0:0:
200,363,76733,2,0,P|247:368|281:350,1,70,4|0,0:0|0:0,0:0:0:0:
336,300,77045,1,4,0:0:0:0:
336,300,77201,6,0,B|321:138,1,140
240,120,77670,2,0,B|233:189,1,70,4|0,0:0|0:0,0:0:0:0:
210,278,77983,5,4,0:0:0:0:
146,213,78139,1,0,0:0:0:0:
123,301,78295,2,0,P|86:314|46:317,1,70,4|0,0:0|0:0,0:0:0:0:
35,227,78608,6,0,L|44:146,1,70,4|0,0:0|0:0,0:0:0:0:
127,126,78920,2,0,L|136:207,1,70,12|0,0:0|0:0,0:0:0:0:
217,234,79233,2,0,L|226:153,1,70,4|0,0:0|0:0,0:0:0:0:
309,133,79545,2,0,L|318:214,1,70,12|0,0:0|0:0,0:0:0:0:
295,291,79858,6,0,P|328:234|423:224,1,140,4|12,0:0|0:0,0:0:0:0:
384,305,80326,1,0,0:0:0:0:
327,376,80483,2,0,L|180:364,1,140,4|12,0:0|0:0,0:0:0:0:
96,359,80951,1,0,0:0:0:0:
146,282,81108,6,0,L|215:287,1,70,4|0,0:0|0:0,0:0:0:0:
257,206,81420,2,0,L|326:200,1,70,12|0,0:0|0:0,0:0:0:0:
393,262,81733,1,4,0:0:0:0:
415,174,81889,1,0,0:0:0:0:
349,110,82045,2,0,L|279:104,1,70,12|0,0:0|0:0,0:0:0:0:
188,95,82358,5,4,0:0:0:0:
225,177,82514,1,4,0:0:0:0:
279,104,82670,1,4,0:0:0:0:
188,95,82826,1,4,0:0:0:0:
188,95,83139,5,6,0:0:0:0:
316,186,83295,1,6,0:0:0:0:
316,186,83608,6,0,L|404:162,2,70,4|0|12,0:0|0:0|0:0,0:0:0:0:
183,310,84233,2,0,L|95:286,2,70,4|0|12,0:0|0:0|0:0,0:0:0:0:
246,374,84701,6,0,L|404:330,1,140,0|0,0:0|0:0,0:0:0:0:
443,270,85170,2,0,L|386:254,2,35,12|0|0,0:0|0:0|0:0,0:0:0:0:
409,184,85483,2,0,L|488:162,1,70,4|0,0:0|0:0,0:0:0:0:
411,102,85795,2,0,P|366:110|336:144,1,70,12|0,0:0|0:0,0:0:0:0:
259,147,86108,6,0,P|280:180|288:235,1,70,4|0,0:0|0:0,0:0:0:0:
362,261,86420,2,0,P|341:294|333:349,1,70,12|0,0:0|0:0,0:0:0:0:
252,366,86733,2,0,P|212:330|117:328,1,140,4|12,0:0|0:0,0:0:0:0:
46,361,87201,6,0,P|89:331|104:231,1,140,0|2,0:0|0:0,0:0:0:0:
84,161,87670,1,12,0:0:0:0:
84,161,87826,1,0,0:0:0:0:
172,184,87983,2,0,P|220:198|250:199,1,70,4|0,0:0|0:0,0:0:0:0:
267,285,88295,2,0,P|315:271|345:270,1,70,12|0,0:0|0:0,0:0:0:0:
416,310,88608,6,0,L|408:149,1,140,4|12,0:0|0:0,0:0:0:0:
403,79,89076,1,0,0:0:0:0:
328,131,89233,2,0,P|297:151|184:158,1,140,4|12,0:0|0:0,0:0:0:0:
122,108,89701,1,0,0:0:0:0:
94,195,89858,6,0,L|88:276,1,70,4|0,0:0|0:0,0:0:0:0:
145,335,90170,1,12,0:0:0:0:
179,250,90326,1,0,0:0:0:0:
235,321,90483,2,0,P|281:346|319:347,1,70,4|0,0:0|0:0,0:0:0:0:
364,286,90795,2,0,P|318:261|280:260,1,70,12|0,0:0|0:0,0:0:0:0:
213,231,91108,5,4,0:0:0:0:
213,231,91264,2,0,P|258:171|251:92,1,140,0|0,0:0|0:0,0:0:0:0:
195,40,91733,2,0,P|162:56|126:61,1,70,4|0,0:0|0:0,0:0:0:0:
40,43,92045,2,0,P|56:87|58:117,1,70,12|0,0:0|0:0,0:0:0:0:
24,194,92358,6,0,L|102:200,1,70,6|0,0:0|0:0,0:0:0:0:
150,128,92670,2,0,L|228:122,1,70,12|0,0:0|0:0,0:0:0:0:
265,201,92983,2,0,L|343:207,1,70,4|0,0:0|0:0,0:0:0:0:
391,135,93295,2,0,L|469:129,1,70,12|0,0:0|0:0,0:0:0:0:
488,216,93608,6,0,P|466:254|458:286,1,70,4|0,0:0|0:0,0:0:0:0:
498,360,93920,1,12,0:0:0:0:
498,360,94076,2,0,L|353:344,1,140,0|0,0:0|0:0,0:0:0:0:
267,338,94545,1,12,0:0:0:0:
267,338,94623,1,0,0:0:0:0:
267,338,94701,1,0,0:0:0:0:
202,273,94858,6,0,P|186:221|218:137,1,140,4|12,0:0|0:0,0:0:0:0:
283,84,95326,1,0,0:0:0:0:
374,84,95483,2,0,P|416:86|450:101,1,70,4|0,0:0|0:0,0:0:0:0:
490,172,95795,2,0,L|406:179,1,70,12|0,0:0|0:0,0:0:0:0:
329,168,96108,5,4,0:0:0:0:
366,250,96264,1,0,0:0:0:0:
275,242,96420,2,0,L|191:235,1,70,12|0,0:0|0:0,0:0:0:0:
114,228,96733,2,0,P|134:266|142:310,1,70,4|0,0:0|0:0,0:0:0:0:
79,359,97045,2,0,P|59:321|51:277,1,70,12|0,0:0|0:0,0:0:0:0:
27,207,97358,6,0,L|39:132,1,70,4|0,0:0|0:0,0:0:0:0:
115,91,97670,2,0,L|127:166,1,70,12|0,0:0|0:0,0:0:0:0:
200,213,97983,2,0,L|212:138,2,70,4|0|12,0:0|0:0|0:0,0:0:0:0:
135,277,98451,6,0,P|177:245|273:243,1,140,0|2,0:0|0:0,0:0:0:0:
349,213,98920,2,0,P|318:194|296:161,1,70,12|0,0:0|0:0,0:0:0:0:
381,128,99233,1,4,0:0:0:0:
436,199,99389,1,2,0:0:0:0:
406,284,99545,2,0,L|394:361,1,70,12|0,0:0|0:0,0:0:0:0:
306,373,99858,6,0,L|294:296,1,70,4|0,0:0|0:0,0:0:0:0:
228,242,100170,1,12,0:0:0:0:
228,242,100326,1,0,0:0:0:0:
149,194,100483,2,0,L|161:117,1,70,4|0,0:0|0:0,0:0:0:0:
227,63,100795,1,12,0:0:0:0:
227,63,100951,1,0,0:0:0:0:
287,131,101108,6,0,L|297:200,1,70,4|0,0:0|0:0,0:0:0:0:
379,239,101420,2,0,L|368:308,1,70,12|0,0:0|0:0,0:0:0:0:
294,362,101733,1,4,0:0:0:0:
294,362,101889,1,0,0:0:0:0:
251,281,102045,2,0,P|200:259|176:258,1,70,12|0,0:0|0:0,0:0:0:0:
109,308,102358,5,4,0:0:0:0:
109,308,102514,2,0,P|157:260|163:181,1,140
235,132,102983,2,0,P|262:161|302:176,1,70,4|0,0:0|0:0,0:0:0:0:
371,212,103295,2,0,P|334:239|309:272,1,70,12|0,0:0|0:0,0:0:0:0:
399,298,103608,5,4,0:0:0:0:
460,231,103764,2,0,L|467:158,2,70,2|12|0,0:0|0:0|0:0,0:0:0:0:
399,298,104233,2,0,L|406:371,1,70,4|2,0:0|0:0,0:0:0:0:
318,257,104545,2,0,L|324:326,1,70,12|0,0:0|0:0,0:0:0:0:
241,364,104858,6,0,P|209:342|168:335,1,70,4|0,0:0|0:0,0:0:0:0:
159,246,105170,2,0,P|123:262|97:294,1,70,12|0,0:0|0:0,0:0:0:0:
49,359,105483,1,4,0:0:0:0:
12,275,105639,2,0,L|23:181,1,70,0|12,0:0|0:0,0:0:0:0:
37,116,105951,6,0,P|65:89|168:67,1,140,4|0,0:0|0:0,0:0:0:0:
224,131,106420,2,0,P|276:151|308:147,1,70,12|0,0:0|0:0,0:0:0:0:
364,98,106733,2,0,P|416:78|448:82,1,70,4|0,0:0|0:0,0:0:0:0:
423,168,107045,2,0,P|441:206|447:247,1,70,12|0,0:0|0:0,0:0:0:0:
393,308,107358,6,0,L|385:356,3,35,4|0|0|0,0:0|0:0|0:0|0:0,0:0:0:0:
349,316,107670,2,0,L|329:352,3,35,12|0|0|0,0:0|0:0|0:0|0:0,0:0:0:0:
307,307,107983,2,0,L|271:323,3,35,4|0|0|0,0:0|0:0|0:0|0:0,0:0:0:0:
276,275,108295,2,0,L|228:275,3,35,12|0|0|0,0:0|0:0|0:0|0:0,0:0:0:0:
263,235,108608,6,0,L|260:145,1,70,4|2,0:0|0:0,0:0:0:0:
285,77,108920,1,12,0:0:0:0:
285,77,109076,1,0,0:0:0:0:
196,100,109233,2,0,P|144:110|108:112,1,70,4|0,0:0|0:0,0:0:0:0:
71,39,109545,1,12,0:0:0:0:
71,39,109701,1,0,0:0:0:0:
36,123,109858,6,0,L|46:225,1,70,4|0,0:0|0:0,0:0:0:0:
134,190,110170,2,0,L|92:284,1,70,12|0,0:0|0:0,0:0:0:0:
128,342,110483,2,0,P|93:343|58:349,1,70,4|0,0:0|0:0,0:0:0:0:
212,371,110795,2,0,P|254:378|288:378,1,70,12|0,0:0|0:0,0:0:0:0:
358,329,111108,6,0,L|351:244,1,70,4|0,0:0|0:0,0:0:0:0:
438,288,111420,2,0,L|431:203,1,70,12|0,0:0|0:0,0:0:0:0:
458,130,111733,1,4,0:0:0:0:
458,130,111889,1,0,0:0:0:0:
370,153,112045,2,0,P|341:171|303:178,1,70,12|0,0:0|0:0,0:0:0:0:
309,86,112358,6,0,P|338:67|372:60,1,70,4|0,0:0|0:0,0:0:0:0:
229,130,112670,2,0,P|194:123|165:104,1,70,12|0,0:0|0:0,0:0:0:0:
76,84,112983,2,0,L|71:164,2,70,4|0|12,0:0|0:0|0:0,0:0:0:0:
139,19,113451,1,0,0:0:0:0:
256,192,113608,12,12,115170,0:0:0:0:
34,38,115483,6,0,L|26:178,1,140,4|12,0:0|0:0,0:0:0:0:
137,321,116108,6,0,P|181:305|222:316,1,70,4|0,0:0|0:0,0:0:0:0:
272,247,116420,2,0,L|256:207,2,35,12|0|0,0:0|0:0|0:0,0:0:0:0:
360,222,116733,6,0,P|392:194|428:182,1,70,4|0,0:0|0:0,0:0:0:0:
454,101,117045,2,0,L|438:69,2,35,12|0|0,0:0|0:0|0:0,0:0:0:0:
362,93,117358,6,0,L|286:77,1,70,4|0,0:0|0:0,0:0:0:0:
203,93,117670,2,0,L|211:141,2,35,12|0|0,0:0|0:0|0:0,0:0:0:0:
114,114,117983,6,0,P|78:146|70:178,1,70,6|4,0:0|0:0,0:0:0:0:
102,251,118295,2,0,P|138:219|158:171,1,70,14|4,0:0|0:0,0:0:0:0:
226,248,118608,6,0,L|294:300,1,70,6|0,0:0|0:0,0:0:0:0:
371,281,118920,2,0,L|371:329,2,35,12|0|0,0:0|0:0|0:0,0:0:0:0:
437,218,119233,6,0,P|413:182|411:143,1,70,4|0,0:0|0:0,0:0:0:0:
344,92,119545,2,0,L|312:68,2,35,12|0|0,0:0|0:0|0:0,0:0:0:0:
278,155,119858,6,0,L|250:227,1,70,4|0,0:0|0:0,0:0:0:0:
182,278,120170,2,0,L|206:318,2,35,12|0|0,0:0|0:0|0:0,0:0:0:0:
90,274,120483,6,0,P|66:222|74:186,1,70,6|0,0:0|0:0,0:0:0:0:
141,159,120795,2,0,P|165:107|157:71,1,70,14|0,0:0|0:0,0:0:0:0:
246,55,121108,6,0,L|338:47,1,70,6|0,0:0|0:0,0:0:0:0:
383,109,121420,2,0,L|399:149,2,35,12|0|0,0:0|0:0|0:0,0:0:0:0:
313,168,121733,6,0,P|298:200|301:243,1,70,4|0,0:0|0:0,0:0:0:0:
220,281,122045,2,0,L|216:317,2,35,12|0|0,0:0|0:0|0:0,0:0:0:0:
139,246,122358,6,0,L|59:234,1,70,4|0,0:0|0:0,0:0:0:0:
117,158,122670,2,0,L|97:130,2,35,12|0|0,0:0|0:0|0:0,0:0:0:0:
191,104,122983,6,0,P|223:80|243:44,1,70,6|4,0:0|0:0,0:0:0:0:
368,48,123295,2,0,P|336:72|316:108,1,70,14|4,0:0|0:0,0:0:0:0:
256,160,123608,5,4,0:0:0:0:
112,56,124545,5,8,0:0:0:0:
112,56,124858,2,0,P|72:120|84:192,1,140,4|12,0:0|0:0,0:0:0:0:
132,254,125326,1,0,0:0:0:0:
218,282,125483,2,0,P|258:282|330:354,1,140,4|12,0:0|0:0,0:0:0:0:
417,359,125951,1,0,0:0:0:0:
474,288,126108,6,0,L|484:140,1,140,4|12,0:0|0:0,0:0:0:0:
482,57,126576,2,0,P|436:88|346:92,1,140,0|0,0:0|0:0,0:0:0:0:
256,192,127201,12,4,128608,0:0:0:0:
385,263,129233,6,0,L|391:188,2,52.5000020027161,4|4|4,0:0|0:0|0:0,0:0:0:0:
396,353,129701,6,0,P|357:311|262:296,1,140,4|0,0:0|0:0,0:0:0:0:
269,298,130092,1,0,0:0:0:0:
259,302,130170,2,0,P|217:319|182:320,1,70,12|0,0:0|0:0,0:0:0:0:
110,280,130483,2,0,L|101:364,2,70,4|0|12,0:0|0:0|0:0,0:0:0:0:
43,218,130951,6,0,P|82:193|116:189,1,70,0|4,0:0|0:0,0:0:0:0:
186,229,131264,2,0,L|194:154,1,70,0|12,0:0|0:0,0:0:0:0:
224,74,131576,2,0,P|263:112|358:126,1,140,0|0,0:0|0:0,0:0:0:0:
422,79,132045,1,12,0:0:0:0:
464,159,132201,6,0,L|476:313,1,140,0|0,0:0|0:0,0:0:0:0:
393,257,132670,2,0,L|386:339,1,70,12|0,0:0|0:0,0:0:0:0:
300,299,132983,2,0,L|306:381,1,70,4|0,0:0|0:0,0:0:0:0:
215,357,133295,1,12,0:0:0:0:
179,273,133451,5,4,0:0:0:0:
320,158,133764,1,4,0:0:0:0:
387,326,134076,1,4,0:0:0:0:
320,158,134389,1,4,0:0:0:0:
179,273,134701,6,0,P|111:264|40:203,1,140,4|0,0:0|0:0,0:0:0:0:
50,213,135092,1,0,0:0:0:0:
49,202,135170,2,0,P|64:151|64:123,1,70,12|0,0:0|0:0,0:0:0:0:
32,49,135483,2,0,P|63:90|166:106,1,140,4|12,0:0|0:0,0:0:0:0:
236,113,135951,6,0,P|184:119|119:200,1,140,0|0,0:0|0:0,0:0:0:0:
213,203,136420,1,12,0:0:0:0:
300,179,136576,2,0,P|324:137|290:41,1,140,0|0,0:0|0:0,0:0:0:0:
236,113,137045,1,12,0:0:0:0:
213,203,137201,6,0,L|224:352,1,140,0|0,0:0|0:0,0:0:0:0:
305,381,137670,2,0,L|310:311,1,70,12|0,0:0|0:0,0:0:0:0:
390,268,137983,2,0,L|395:337,1,70,4|0,0:0|0:0,0:0:0:0:
475,379,138295,2,0,L|480:309,1,70,12|0,0:0|0:0,0:0:0:0:
467,218,138608,6,0,P|431:206|376:111,1,140,4|12,0:0|0:0,0:0:0:0:
420,44,139076,2,0,L|256:24,1,140,0|0,0:0|0:0,0:0:0:0:
237,107,139545,2,0,L|155:117,1,70,12|0,0:0|0:0,0:0:0:0:
93,61,139858,5,4,0:0:0:0:
93,61,140014,1,4,0:0:0:0:
315,219,140483,5,4,0:0:0:0:
315,219,140639,1,4,0:0:0:0:
66,332,141108,6,0,P|90:269|70:183,1,140,4|0,0:0|0:0,0:0:0:0:
37,118,141576,2,0,P|90:72|179:68,1,140,0|0,0:0|0:0,0:0:0:0:
248,70,142045,1,0,0:0:0:0:
198,146,142201,1,0,0:0:0:0:
289,147,142358,6,0,L|363:140,1,70,4|0,0:0|0:0,0:0:0:0:
327,225,142670,2,0,L|401:232,1,70,12|0,0:0|0:0,0:0:0:0:
353,312,142983,2,0,L|279:319,1,70,4|0,0:0|0:0,0:0:0:0:
235,241,143295,2,0,L|161:234,1,70,12|0,0:0|0:0,0:0:0:0:
93,177,143608,5,4,0:0:0:0:
93,177,143686,1,0,0:0:0:0:
93,177,143764,1,0,0:0:0:0:
160,115,143920,2,0,L|229:108,1,70,12|0,0:0|0:0,0:0:0:0:
298,48,144233,2,0,L|367:54,1,70,4|0,0:0|0:0,0:0:0:0:
456,35,144545,1,12,0:0:0:0:
383,144,144701,6,0,L|232:158,1,140,0|0,0:0|0:0,0:0:0:0:
165,109,145170,2,0,P|152:146|156:184,1,70,12|0,0:0|0:0,0:0:0:0:
216,243,145483,2,0,P|229:280|225:318,2,70,4|4|12,0:0|0:0|0:0,0:0:0:0:
127,262,145951,1,4,0:0:0:0:
308,282,146264,6,0,B|316:193,2,70,4|4|4,0:0|0:0|0:0,0:0:0:0:
312,373,146733,2,0,P|372:341|388:317,1,70,6|4,0:0|0:0,0:0:0:0:
368,249,147045,2,0,P|308:281|292:305,1,70,12|4,0:0|0:0,0:0:0:0:
230,330,147358,5,4,0:0:0:0:
195,151,147670,1,12,0:0:0:0:
24,214,147983,2,0,P|36:250|64:274,1,70,4|0,0:0|0:0,0:0:0:0:
148,285,148295,2,0,L|138:333,2,35,12|0|0,0:0|0:0|0:0,0:0:0:0:
224,235,148608,5,4,0:0:0:0:
259,151,148764,1,4,0:0:0:0:
223,67,148920,1,4,0:0:0:0:
137,35,149076,1,6,0:0:0:0:
137,35,149858,5,4,0:0:0:0:
116,204,159233,6,0,L|104:292,2,70,6|4|4,0:0|0:0|0:0,0:0:0:0:
167,129,159701,6,0,P|207:97|315:97,1,140,4|0,0:0|0:0,0:0:0:0:
379,119,160170,2,0,L|371:200,1,70,14|0,0:0|0:0,0:0:0:0:
294,236,160483,2,0,L|302:317,1,70,4|0,0:0|0:0,0:0:0:0:
211,322,160795,2,0,P|191:350|149:364,1,70,12|0,0:0|0:0,0:0:0:0:
87,303,161108,6,0,P|55:239|55:159,1,140,4|12,0:0|0:0,0:0:0:0:
142,179,161576,2,0,P|178:127|262:91,1,140,0|4,0:0|0:0,0:0:0:0:
336,96,162045,1,12,0:0:0:0:
392,166,162201,6,0,P|348:198|328:290,1,140,4|0,0:0|0:0,0:0:0:0:
255,336,162670,1,12,0:0:0:0:
173,296,162826,1,0,0:0:0:0:
174,204,162983,2,0,P|184:171|186:136,1,70,4|0,0:0|0:0,0:0:0:0:
110,84,163295,2,0,P|95:117|97:156,1,70,12|0,0:0|0:0,0:0:0:0:
53,231,163608,6,0,P|97:251|141:351,1,140,4|12,0:0|0:0,0:0:0:0:
225,294,164076,2,0,P|273:270|373:282,1,140,0|0,0:0|0:0,0:0:0:0:
440,235,164545,2,0,L|431:141,1,70,12|0,0:0|0:0,0:0:0:0:
344,142,164858,6,0,P|292:134|272:122,1,70,4|0,0:0|0:0,0:0:0:0:
329,51,165170,2,0,P|360:36|395:34,1,70,12|0,0:0|0:0,0:0:0:0:
482,63,165483,1,4,0:0:0:0:
482,63,165639,2,0,L|486:145,1,70,0|12,0:0|0:0,0:0:0:0:
492,223,165951,6,0,P|455:197|352:186,1,140,0|0,0:0|0:0,0:0:0:0:
273,202,166420,2,0,P|314:182|375:99,1,140,12|4,0:0|0:0,0:0:0:0:
444,54,166889,2,0,L|454:139,2,70,0|12|0,0:0|0:0|0:0,0:0:0:0:
357,24,167358,6,0,P|314:13|276:12,1,70,4|0,0:0|0:0,0:0:0:0:
241,89,167670,2,0,P|198:100|160:101,1,70,12|0,0:0|0:0,0:0:0:0:
93,56,167983,2,0,P|123:80|139:188,1,140,4|12,0:0|0:0,0:0:0:0:
65,221,168451,2,0,P|36:244|21:352,1,140,4|0,0:0|0:0,0:0:0:0:
101,305,168920,2,0,P|145:305|190:291,1,70,12|0,0:0|0:0,0:0:0:0:
205,214,169233,2,0,P|249:214|294:228,1,70,4|0,0:0|0:0,0:0:0:0:
323,296,169545,1,12,0:0:0:0:
368,217,169701,6,0,L|360:59,1,140,6|2,0:0|0:0,0:0:0:0:
277,114,170170,2,0,L|281:35,1,70,12|0,0:0|0:0,0:0:0:0:
198,83,170483,2,0,L|194:4,1,70,4|0,0:0|0:0,0:0:0:0:
106,36,170795,1,12,0:0:0:0:
119,125,170951,1,0,0:0:0:0:
198,83,171108,6,0,P|246:51|341:49,1,140,6|0,0:0|0:0,0:0:0:0:
415,60,171576,2,0,L|424:210,1,140,6|6,0:0|0:0,0:0:0:0:
429,290,172045,1,10,0:0:0:0:
346,252,172201,6,0,P|330:208|253:146,1,140,6|2,0:0|0:0,0:0:0:0:
169,157,172670,2,0,P|185:194|192:242,1,70,12|0,0:0|0:0,0:0:0:0:
161,309,172983,2,0,P|214:295|247:295,1,70,4|0,0:0|0:0,0:0:0:0:
307,340,173295,2,0,P|360:354|393:354,1,70,12|0,0:0|0:0,0:0:0:0:
453,308,173608,6,0,L|463:382,2,70,6|2|12,0:0|0:0|0:0,0:0:0:0:
374,262,174076,2,0,L|394:112,1,140,0|0,0:0|0:0,0:0:0:0:
327,58,174545,1,12,0:0:0:0:
327,58,174701,1,0,0:0:0:0:
303,146,174858,6,0,P|254:163|214:159,1,70,4|0,0:0|0:0,0:0:0:0:
235,253,175170,2,0,P|200:244|169:222,1,70,12|0,0:0|0:0,0:0:0:0:
149,136,175483,2,0,L|158:55,2,70,4|0|12,0:0|0:0|0:0,0:0:0:0:
86,201,175951,6,0,L|103:356,1,140,0|0,0:0|0:0,0:0:0:0:
189,365,176420,2,0,L|197:287,1,70,12|0,0:0|0:0,0:0:0:0:
279,277,176733,2,0,L|272:347,1,70,4|0,0:0|0:0,0:0:0:0:
356,326,177045,2,0,L|364:248,1,70,12|12,0:0|0:0,0:0:0:0:
438,204,177358,6,0,P|400:185|372:162,1,70,2|0,0:0|0:0,0:0:0:0:
295,131,177670,2,0,P|333:112|361:89,1,70,12|0,0:0|0:0,0:0:0:0:
281,42,177983,2,0,L|193:33,1,70,4|0,0:0|0:0,0:0:0:0:
120,29,178295,1,12,0:0:0:0:
164,108,178451,6,0,P|178:149|176:190,1,70,0|4,0:0|0:0,0:0:0:0:
46,81,178764,2,0,P|32:40|34:-1,1,70,0|12,0:0|0:0,0:0:0:0:
89,162,179076,2,0,L|81:305,1,140,0|0,0:0|0:0,0:0:0:0:
170,284,179545,2,0,L|174:355,1,70,12|0,0:0|0:0,0:0:0:0:
263,334,179858,6,0,L|251:294,3,35,6|0|0|0,0:0|0:0|0:0|0:0,0:0:0:0:
296,289,180170,2,0,L|305:247,3,35,12|0|0|0,0:0|0:0|0:0|0:0,0:0:0:0:
347,267,180483,2,0,L|380:235,3,35,4|0|0|0,0:0|0:0|0:0|0:0,0:0:0:0:
401,276,180795,2,0,L|440:264,3,35,12|0|0|0,0:0|0:0|0:0|0:0,0:0:0:0:
442,347,181108,5,4,0:0:0:0:
442,347,181264,1,4,0:0:0:0:
442,347,181420,1,4,0:0:0:0:
392,190,181733,6,0,L|378:39,1,125.999996154785
305,96,182201,2,0,L|291:247,1,125.999996154785
236,280,182670,1,6,0:0:0:0:
236,280,182826,1,0,0:0:0:0:
236,280,182983,6,0,L|125:258,1,105.000004005432,10|2,0:0|0:0,0:0:0:0:
25,175,183608,2,0,L|135:150,1,105.000004005432,10|2,0:0|0:0,0:0:0:0:
231,62,184233,2,0,L|120:37,1,105.000004005432,10|2,0:0|0:0,0:0:0:0:
217,142,184858,6,0,P|266:137|306:89,1,105.000004005432,10|2,0:0|0:0,0:0:0:0:
439,103,185483,2,0,P|406:136|395:205,1,105.000004005432,10|2,0:0|0:0,0:0:0:0:
263,230,186108,2,0,P|252:179|216:141,1,105.000004005432,10|2,0:0|0:0,0:0:0:0:
125,243,186733,2,0,L|129:297,3,35.0000013351441,8|0|0|0,0:0|0:0|0:0|0:0,0:0:0:0:
44,132,187358,6,0,P|53:122|147:97,1,105.000004005432,6|2,0:0|0:0,0:0:0:0:
272,69,187983,2,0,L|258:182,1,105.000004005432,10|2,0:0|0:0,0:0:0:0:
126,205,188608,2,0,L|143:328,2,105.000004005432,10|2|10,0:0|0:0|0:0,0:0:0:0:
126,205,189545,1,2,0:0:0:0:
135,68,189858,6,0,P|158:96|241:124,1,105.000004005432,10|2,0:0|0:0,0:0:0:0:
352,156,190483,2,0,P|316:161|250:219,1,105.000004005432,10|2,0:0|0:0,0:0:0:0:
166,299,191108,2,0,P|178:265|161:179,1,105.000004005432,10|2,0:0|0:0,0:0:0:0:
135,68,191733,2,0,P|158:96|241:124,1,105.000004005432,10|2,0:0|0:0,0:0:0:0:
320,216,192358,6,0,P|284:253|235:271,1,105.000004005432,4|2,0:0|0:0,0:0:0:0:
105,229,192983,2,0,L|112:333,1,105.000004005432,10|2,0:0|0:0,0:0:0:0:
235,271,193608,2,0,L|242:166,2,105.000004005432,10|2|10,0:0|0:0|0:0,0:0:0:0:
235,271,194545,1,2,0:0:0:0:
154,160,194858,6,0,P|170:114|231:79,1,105.000004005432,10|2,0:0|0:0,0:0:0:0:
322,166,195483,2,0,P|306:212|245:247,1,105.000004005432,10|2,0:0|0:0,0:0:0:0:
200,366,196108,2,0,L|304:350,1,105.000004005432,0|0,0:0|0:0,0:0:0:0:
137,257,196733,2,0,L|13:238,1,105.000004005432,0|0,0:0|0:0,0:0:0:0:
8,375,197358,5,4,0:0:0:0:
114,174,197878,1,0,0:0:0:0:
114,174,197982,2,0,L|100:56,1,105.000004005432,10|2,0:0|0:0,0:0:0:0:
224,130,198608,2,0,L|210:248,2,105.000004005432,10|2|10,0:0|0:0|0:0,0:0:0:0:
256,192,199389,12,0,201733,0:0:0:0:
125,61,202201,5,0,0:0:0:0:
125,61,202358,2,0,L|114:146,1,70
192,180,202670,2,0,P|240:188|268:176,1,70,0|0,0:0|0:0,0:0:0:0:
303,101,202983,2,0,L|287:53,7,35,4|4|4|4|4|4|4|4,0:0|0:0|0:0|0:0|0:0|0:0|0:0|0:0,0:0:0:0:
247,80,203608,6,0,L|234:245,1,140,4|12,0:0|0:0,0:0:0:0:
229,310,204076,1,0,0:0:0:0:
153,258,204233,2,0,L|159:172,2,70,4|0|12,0:0|0:0|0:0,0:0:0:0:
145,348,204701,2,0,P|102:355|61:353,1,70,0|4,0:0|0:0,0:0:0:0:
229,310,205014,2,0,P|263:310|298:316,1,70,0|12,0:0|0:0,0:0:0:0:
374,365,205326,2,0,P|339:321|333:225,1,140,0|0,0:0|0:0,0:0:0:0:
395,177,205795,1,12,0:0:0:0:
325,118,205951,6,0,L|162:105,1,140,0|0,0:0|0:0,0:0:0:0:
238,22,206420,2,0,L|319:28,1,70,12|0,0:0|0:0,0:0:0:0:
393,57,206733,1,4,0:0:0:0:
325,118,206889,1,0,0:0:0:0:
308,28,207045,1,12,0:0:0:0:
410,147,207201,5,4,0:0:0:0:
234,197,207514,1,4,0:0:0:0:
412,230,207826,1,4,0:0:0:0:
236,280,208139,1,4,0:0:0:0:
288,106,208451,6,0,L|141:92,1,140,4|0,0:0|0:0,0:0:0:0:
139,97,208842,1,0,0:0:0:0:
130,102,208920,2,0,P|93:146|86:177,1,70,12|0,0:0|0:0,0:0:0:0:
51,240,209233,2,0,P|90:207|192:198,1,140,4|12,0:0|0:0,0:0:0:0:
265,207,209701,6,0,L|258:280,1,70,0|4,0:0|0:0,0:0:0:0:
343,244,210014,2,0,L|350:317,1,70,0|12,0:0|0:0,0:0:0:0:
428,358,210326,2,0,L|441:212,1,140,0|0,0:0|0:0,0:0:0:0:
475,133,210795,1,12,0:0:0:0:
361,176,210951,6,0,P|320:166|257:85,1,140,6|0,0:0|0:0,0:0:0:0:
184,41,211420,2,0,L|179:122,1,70,12|0,0:0|0:0,0:0:0:0:
102,61,211733,2,0,L|97:142,1,70,4|0,0:0|0:0,0:0:0:0:
59,213,212045,1,12,0:0:0:0:
179,110,212201,6,0,P|227:108|307:166,1,140,6|0,0:0|0:0,0:0:0:0:
319,246,212670,2,0,L|236:237,1,70,12|0,0:0|0:0,0:0:0:0:
284,322,212983,2,0,L|201:313,1,70,4|0,0:0|0:0,0:0:0:0:
123,322,213295,1,12,0:0:0:0:
249,238,213451,6,0,P|255:192|195:93,1,140,6|0,0:0|0:0,0:0:0:0:
289,53,213920,2,0,L|367:57,1,70,12|0,0:0|0:0,0:0:0:0:
322,140,214233,2,0,L|400:144,1,70,4|0,0:0|0:0,0:0:0:0:
358,228,214545,2,0,P|375:272|382:304,1,70,12|0,0:0|0:0,0:0:0:0:
306,348,214858,6,0,L|227:342,1,70,4|0,0:0|0:0,0:0:0:0:
164,287,215170,1,4,0:0:0:0:
164,287,215326,1,0,0:0:0:0:
233,227,215483,2,0,L|302:221,1,70,4|0,0:0|0:0,0:0:0:0:
380,294,215795,1,4,0:0:0:0:
380,294,215951,1,0,0:0:0:0:
428,216,216108,6,0,P|449:164|411:74,1,140,4|12,0:0|0:0,0:0:0:0:
361,152,216576,2,0,P|306:167|226:115,1,140,4|12,0:0|0:0,0:0:0:0:
217,40,217045,2,0,L|139:55,1,70,4|0,0:0|0:0,0:0:0:0:
59,76,217358,6,0,P|86:114|93:149,1,70,4|0,0:0|0:0,0:0:0:0:
168,185,217670,2,0,P|141:223|134:258,1,70,12|0,0:0|0:0,0:0:0:0:
137,336,217983,2,0,P|91:315|55:314,1,70,4|0,0:0|0:0,0:0:0:0:
214,287,218295,2,0,P|248:280|278:263,1,70,12|0,0:0|0:0,0:0:0:0:
353,211,218608,6,0,L|350:302,1,70,4|0,0:0|0:0,0:0:0:0:
429,235,218920,2,0,L|426:326,1,70,12|0,0:0|0:0,0:0:0:0:
505,259,219233,2,0,L|502:350,1,70,4|0,0:0|0:0,0:0:0:0:
426,378,219545,1,12,0:0:0:0:
429,235,219701,6,0,L|424:95,1,140,6|0,0:0|0:0,0:0:0:0:
345,49,220170,2,0,L|342:140,1,70,12|0,0:0|0:0,0:0:0:0:
343,210,220483,1,4,0:0:0:0:
264,163,220639,2,0,L|261:254,1,70,4|12,0:0|0:0,0:0:0:0:
261,323,220951,6,0,P|202:290|129:290,1,140,6|0,0:0|0:0,0:0:0:0:
55,341,221420,2,0,L|48:251,1,70,12|0,0:0|0:0,0:0:0:0:
41,180,221733,1,4,0:0:0:0:
123,218,221889,2,0,L|116:128,1,70,4|12,0:0|0:0,0:0:0:0:
153,64,222201,6,0,P|183:101|286:132,1,140,6|0,0:0|0:0,0:0:0:0:
354,105,222670,2,0,L|358:197,1,70,12|0,0:0|0:0,0:0:0:0:
361,266,222983,1,4,0:0:0:0:
438,217,223139,2,0,L|442:309,1,70,4|12,0:0|0:0,0:0:0:0:
488,364,223451,1,4,0:0:0:0:
488,364,223764,5,6,0:0:0:0:
349,343,223920,1,6,0:0:0:0:
349,343,224233,5,6,0:0:0:0:
383,207,224389,1,6,0:0:0:0:
383,207,224701,5,6,0:0:0:0:
492,295,224858,1,6,0:0:0:0:
492,295,225170,5,6,0:0:0:0:
481,155,225326,1,6,0:0:0:0:
