osu file format v14

[General]
AudioFilename: Long Version.mp3
AudioLeadIn: 0
PreviewTime: 52983
Countdown: 0
SampleSet: Normal
StackLeniency: 0.3
Mode: 0
LetterboxInBreaks: 0
WidescreenStoryboard: 0

[Editor]
Bookmarks: 11108,28608,39858,94858,116108,154858,181420,182670,186733,187358,192358,199233,202045,225326
DistanceSpacing: 0.7
BeatDivisor: 4
GridSize: 4
TimelineZoom: 1.9

[Metadata]
Title:Pochiko no Shiawase na Nichijou (Long Version)
TitleUnicode:ポチコの幸せな日常(Long Version)
Artist:NU-KO
ArtistUnicode:NU-KO
Creator:SnowNiNo_
Version:Corinn's Extra
Source:pop'n music Sunny Park
Tags:StarForYou arronchu1207 DeRandom Otaku Deppyforce Ren Akitoshi Corinn わんわんコア pupcore pon daichi watanabe jubeat saucer fulfill reflec beat groovin'!! upper original soundtrack vol.2 nuko yuzuki konami bemani
BeatmapID:1161150
BeatmapSetID:307034

[Difficulty]
HPDrainRate:6
CircleSize:4
OverallDifficulty:8.3
ApproachRate:9.3
SliderMultiplier:1.7
SliderTickRate:1

[Events]
//Background and Video events
0,0,"B-yk9UfUIAAnrsy.jpg",0,0
//Break Periods
2,182670,186108
2,187983,191733
//Storyboard Layer 0 (Background)
//Storyboard Layer 1 (Fail)
//Storyboard Layer 2 (Pass)
//Storyboard Layer 3 (Foreground)
//Storyboard Sound Samples

[TimingPoints]
9858,312.5,4,1,2,60,1,0
18608,-142.857142857143,4,1,2,40,0,0
22983,-125,4,1,2,60,0,0
23608,-100,4,1,2,60,0,0
39858,-111.111111111111,4,1,2,60,0,0
47358,-142.857142857143,4,1,2,60,0,0
47514,-142.857142857143,4,1,2,20,0,0
48295,-125,4,1,2,60,0,0
48608,-100,4,1,2,60,0,0
52983,-133.333333333333,4,1,2,40,0,0
53451,-111.111111111111,4,1,2,40,0,0
53920,-90.9090909090909,4,1,2,90,0,1
57201,-66.6666666666667,4,1,2,90,0,1
58451,-111.111111111111,4,1,2,90,0,1
58920,-90.9090909090909,4,1,2,90,0,1
66108,-100,4,1,2,60,0,0
73608,-111.111111111111,4,1,2,40,0,0
78608,-100,4,1,2,60,0,0
116108,-111.111111111111,4,1,2,60,0,0
123608,-142.857142857143,4,1,2,60,0,0
123764,-142.857142857143,4,1,2,20,0,0
124545,-125,4,1,2,60,0,0
124858,-100,4,1,2,60,0,0
129233,-133.333333333333,4,1,2,40,0,0
129701,-100,4,1,2,90,0,0
130170,-90.9090909090909,4,1,2,90,0,1
133451,-66.6666666666667,4,1,2,90,0,1
134701,-111.111111111111,4,1,2,90,0,1
135170,-90.9090909090909,4,1,2,90,0,1
142358,-100,4,1,2,60,0,0
149858,-111.111111111111,4,1,2,60,0,0
159701,-100,4,1,2,60,0,0
201733,-100,4,1,2,5,0,0
202045,-100,4,1,2,40,0,0
202983,-90.9090909090909,4,1,2,40,0,0
203608,-83.3333333333333,4,1,2,90,0,1
207201,-62.5,4,1,2,90,0,1
208451,-100,4,1,2,90,0,1
208920,-83.3333333333333,4,1,2,90,0,1
217358,-100,4,1,2,60,0,0

[Colours]
Combo1 : 255,214,89
Combo2 : 24,197,171
Combo3 : 196,157,77
Combo4 : 249,142,158

[HitObjects]
204,75,11108,6,0,L|304:67,1,85,4|0,0:0|0:0,0:0:0:0:
434,170,11420,2,0,L|349:176,1,85,8|0,0:0|0:0,0:0:0:0:
217,54,11733,2,0,L|317:46,1,85,4|0,0:0|0:0,0:0:0:0:
447,149,12045,2,0,L|362:155,1,85,8|0,0:0|0:0,0:0:0:0:
192,175,12358,5,4,0:0:0:0:
187,217,12436,1,0,0:0:0:0:
185,259,12514,1,0,0:0:0:0:
180,301,12592,1,0,0:0:0:0:
173,342,12670,1,8,0:0:0:0:
133,357,12748,1,0,0:0:0:0:
91,363,12826,1,0,0:0:0:0:
49,354,12904,1,0,0:0:0:0:
22,320,12983,6,0,P|15:291|13:269,1,42.5,4|0,0:0|0:0,0:0:0:0:
176,217,13139,2,0,P|183:246|185:268,1,42.5
95,209,13295,1,8,0:0:0:0:
95,209,13373,1,0,0:0:0:0:
95,209,13451,6,0,P|130:150|238:161,1,170,6|0,0:0|0:0,0:0:0:0:
307,172,13842,1,0,0:0:0:0:
307,172,13920,2,0,L|300:61,1,85,8|0,0:0|0:0,0:0:0:0:
126,44,14233,1,4,0:0:0:0:
176,217,14389,1,12,0:0:0:0:
301,87,14545,1,8,0:0:0:0:
320,277,14701,6,0,L|419:267,1,85,4|0,0:0|2:0,0:0:0:0:
495,98,15014,1,8,0:0:0:0:
495,270,15170,1,8,0:0:0:0:
388,134,15326,1,8,0:0:0:0:
354,354,15483,1,12,0:0:0:0:
278,147,15639,1,12,0:0:0:0:
496,185,15795,1,12,0:0:0:0:
354,354,15951,1,12,0:0:0:0:
388,134,16108,5,12,0:0:0:0:
136,213,16420,1,4,0:0:0:0:
388,134,16733,1,4,0:0:0:0:
287,45,16889,1,8,0:0:0:0:
154,41,17045,1,4,0:0:0:0:
154,41,17123,1,0,0:0:0:0:
154,41,17201,1,0,0:0:0:0:
310,269,17358,5,4,0:0:0:0:
287,45,17514,1,8,0:0:0:0:
136,213,17670,1,8,0:0:0:0:
390,194,17826,2,0,B|420:251|420:251|402:346|402:346|482:350|512:286|488:219,1,340,4|0,0:0|2:0,0:0:0:0:
403,93,18608,5,4,0:0:0:0:
403,93,19233,1,8,0:0:0:0:
234,261,19858,1,8,0:0:0:0:
234,261,20483,1,8,0:0:0:0:
472,261,21108,5,8,0:0:0:0:
472,261,21733,1,8,0:0:0:0:
303,92,22358,1,0,0:0:0:0:
303,92,22983,2,0,L|218:90,1,68,12|0,0:0|0:0,0:0:0:0:
197,185,23295,2,0,L|282:187,1,68,12|0,0:0|0:0,0:0:0:0:
111,262,23608,6,0,P|82:192|123:99,1,170,6|8,0:0|0:0,0:0:0:0:
197,185,24076,1,0,0:0:0:0:
159,351,24233,2,0,L|61:348,1,85,12|0,0:0|0:0,0:0:0:0:
197,185,24545,2,0,L|295:182,1,85,8|0,0:0|0:0,0:0:0:0:
452,174,24858,5,6,0:0:0:0:
337,85,25014,1,0,0:0:0:0:
396,271,25170,1,12,0:0:0:0:
281,182,25326,1,0,0:0:0:0:
452,174,25483,2,0,B|456:132|456:132|450:89,1,85,4|0,0:0|0:0,0:0:0:0:
281,182,25795,2,0,B|277:224|277:224|283:267,1,85,12|0,0:0|0:0,0:0:0:0:
408,382,26108,5,4,0:0:0:0:
382,240,26264,1,0,0:0:0:0:
256,354,26420,2,0,P|218:331|190:274,1,85,12|0,0:0|0:0,0:0:0:0:
181,128,26733,1,4,0:0:0:0:
282,266,26889,1,0,0:0:0:0:
118,219,27045,2,0,L|19:225,1,85,12|0,0:0|0:0,0:0:0:0:
127,356,27358,5,4,0:0:0:0:
218,335,27514,1,4,0:0:0:0:
282,266,27670,1,4,0:0:0:0:
291,173,27826,1,4,0:0:0:0:
291,173,28139,1,6,0:0:0:0:
366,228,28295,2,0,L|456:219,1,85,6|0,0:0|2:0,0:0:0:0:
331,96,28608,6,0,L|241:87,1,85,6|0,0:0|2:0,0:0:0:0:
137,206,28920,2,0,L|227:215,1,85,12|0,0:0|2:0,0:0:0:0:
161,365,29233,1,4,0:0:0:0:
63,283,29389,1,0,0:0:0:0:
231,307,29545,2,0,P|273:294|308:250,1,85,8|0,0:0|0:0,0:0:0:0:
324,96,29858,6,0,L|425:85,1,85,4|0,0:0|0:0,0:0:0:0:
484,123,30092,1,0,0:0:0:0:
484,123,30170,2,0,P|498:166|492:214,1,85,8|0,0:0|0:0,0:0:0:0:
403,349,30483,1,4,0:0:0:0:
386,180,30639,1,0,0:0:0:0:
502,314,30795,1,8,0:0:0:0:
328,271,30951,1,0,0:0:0:0:
328,271,31029,1,0,0:0:0:0:
328,271,31108,6,0,P|284:263|231:263,1,85,4|0,0:0|0:0,0:0:0:0:
75,287,31420,1,8,0:0:0:0:
165,196,31576,1,0,0:0:0:0:
233,343,31733,2,0,P|277:351|330:351,1,85,4|0,0:0|0:0,0:0:0:0:
468,274,32045,1,8,0:0:0:0:
327,179,32201,6,0,B|266:175|266:175|227:200|227:200|161:195,1,170,4|4,0:0|0:0,0:0:0:0:
193,70,32670,1,8,0:0:0:0:
86,253,32826,2,0,P|68:210|126:106,1,170,0|4,0:0|0:0,0:0:0:0:
289,81,33295,1,8,0:0:0:0:
164,195,33451,1,8,0:0:0:0:
72,30,33608,6,0,P|135:17|213:99,1,170,4|8,0:0|0:0,0:0:0:0:
263,206,34076,1,0,0:0:0:0:
377,103,34233,2,0,L|368:3,1,85,12|8,0:0|0:0,0:0:0:0:
263,206,34545,2,0,L|254:306,1,85,8|8,0:0|0:0,0:0:0:0:
103,212,34858,5,4,0:0:0:0:
209,81,35014,1,0,0:0:0:0:
41,105,35170,1,12,0:0:0:0:
184,195,35326,1,0,0:0:0:0:
42,274,35483,2,0,L|51:382,1,85,12|8,0:0|0:0,0:0:0:0:
184,195,35795,2,0,L|193:87,1,85,12|8,0:0|0:0,0:0:0:0:
336,38,36108,6,0,P|435:40|483:103,1,170,4|8,0:0|0:0,0:0:0:0:
511,216,36576,1,0,0:0:0:0:
383,134,36733,2,0,L|284:132,1,85,12|8,0:0|0:0,0:0:0:0:
228,268,37045,2,0,L|327:270,1,85,12|8,0:0|0:0,0:0:0:0:
511,216,37358,5,8,0:0:0:0:
417,35,37514,1,2,0:0:0:0:
393,237,37670,2,0,L|402:338,1,85,2|0,0:0|2:0,0:0:0:0:
459,125,37983,5,4,0:0:0:0:
275,212,38139,1,2,0:0:0:0:
433,339,38295,2,0,L|425:254,1,85,2|0,0:0|2:0,0:0:0:0:
330,72,38608,5,4,0:0:0:0:
333,275,38764,1,2,0:0:0:0:
203,118,38920,2,0,P|164:113|102:127,1,85,2|0,0:0|2:0,0:0:0:0:
10,294,39233,5,8,0:0:0:0:
10,294,39311,1,0,0:0:0:0:
10,294,39389,2,0,L|15:351,1,42.5,8|0,0:0|0:0,0:0:0:0:
95,249,39545,5,8,0:0:0:0:
95,249,39623,1,0,0:0:0:0:
95,249,39701,2,0,L|100:306,1,42.5,8|0,0:0|0:0,0:0:0:0:
187,354,39858,5,4,0:0:0:0:
211,365,39936,1,0,0:0:0:0:
237,365,40014,1,0,0:0:0:0:
263,361,40092,1,0,0:0:0:0:
288,351,40170,1,8,0:0:0:0:
308,334,40248,1,0,0:0:0:0:
322,311,40326,1,0,0:0:0:0:
333,286,40404,1,0,0:0:0:0:
337,259,40483,6,0,L|332:211,3,38.2499988327027,4|0|0|0,0:0|0:0|0:0|0:0,0:0:0:0:
250,152,40795,2,0,L|245:200,3,38.2499988327027,8|0|0|0,0:0|0:0|0:0|0:0,0:0:0:0:
174,271,41108,5,4,0:0:0:0:
150,283,41186,1,0,0:0:0:0:
124,290,41264,1,0,0:0:0:0:
97,287,41342,1,0,0:0:0:0:
73,274,41420,1,8,0:0:0:0:
51,258,41498,1,0,0:0:0:0:
35,236,41576,1,0,0:0:0:0:
29,209,41654,1,0,0:0:0:0:
30,181,41733,6,4,B|34:144|34:144|27:92,1,76.4999976654053,14|8,0:0|0:0,0:0:0:0:
192,7,42045,2,0,B|188:44|188:44|195:96,1,76.4999976654053,6|8,0:0|0:0,0:0:0:0:
251,265,42358,5,4,0:0:0:0:
271,282,42436,1,0,0:0:0:0:
295,292,42514,1,0,0:0:0:0:
321,296,42592,1,0,0:0:0:0:
347,294,42670,1,8,0:0:0:0:
372,286,42748,1,0,0:0:0:0:
393,270,42826,1,0,0:0:0:0:
409,248,42904,1,0,0:0:0:0:
418,222,42983,6,0,L|416:178,3,38.2499988327027,4|0|0|0,0:0|0:0|0:0|0:0,0:0:0:0:
318,141,43295,2,0,L|316:185,3,38.2499988327027,8|0|0|0,0:0|0:0|0:0|0:0,0:0:0:0:
251,265,43608,5,4,0:0:0:0:
230,282,43686,1,0,0:0:0:0:
205,292,43764,1,0,0:0:0:0:
178,293,43842,1,0,0:0:0:0:
151,288,43920,1,8,0:0:0:0:
128,274,43998,1,0,0:0:0:0:
110,254,44076,1,0,0:0:0:0:
96,230,44154,1,0,0:0:0:0:
97,202,44233,6,0,L|-2:201,1,76.4999976654053,14|8,0:0|0:0,0:0:0:0:
157,67,44545,2,0,L|256:66,1,76.4999976654053,6|8,0:0|0:0,0:0:0:0:
425,64,44858,5,4,0:0:0:0:
444,82,44936,1,0,0:0:0:0:
460,103,45014,1,0,0:0:0:0:
469,128,45092,1,0,0:0:0:0:
474,153,45170,1,8,0:0:0:0:
471,179,45248,1,0,0:0:0:0:
461,204,45326,1,0,0:0:0:0:
445,225,45404,1,0,0:0:0:0:
425,243,45483,6,0,L|429:293,3,38.2499988327027,4|0|0|0,0:0|0:0|0:0|0:0,0:0:0:0:
349,354,45795,2,0,L|345:304,3,38.2499988327027,8|0|0|0,0:0|0:0|0:0|0:0,0:0:0:0:
273,235,46108,5,4,0:0:0:0:
247,226,46186,1,0,0:0:0:0:
221,225,46264,1,0,0:0:0:0:
194,230,46342,1,0,0:0:0:0:
171,243,46420,1,8,0:0:0:0:
152,261,46498,1,0,0:0:0:0:
138,284,46576,1,0,0:0:0:0:
131,310,46654,1,0,0:0:0:0:
131,337,46733,6,0,L|33:332,1,76.4999976654053,14|8,0:0|0:0,0:0:0:0:
6,148,47045,2,0,L|104:142,1,76.4999976654053,6|8,0:0|0:0,0:0:0:0:
315,135,47358,6,0,P|344:187|224:193,1,237.999992736817,6|0,0:0|2:0,0:0:0:0:
206,48,48139,5,0,0:0:0:0:
206,48,48217,1,0,0:0:0:0:
206,48,48295,2,8,L|146:45,1,34
281,136,48451,2,8,L|341:133,1,34
483,168,48608,6,0,B|503:213|503:213|484:339,1,170,6|8,0:0|0:0,0:0:0:0:
346,374,49076,1,0,0:0:0:0:
224,295,49233,2,0,L|120:300,1,85,4|0,0:0|0:0,0:0:0:0:
230,138,49545,2,0,L|334:133,1,85,8|0,0:0|0:0,0:0:0:0:
122,41,49858,6,0,B|109:160|109:160|141:225,1,170,4|8,0:0|0:0,0:0:0:0:
221,338,50326,1,0,0:0:0:0:
329,217,50483,2,0,P|370:208|426:225,1,85,4|0,0:0|0:0,0:0:0:0:
221,338,50795,2,0,P|180:347|124:330,1,85,8|0,0:0|0:0,0:0:0:0:
14,208,51108,5,4,0:0:0:0:
12,165,51186,1,0,0:0:0:0:
23,124,51264,1,0,0:0:0:0:
43,86,51342,1,0,0:0:0:0:
75,58,51420,1,8,0:0:0:0:
113,39,51498,1,0,0:0:0:0:
154,31,51576,1,0,0:0:0:0:
196,34,51654,1,0,0:0:0:0:
236,48,51733,5,4,0:0:0:0:
214,85,51811,1,0,0:0:0:0:
203,125,51889,1,0,0:0:0:0:
207,167,51967,1,0,0:0:0:0:
231,201,52045,2,0,L|298:203,1,42.5,8|0,0:0|0:0,0:0:0:0:
353,289,52201,2,0,L|286:287,1,42.5
124,240,52358,5,12,0:0:0:0:
343,129,52514,1,12,0:0:0:0:
320,374,52670,1,12,0:0:0:0:
320,374,52983,5,4,0:0:0:0:
388,327,53139,1,4,0:0:0:0:
456,280,53295,1,4,0:0:0:0:
363,243,53451,2,0,P|298:231|213:268,1,152.999995330811,4|0,0:0|0:0,0:0:0:0:
200,282,53842,1,0,0:0:0:0:
184,305,53920,6,0,L|174:193,1,93.5000028533936,6|0,0:0|0:0,0:0:0:0:
148,17,54233,1,4,0:0:0:0:
285,158,54389,1,0,0:0:0:0:
91,122,54545,1,8,0:0:0:0:
266,39,54701,6,0,B|311:31|311:31|368:38,1,93.5000028533936,0|4,0:0|0:0,0:0:0:0:
493,180,55014,2,0,B|448:188|448:188|391:181,1,93.5000028533936,0|8,0:0|0:0,0:0:0:0:
209,140,55326,1,0,0:0:0:0:
356,270,55483,1,4,0:0:0:0:
438,92,55639,1,0,0:0:0:0:
244,238,55795,2,0,P|198:244|149:225,1,93.5000028533936,8|0,0:0|0:0,0:0:0:0:
282,28,56108,6,0,B|331:58|331:58|318:192,1,187.000005706787,6|8,0:0|0:0,0:0:0:0:
254,332,56576,1,0,0:0:0:0:
209,140,56733,2,0,P|161:125|102:139,1,93.5000028533936,4|0,0:0|0:0,0:0:0:0:
7,292,57045,1,8,0:0:0:0:
214,230,57201,6,0,L|203:39,1,191.250007295609,4|0,0:0|2:0,0:0:0:0:
119,131,57514,2,0,P|201:162|302:109,1,191.250007295609,4|0,0:0|2:0,0:0:0:0:
344,13,57826,2,0,P|313:95|366:196,1,191.250007295609,4|0,0:0|2:0,0:0:0:0:
463,238,58139,2,0,P|381:207|280:260,1,191.250007295609,4|0,0:0|2:0,0:0:0:0:
202,314,58451,6,0,P|126:303|72:246,1,152.999995330811,4|4,0:0|0:0,0:0:0:0:
59,228,58842,1,0,0:0:0:0:
49,201,58920,6,0,L|45:333,1,93.5000028533936,6|0,0:0|0:0,0:0:0:0:
183,189,59233,2,0,L|179:57,1,93.5000028533936,4|0,0:0|0:0,0:0:0:0:
46,294,59545,1,8,0:0:0:0:
281,235,59701,6,0,P|289:194|271:128,1,93.5000028533936,0|4,0:0|0:0,0:0:0:0:
76,51,60014,2,0,P|68:92|86:158,1,93.5000028533936,0|8,0:0|0:0,0:0:0:0:
202,314,60326,1,0,0:0:0:0:
181,96,60483,1,4,0:0:0:0:
120,242,60639,1,0,0:0:0:0:
279,143,60795,1,8,0:0:0:0:
202,314,60951,6,0,B|261:318|261:318|319:289|319:289|408:291,1,187.000005706787,6|0,0:0|0:0,0:0:0:0:
495,190,61420,2,0,P|499:145|476:79,1,93.5000028533936,8|0,0:0|0:0,0:0:0:0:
292,12,61733,1,4,0:0:0:0:
377,157,61889,1,0,0:0:0:0:
194,115,62045,2,0,L|67:121,1,93.5000028533936,8|0,0:0|0:0,0:0:0:0:
7,303,62358,6,0,L|134:297,1,93.5000028533936,6|0,0:0|0:0,0:0:0:0:
287,298,62670,1,8,0:0:0:0:
135,192,62826,1,0,0:0:0:0:
196,363,62983,1,4,0:0:0:0:
248,189,63139,1,0,0:0:0:0:
100,298,63295,2,0,P|67:283|31:223,1,93.5000028533936,8|0,0:0|0:0,0:0:0:0:
165,31,63608,5,8,0:0:0:0:
194,271,63764,1,8,0:0:0:0:
194,271,64233,5,8,0:0:0:0:
19,102,64389,1,8,0:0:0:0:
19,102,64858,5,6,0:0:0:0:
197,157,65014,1,8,0:0:0:0:
197,157,65092,1,12,0:0:0:0:
20,217,65248,1,8,0:0:0:0:
20,217,65326,1,12,0:0:0:0:
198,272,65483,1,8,0:0:0:0:
198,272,65561,1,12,0:0:0:0:
117,103,65717,1,8,0:0:0:0:
117,103,65795,1,12,0:0:0:0:
295,158,65951,1,8,0:0:0:0:
295,158,66029,1,8,0:0:0:0:
295,158,66108,6,0,L|397:155,1,85,6|0,0:0|0:0,0:0:0:0:
240,266,66420,2,0,L|138:263,1,85,8|0,0:0|0:0,0:0:0:0:
279,134,66733,2,0,L|381:131,1,85,4|0,0:0|0:0,0:0:0:0:
224,242,67045,2,0,L|122:239,1,85,8|0,0:0|0:0,0:0:0:0:
19,106,67358,5,4,0:0:0:0:
39,68,67436,1,0,0:0:0:0:
71,40,67514,1,0,0:0:0:0:
112,30,67592,1,0,0:0:0:0:
147,53,67670,1,8,0:0:0:0:
185,71,67748,1,0,0:0:0:0:
227,74,67826,1,0,0:0:0:0:
268,63,67904,1,0,0:0:0:0:
306,44,67983,6,0,P|306:19|304:-1,1,42.5,4|0,0:0|0:0,0:0:0:0:
147,53,68139,2,0,P|147:78|149:98,1,42.5
191,213,68295,1,8,0:0:0:0:
191,213,68373,1,0,0:0:0:0:
191,213,68451,6,0,L|381:207,1,170,4|0,0:0|0:0,0:0:0:0:
414,278,68842,1,0,0:0:0:0:
414,278,68920,2,0,P|371:295|302:274,1,85,8|0,0:0|0:0,0:0:0:0:
191,213,69233,1,12,0:0:0:0:
292,66,69389,1,12,0:0:0:0:
360,207,69545,1,8,0:0:0:0:
207,116,69701,6,0,L|113:118,1,85,4|0,0:0|2:0,0:0:0:0:
120,297,70014,1,8,0:0:0:0:
274,208,70170,1,8,0:0:0:0:
122,117,70326,1,8,0:0:0:0:
225,313,70483,1,4,0:0:0:0:
319,113,70639,1,4,0:0:0:0:
120,208,70795,1,4,0:0:0:0:
324,290,70951,1,4,0:0:0:0:
265,51,71108,5,4,0:0:0:0:
224,312,71420,1,4,0:0:0:0:
265,51,71733,1,4,0:0:0:0:
379,104,71889,1,8,0:0:0:0:
451,207,72045,1,8,0:0:0:0:
451,207,72123,1,0,0:0:0:0:
451,207,72201,1,0,0:0:0:0:
149,122,72358,5,4,0:0:0:0:
279,338,72514,1,8,0:0:0:0:
379,104,72670,1,8,0:0:0:0:
139,235,72826,2,0,P|36:119|143:9,1,340,4|0,0:0|2:0,0:0:0:0:
259,112,73608,6,0,L|257:201,1,76.4999976654053,4|0,0:0|2:0,0:0:0:0:
400,242,73920,2,0,L|402:153,1,76.4999976654053,4|0,0:0|2:0,0:0:0:0:
261,36,74233,2,0,L|259:125,1,76.4999976654053,4|0,0:0|2:0,0:0:0:0:
402,166,74545,2,0,L|404:77,1,76.4999976654053,4|0,0:0|2:0,0:0:0:0:
257,188,74858,6,0,L|255:277,1,76.4999976654053,4|0,0:0|2:0,0:0:0:0:
398,318,75170,2,0,L|400:229,1,76.4999976654053,4|0,0:0|2:0,0:0:0:0:
259,111,75483,2,0,L|257:200,1,76.4999976654053,4|0,0:0|2:0,0:0:0:0:
400,241,75795,2,0,L|402:152,1,76.4999976654053,4|0,0:0|2:0,0:0:0:0:
307,35,76108,6,0,P|253:22|175:81,1,152.999995330811,4|4,0:0|0:0,0:0:0:0:
144,184,76576,1,0,2:0:0:0:
66,98,76733,2,0,P|65:63|82:10,1,76.4999976654053,4|0,0:0|2:0,0:0:0:0:
178,75,77045,1,4,0:0:0:0:
144,184,77201,1,0,2:0:0:0:
259,111,77358,6,0,L|437:98,1,152.999995330811,4|4,0:0|0:0,0:0:0:0:
507,161,77826,1,0,2:0:0:0:
381,250,77983,2,0,P|380:289|392:347,1,76.4999976654053,8|0,0:0|0:0,0:0:0:0:
264,187,78295,2,0,P|264:147|253:90,1,76.4999976654053,8|0,0:0|0:0,0:0:0:0:
0,145,78608,6,0,B|47:170|47:170|199:154,1,170,6|8,0:0|0:0,0:0:0:0:
68,60,79076,1,0,0:0:0:0:
129,246,79233,2,0,P|163:252|216:236,1,85,4|0,0:0|0:0,0:0:0:0:
344,96,79545,1,8,0:0:0:0:
381,250,79701,1,0,0:0:0:0:
252,136,79858,6,0,P|244:88|263:37,1,85,4|0,0:0|0:0,0:0:0:0:
382,167,80170,2,0,P|390:215|371:266,1,85,8|0,0:0|0:0,0:0:0:0:
244,353,80483,1,4,0:0:0:0:
292,207,80639,1,0,0:0:0:0:
390,344,80795,2,0,P|433:326|462:292,1,85,8|0,0:0|0:0,0:0:0:0:
474,128,81108,5,4,0:0:0:0:
380,249,81264,1,0,0:0:0:0:
252,136,81420,1,8,0:0:0:0:
158,257,81576,1,0,0:0:0:0:
350,153,81733,2,0,L|346:47,1,85,4|0,0:0|0:0,0:0:0:0:
154,172,82045,2,0,L|158:278,1,85,8|0,0:0|0:0,0:0:0:0:
288,366,82358,5,4,0:0:0:0:
381,379,82514,1,4,0:0:0:0:
392,287,82670,1,4,0:0:0:0:
300,273,82826,1,4,0:0:0:0:
300,273,83139,1,6,0:0:0:0:
367,207,83295,2,0,L|359:105,1,85,6|0,0:0|0:0,0:0:0:0:
208,43,83608,6,0,L|200:145,1,85,6|0,0:0|0:0,0:0:0:0:
179,296,83920,1,8,0:0:0:0:
264,201,84076,1,0,0:0:0:0:
97,162,84233,2,0,P|92:120|105:74,1,85,4|0,0:0|0:0,0:0:0:0:
264,201,84545,2,0,P|269:243|256:289,1,85,8|0,0:0|0:0,0:0:0:0:
201,127,84858,5,4,0:0:0:0:
368,154,85014,1,0,0:0:0:0:
368,154,85092,1,0,0:0:0:0:
368,154,85170,2,0,L|468:151,1,85,8|0,0:0|0:0,0:0:0:0:
329,33,85483,2,0,L|229:30,1,85,4|0,0:0|0:0,0:0:0:0:
75,11,85795,1,8,0:0:0:0:
201,127,85951,1,0,0:0:0:0:
201,127,86029,1,0,0:0:0:0:
201,127,86108,6,0,B|210:167|210:167|206:216,1,85,4|0,0:0|0:0,0:0:0:0:
188,379,86420,1,8,0:0:0:0:
112,276,86576,1,0,0:0:0:0:
282,276,86733,2,0,P|302:239|304:184,1,85,4|0,0:0|0:0,0:0:0:0:
285,28,87045,1,8,0:0:0:0:
447,119,87201,6,0,B|475:171|475:171|468:296,1,170,4|4,0:0|0:0,0:0:0:0:
322,370,87670,1,4,0:0:0:0:
186,268,87826,2,0,P|130:254|99:347,1,170,0|4,0:0|0:0,0:0:0:0:
263,309,88295,2,0,P|272:260|254:212,1,85,8|0,0:0|0:0,0:0:0:0:
145,102,88608,5,4,0:0:0:0:
186,268,88764,1,0,0:0:0:0:
308,150,88920,1,8,0:0:0:0:
349,316,89076,1,0,0:0:0:0:
186,268,89233,2,0,P|140:272|84:273,1,85,4|0,0:0|0:0,0:0:0:0:
223,155,89545,2,0,P|269:151|325:150,1,85,8|0,0:0|0:0,0:0:0:0:
504,157,89858,6,0,P|504:241|498:356,1,170,4|8,0:0|0:0,0:0:0:0:
385,382,90326,1,0,0:0:0:0:
268,281,90483,2,0,P|227:268|153:275,1,85,4|0,0:0|0:0,0:0:0:0:
59,354,90795,2,0,P|100:367|174:360,1,85,8|0,0:0|0:0,0:0:0:0:
312,355,91108,6,0,P|303:271|298:161,1,170,4|8,0:0|0:0,0:0:0:0:
296,19,91576,1,0,0:0:0:0:
197,153,91733,1,4,0:0:0:0:
356,102,91889,1,0,0:0:0:0:
197,51,92045,2,0,P|159:59|120:88,1,85,8|0,0:0|0:0,0:0:0:0:
76,250,92358,5,4,0:0:0:0:
19,54,92514,1,6,0:0:0:0:
197,153,92670,2,0,L|298:147,1,85,6|0,0:0|2:0,0:0:0:0:
481,103,92983,5,4,0:0:0:0:
296,19,93139,1,6,0:0:0:0:
340,217,93295,2,0,P|299:236|246:231,1,85,6|0,0:0|2:0,0:0:0:0:
78,139,93608,5,4,0:0:0:0:
282,148,93764,1,6,0:0:0:0:
174,320,93920,1,6,0:0:0:0:
78,139,94076,2,0,P|59:191|67:279,1,127.5,4|0,0:0|0:0,0:0:0:0:
61,262,94389,1,4,0:0:0:0:
259,235,94545,1,4,0:0:0:0:
78,139,94701,1,0,0:0:0:0:
270,69,94858,6,0,B|324:63|324:63|383:83|383:83|451:76,1,170,4|8,0:0|0:0,0:0:0:0:
508,182,95326,1,0,0:0:0:0:
409,264,95483,2,0,P|404:310|407:358,1,85,4|0,0:0|0:0,0:0:0:0:
278,348,95795,2,0,P|279:305|274:263,1,85,8|0,0:0|0:0,0:0:0:0:
260,223,96029,1,0,0:0:0:0:
260,223,96108,6,0,P|218:247|96:216,1,170,4|8,0:0|0:0,0:0:0:0:
181,133,96576,1,0,0:0:0:0:
31,170,96733,2,0,P|14:209|22:261,1,85,4|0,0:0|0:0,0:0:0:0:
181,133,97045,2,0,P|176:90|143:49,1,85,8|0,0:0|0:0,0:0:0:0:
104,223,97358,6,0,P|182:252|260:223,2,170,4|8|4,0:0|0:0|0:0,0:0:0:0:
181,133,98139,1,0,0:0:0:0:
327,175,98295,2,0,P|342:212|333:261,1,85,8|0,0:0|0:0,0:0:0:0:
237,373,98608,5,4,0:0:0:0:
259,223,98764,1,2,0:0:0:0:
341,351,98920,1,8,0:0:0:0:
199,294,99076,2,0,B|113:267|115:323|25:296,1,170
32,144,99545,1,8,0:0:0:0:
32,144,99623,1,0,0:0:0:0:
32,144,99701,1,0,0:0:0:0:
32,144,99779,1,0,0:0:0:0:
32,144,99858,6,0,B|118:117|116:173|206:146,1,170,4|0,0:0|0:0,0:0:0:0:
313,76,100326,1,0,0:0:0:0:
452,139,100483,2,0,L|454:240,1,85,12|8,0:0|0:0,0:0:0:0:
315,161,100795,2,0,L|313:60,1,85,8|8,0:0|0:0,0:0:0:0:
140,28,101108,6,0,P|79:31|9:120,1,170,4|8,0:0|0:0,0:0:0:0:
3,261,101576,1,0,0:0:0:0:
112,129,101733,2,0,L|202:123,1,85,4|0,0:0|0:0,0:0:0:0:
248,285,102045,2,0,L|158:291,1,85,8|0,0:0|0:0,0:0:0:0:
197,123,102358,6,0,L|397:109,1,170,4|0,0:0|0:0,0:0:0:0:
502,105,102826,1,0,0:0:0:0:
358,198,102983,1,0,0:0:0:0:
352,28,103139,1,8,0:0:0:0:
502,105,103295,1,8,0:0:0:0:
282,117,103451,6,0,P|189:133|140:170,1,127.5,4|0,0:0|2:0,0:0:0:0:
162,149,103764,1,2,0:0:0:0:
0,103,103920,2,0,L|4:13,1,85,6|0,0:0|0:0,0:0:0:0:
79,210,104233,2,0,L|83:300,1,85,4|8,0:0|0:0,0:0:0:0:
245,247,104545,1,6,0:0:0:0:
190,359,104701,1,0,0:0:0:0:
167,189,104858,6,0,P|232:150|331:200,1,170,4|8,0:0|0:0,0:0:0:0:
402,272,105326,1,0,0:0:0:0:
473,116,105483,1,4,0:0:0:0:
315,179,105639,1,0,0:0:0:0:
475,235,105795,2,0,P|482:283|456:335,1,85,8|0,0:0|0:0,0:0:0:0:
235,276,106108,6,0,B|350:260|350:260|413:275,1,170,4|8,0:0|0:0,0:0:0:0:
344,380,106576,1,0,0:0:0:0:
253,235,106733,2,0,L|355:221,1,85,4|0,0:0|0:0,0:0:0:0:
461,168,107045,1,8,0:0:0:0:
478,138,107123,1,0,0:0:0:0:
483,104,107201,1,0,0:0:0:0:
472,71,107279,1,0,0:0:0:0:
441,40,107358,5,4,0:0:0:0:
399,30,107436,1,0,0:0:0:0:
358,43,107514,1,0,0:0:0:0:
323,68,107592,1,0,0:0:0:0:
289,93,107670,1,8,0:0:0:0:
247,100,107748,1,0,0:0:0:0:
205,91,107826,1,0,0:0:0:0:
173,62,107904,1,0,0:0:0:0:
152,24,107983,6,0,L|101:26,3,42.5,4|0|0|0,0:0|0:0|0:0|0:0,0:0:0:0:
54,100,108295,2,0,L|105:102,3,42.5,8|0|0|0,0:0|0:0|0:0|0:0,0:0:0:0:
164,167,108608,5,4,0:0:0:0:
245,17,108764,1,2,0:0:0:0:
333,161,108920,1,2,0:0:0:0:
171,174,109076,1,0,0:0:0:0:
171,174,109154,1,0,0:0:0:0:
171,174,109233,1,4,0:0:0:0:
261,317,109389,1,2,0:0:0:0:
333,161,109545,1,2,0:0:0:0:
171,174,109701,1,0,0:0:0:0:
171,174,109779,1,0,0:0:0:0:
171,174,109858,6,0,P|119:176|57:64,1,170,6|8,0:0|0:0,0:0:0:0:
252,131,110326,1,0,0:0:0:0:
252,131,110404,1,0,0:0:0:0:
252,131,110483,2,0,L|257:228,1,85,4|0,0:0|0:0,0:0:0:0:
350,356,110795,1,8,0:0:0:0:
481,248,110951,1,0,0:0:0:0:
481,248,111029,1,0,0:0:0:0:
481,248,111108,6,0,L|470:52,1,170,4|8,0:0|0:0,0:0:0:0:
368,4,111576,1,0,0:0:0:0:
252,131,111733,2,0,P|208:137|160:130,1,85,12|0,0:0|0:0,0:0:0:0:
62,264,112045,2,0,P|106:258|154:265,1,85,12|0,0:0|0:0,0:0:0:0:
313,298,112358,6,0,B|349:252|349:252|333:109,1,170,6|8,0:0|0:0,0:0:0:0:
252,34,112826,1,0,0:0:0:0:
408,76,112983,2,0,P|431:121|429:169,1,85,4|0,0:0|0:0,0:0:0:0:
313,298,113295,1,8,0:0:0:0:
336,141,113451,1,0,0:0:0:0:
411,331,113608,5,4,0:0:0:0:
239,221,113764,1,2,0:0:0:0:
432,154,113920,2,0,P|428:112|408:76,1,85,2|0,0:0|2:0,0:0:0:0:
210,19,114233,5,4,0:0:0:0:
239,221,114389,1,2,0:0:0:0:
47,152,114545,2,0,L|53:49,1,85,2|0,0:0|2:0,0:0:0:0:
249,120,114858,5,4,0:0:0:0:
106,265,115014,1,2,0:0:0:0:
302,316,115170,2,0,B|346:319|346:319|396:308,1,85,2|0,0:0|2:0,0:0:0:0:
479,127,115483,5,8,0:0:0:0:
479,127,115561,1,0,0:0:0:0:
479,127,115639,2,0,L|478:74,1,42.5,8|0,0:0|0:0,0:0:0:0:
367,41,115795,5,8,0:0:0:0:
367,41,115873,1,0,0:0:0:0:
367,41,115951,2,0,L|368:94,1,42.5,8|0,0:0|0:0,0:0:0:0:
368,191,116108,5,4,0:0:0:0:
352,212,116186,1,0,0:0:0:0:
331,229,116264,1,0,0:0:0:0:
307,240,116342,1,0,0:0:0:0:
280,244,116420,1,8,0:0:0:0:
254,241,116498,1,0,0:0:0:0:
229,231,116576,1,0,0:0:0:0:
208,215,116654,1,0,0:0:0:0:
192,194,116733,6,0,L|126:198,3,38.2499988327027,4|0|0|0,0:0|0:0|0:0|0:0,0:0:0:0:
109,103,117045,2,0,L|175:99,3,38.2499988327027,8|0|0|0,0:0|0:0|0:0|0:0,0:0:0:0:
251,97,117358,5,4,0:0:0:0:
271,114,117436,1,0,0:0:0:0:
287,135,117514,1,0,0:0:0:0:
298,159,117592,1,0,0:0:0:0:
303,185,117670,1,8,0:0:0:0:
302,212,117748,1,0,0:0:0:0:
295,238,117826,1,0,0:0:0:0:
283,261,117904,1,0,0:0:0:0:
265,281,117983,6,0,L|372:276,1,76.4999976654053,14|8,0:0|0:0,0:0:0:0:
470,147,118295,2,0,L|363:141,1,76.4999976654053,14|8,0:0|0:0,0:0:0:0:
209,142,118608,5,4,0:0:0:0:
184,153,118686,1,0,0:0:0:0:
163,168,118764,1,0,0:0:0:0:
144,188,118842,1,0,0:0:0:0:
130,210,118920,1,8,0:0:0:0:
120,235,118998,1,0,0:0:0:0:
115,261,119076,1,0,0:0:0:0:
115,288,119154,1,0,0:0:0:0:
120,314,119233,6,0,L|53:312,3,38.2499988327027,4|0|0|0,0:0|0:0|0:0|0:0,0:0:0:0:
8,236,119545,2,0,L|75:233,3,38.2499988327027,8|0|0|0,0:0|0:0|0:0|0:0,0:0:0:0:
145,188,119858,5,4,0:0:0:0:
153,162,119936,1,0,0:0:0:0:
154,135,120014,1,0,0:0:0:0:
149,109,120092,1,0,0:0:0:0:
138,85,120170,1,8,0:0:0:0:
121,64,120248,1,0,0:0:0:0:
100,48,120326,1,0,0:0:0:0:
75,38,120404,1,0,0:0:0:0:
48,34,120483,6,0,L|54:110,1,76.4999976654053,14|8,0:0|0:0,0:0:0:0:
238,109,120795,2,0,L|245:20,1,76.4999976654053,14|8,0:0|0:0,0:0:0:0:
428,24,121108,5,4,0:0:0:0:
451,38,121186,1,0,0:0:0:0:
470,57,121264,1,0,0:0:0:0:
485,79,121342,1,0,0:0:0:0:
496,103,121420,1,8,0:0:0:0:
501,129,121498,1,0,0:0:0:0:
501,156,121576,1,0,0:0:0:0:
495,182,121654,1,0,0:0:0:0:
484,207,121733,6,0,L|487:266,3,38.2499988327027,4|0|0|0,0:0|0:0|0:0|0:0,0:0:0:0:
400,308,122045,2,0,L|396:248,3,38.2499988327027,8|0|0|0,0:0|0:0|0:0|0:0,0:0:0:0:
322,192,122358,5,4,0:0:0:0:
297,183,122436,1,0,0:0:0:0:
271,180,122514,1,0,0:0:0:0:
244,184,122592,1,0,0:0:0:0:
220,195,122670,1,8,0:0:0:0:
199,211,122748,1,0,0:0:0:0:
183,233,122826,1,0,0:0:0:0:
173,257,122904,1,0,0:0:0:0:
169,284,122983,6,0,L|73:281,1,76.4999976654053,14|8,0:0|0:0,0:0:0:0:
22,112,123295,2,0,L|118:109,1,76.4999976654053,14|8,0:0|0:0,0:0:0:0:
335,104,123608,6,0,B|317:245|317:245|282:201|242:183,1,237.999992736817,4|0,0:0|0:0,0:0:0:0:
121,194,124389,5,0,0:0:0:0:
121,194,124467,1,0,0:0:0:0:
121,194,124545,2,8,L|119:244,1,34
22,112,124701,2,8,L|24:62,1,34
207,105,124858,6,0,L|202:292,1,170,6|8,0:0|0:0,0:0:0:0:
338,205,125326,1,0,0:0:0:0:
284,42,125483,2,0,P|207:5|124:51,1,170,4|8,0:0|0:0,0:0:0:0:
71,147,125951,1,0,0:0:0:0:
207,105,126108,6,0,P|293:97|403:91,1,170,4|8,0:0|0:0,0:0:0:0:
484,159,126576,1,0,0:0:0:0:
402,257,126733,2,0,B|394:294|394:294|407:363,1,85,4|0,0:0|0:0,0:0:0:0:
261,263,127045,2,0,B|269:226|269:226|256:157,1,85,8|0,0:0|0:0,0:0:0:0:
134,77,127358,5,4,0:0:0:0:
91,79,127436,1,0,0:0:0:0:
53,97,127514,1,0,0:0:0:0:
25,128,127592,1,0,0:0:0:0:
11,168,127670,1,8,0:0:0:0:
13,210,127748,1,0,0:0:0:0:
31,248,127826,1,0,0:0:0:0:
62,277,127904,1,0,0:0:0:0:
103,291,127983,5,4,0:0:0:0:
137,266,128061,1,0,0:0:0:0:
177,252,128139,1,0,0:0:0:0:
219,251,128217,1,0,0:0:0:0:
259,264,128295,2,0,P|264:291|264:326,1,42.5,8|0,0:0|0:0,0:0:0:0:
103,291,128451,2,0,P|97:263|98:229,1,42.5
115,108,128608,5,12,0:0:0:0:
358,77,128764,1,12,0:0:0:0:
264,305,128920,1,12,0:0:0:0:
264,305,129233,5,4,0:0:0:0:
339,270,129389,1,4,0:0:0:0:
358,189,129545,1,4,0:0:0:0:
246,192,129701,2,0,B|165:223|155:177|78:201,1,170,4|4,0:0|0:0,0:0:0:0:
51,211,130092,1,4,0:0:0:0:
25,221,130170,6,0,P|8:177|14:117,1,93.5000028533936,6|0,0:0|0:0,0:0:0:0:
201,84,130483,1,4,0:0:0:0:
148,272,130639,1,0,0:0:0:0:
9,131,130795,1,8,0:0:0:0:
193,178,130951,6,0,L|291:170,1,93.5000028533936,0|4,0:0|0:0,0:0:0:0:
449,59,131264,2,0,L|351:51,1,93.5000028533936,0|8,0:0|0:0,0:0:0:0:
162,17,131576,1,0,0:0:0:0:
286,170,131733,1,4,0:0:0:0:
93,136,131889,1,0,0:0:0:0:
266,36,132045,2,0,P|307:33|362:56,1,93.5000028533936,8|0,0:0|0:0,0:0:0:0:
238,246,132358,6,0,P|147:233|21:220,1,187.000005706787,6|8,0:0|0:0,0:0:0:0:
127,352,132826,1,0,0:0:0:0:
314,289,132983,2,0,P|324:249|294:177,1,93.5000028533936,4|0,0:0|0:0,0:0:0:0:
131,122,133295,1,8,0:0:0:0:
215,321,133451,6,0,P|306:290|411:328,1,191.250007295609,4|0,0:0|2:0,0:0:0:0:
504,370,133764,2,0,L|494:168,1,191.250007295609,4|0,0:0|2:0,0:0:0:0:
459,63,134076,2,0,P|368:94|263:56,1,191.250007295609,4|0,0:0|2:0,0:0:0:0:
169,13,134389,2,0,B|147:68|147:68|177:229,1,191.250007295609,4|0,0:0|2:0,0:0:0:0:
187,307,134701,6,0,P|131:343|23:312,1,152.999995330811,4|0,0:0|0:0,0:0:0:0:
26,316,135092,1,0,0:0:0:0:
12,292,135170,6,0,L|19:182,1,93.5000028533936,6|0,0:0|0:0,0:0:0:0:
155,105,135483,2,0,L|171:196,1,93.5000028533936,4|0,0:0|0:0,0:0:0:0:
289,353,135795,1,8,0:0:0:0:
384,182,135951,6,0,P|437:176|492:191,1,93.5000028533936,0|4,0:0|0:0,0:0:0:0:
381,355,136264,2,0,P|328:361|273:346,1,93.5000028533936,0|8,0:0|0:0,0:0:0:0:
168,249,136576,1,0,0:0:0:0:
384,182,136733,1,4,0:0:0:0:
289,352,136889,1,0,0:0:0:0:
247,141,137045,1,8,0:0:0:0:
199,326,137201,6,0,B|132:332|132:332|85:353|85:353|14:358,1,187.000005706787,6|0,0:0|0:0,0:0:0:0:
168,249,137670,2,0,L|300:240,1,93.5000028533936,8|0,0:0|0:0,0:0:0:0:
458,230,137983,1,4,0:0:0:0:
355,363,138139,1,0,0:0:0:0:
320,169,138295,2,0,P|278:149|219:158,1,93.5000028533936,8|0,0:0|0:0,0:0:0:0:
111,309,138608,6,0,P|153:329|212:320,1,93.5000028533936,6|0,0:0|0:0,0:0:0:0:
320,169,138920,1,8,0:0:0:0:
168,249,139076,1,0,0:0:0:0:
350,253,139233,2,0,P|346:206|309:160,1,93.5000028533936,4|0,0:0|0:0,0:0:0:0:
145,80,139545,1,8,0:0:0:0:
168,249,139701,1,0,0:0:0:0:
291,38,139858,5,8,0:0:0:0:
92,178,140014,1,8,0:0:0:0:
92,178,140483,5,8,0:0:0:0:
331,216,140639,1,8,0:0:0:0:
331,216,141108,5,6,0:0:0:0:
153,274,141264,1,8,0:0:0:0:
153,274,141342,1,12,0:0:0:0:
330,331,141498,1,8,0:0:0:0:
330,331,141576,1,12,0:0:0:0:
224,175,141733,1,8,0:0:0:0:
224,175,141811,1,12,0:0:0:0:
215,363,141967,1,8,0:0:0:0:
215,363,142045,1,12,0:0:0:0:
331,216,142201,1,8,0:0:0:0:
331,216,142279,1,8,0:0:0:0:
331,216,142358,6,0,L|439:218,1,85,6|0,0:0|0:0,0:0:0:0:
331,70,142670,2,0,L|223:72,1,85,8|0,0:0|0:0,0:0:0:0:
142,217,142983,2,0,L|250:219,1,85,4|0,0:0|0:0,0:0:0:0:
142,71,143295,2,0,L|34:73,1,85,8|0,0:0|0:0,0:0:0:0:
14,246,143608,5,4,0:0:0:0:
27,286,143686,1,0,0:0:0:0:
54,318,143764,1,0,0:0:0:0:
92,337,143842,1,0,0:0:0:0:
134,339,143920,1,8,0:0:0:0:
174,326,143998,1,0,0:0:0:0:
205,298,144076,1,0,0:0:0:0:
224,260,144154,1,0,0:0:0:0:
226,218,144233,6,0,P|226:188|226:171,1,42.5,4|0,0:0|0:0,0:0:0:0:
96,9,144389,2,0,P|96:39|96:56,1,42.5
269,99,144545,1,8,0:0:0:0:
269,99,144623,1,0,0:0:0:0:
269,99,144701,6,0,P|195:93|138:187,1,170,4|0,0:0|0:0,0:0:0:0:
114,244,145092,1,0,0:0:0:0:
114,244,145170,2,0,B|70:248|70:248|13:238,1,85,8|0,0:0|0:0,0:0:0:0:
226,175,145483,1,4,0:0:0:0:
174,345,145639,1,0,0:0:0:0:
30,241,145795,1,8,0:0:0:0:
222,270,145951,6,0,L|319:266,1,85,4|0,0:0|2:0,0:0:0:0:
474,163,146264,1,8,0:0:0:0:
435,354,146420,1,8,0:0:0:0:
346,179,146576,1,8,0:0:0:0:
307,370,146732,1,4,0:0:0:0:
456,255,146889,1,4,0:0:0:0:
222,270,147045,1,4,0:0:0:0:
435,353,147201,1,4,0:0:0:0:
333,145,147358,5,4,0:0:0:0:
96,257,147670,1,4,0:0:0:0:
333,145,147983,1,4,0:0:0:0:
273,73,148139,1,8,0:0:0:0:
181,53,148295,1,8,0:0:0:0:
181,53,148373,1,0,0:0:0:0:
181,53,148451,1,0,0:0:0:0:
175,309,148608,5,4,0:0:0:0:
273,73,148764,1,0,0:0:0:0:
46,189,148920,1,8,0:0:0:0:
299,207,149076,2,0,B|347:202|381:225|381:225|426:249|474:243|484:187|485:139|437:117|386:128|371:176,1,340,4|0,0:0|2:0,0:0:0:0:
316,333,149858,6,0,L|251:331,3,38.2499988327027,4|0|0|0,0:0|0:0|0:0|0:0,0:0:0:0:
221,275,150170,2,0,L|156:273,3,38.2499988327027
125,216,150483,1,0,0:0:0:0:
108,194,150561,1,0,0:0:0:0:
103,167,150639,1,0,0:0:0:0:
103,140,150717,1,0,0:0:0:0:
111,114,150795,1,0,0:0:0:0:
126,92,150873,1,0,0:0:0:0:
147,75,150951,2,0,L|203:74,1,38.2499988327027,8|0,0:0|0:0,0:0:0:0:
261,151,151108,6,0,P|268:174|270:196,3,38.2499988327027,4|0|0|0,0:0|0:0|0:0|0:0,0:0:0:0:
254,266,151420,2,0,P|247:289|245:311,3,38.2499988327027
294,367,151733,1,0,0:0:0:0:
319,375,151811,1,0,0:0:0:0:
345,377,151889,1,0,0:0:0:0:
370,370,151967,1,0,0:0:0:0:
394,360,152045,1,0,0:0:0:0:
413,342,152123,1,0,0:0:0:0:
423,317,152201,2,0,P|420:286|416:265,1,38.2499988327027,8|0,0:0|0:0,0:0:0:0:
376,179,152358,6,0,L|378:132,3,38.2499988327027,4|0|0|0,0:0|0:0|0:0|0:0,0:0:0:0:
337,71,152670,2,0,P|316:67|291:69,3,38.2499988327027
231,112,152983,1,0,0:0:0:0:
206,122,153061,1,0,0:0:0:0:
179,125,153139,1,0,0:0:0:0:
152,121,153217,1,0,0:0:0:0:
128,108,153295,1,0,0:0:0:0:
110,87,153373,1,0,0:0:0:0:
96,63,153451,2,0,L|51:70,1,38.2499988327027,4|0,0:0|0:0,0:0:0:0:
13,167,153608,6,0,P|12:197|17:224,3,38.2499988327027
43,279,153920,2,0,P|68:294|94:304,3,38.2499988327027
156,304,154233,1,8,0:0:0:0:
181,297,154311,1,0,0:0:0:0:
205,286,154389,1,0,0:0:0:0:
229,275,154467,1,8,0:0:0:0:
255,269,154545,1,0,0:0:0:0:
281,271,154623,1,0,0:0:0:0:
305,281,154701,1,8,0:0:0:0:
327,295,154779,1,0,0:0:0:0:
351,305,154858,6,0,L|400:304,1,38.2499988327027,6|0,0:0|0:0,0:0:0:0:
485,257,155014,1,0,0:0:0:0:
496,232,155092,1,0,0:0:0:0:
498,205,155170,1,8,0:0:0:0:
491,179,155248,1,0,0:0:0:0:
478,155,155326,1,0,0:0:0:0:
458,136,155404,1,0,0:0:0:0:
435,120,155483,2,0,L|433:70,3,38.2499988327027
356,60,155795,2,0,L|354:110,3,38.2499988327027
314,169,156108,5,0,0:0:0:0:
296,189,156186,1,0,0:0:0:0:
274,204,156264,1,0,0:0:0:0:
247,210,156342,1,0,0:0:0:0:
220,211,156420,1,0,0:0:0:0:
193,205,156498,1,0,0:0:0:0:
170,191,156576,1,0,0:0:0:0:
151,171,156654,1,0,0:0:0:0:
135,148,156733,2,0,L|79:151,3,38.2499988327027
87,70,157045,2,0,L|143:67,3,38.2499988327027
206,63,157358,6,0,L|262:60,1,38.2499988327027,4|0,0:0|0:0,0:0:0:0:
342,103,157514,1,0,0:0:0:0:
357,124,157592,1,0,0:0:0:0:
369,147,157670,1,0,0:0:0:0:
375,173,157748,1,0,0:0:0:0:
378,199,157826,1,0,0:0:0:0:
375,225,157904,1,0,0:0:0:0:
362,248,157983,6,0,L|365:299,1,38.2499988327027,4|0,0:0|0:0,0:0:0:0:
287,360,158139,1,0,0:0:0:0:
262,371,158217,1,0,0:0:0:0:
235,376,158295,1,0,0:0:0:0:
209,368,158373,1,0,0:0:0:0:
185,354,158451,1,0,0:0:0:0:
168,332,158529,1,0,0:0:0:0:
160,305,158608,6,0,L|161:254,1,38.2499988327027,4|0,0:0|0:0,0:0:0:0:
173,160,158764,1,0,0:0:0:0:
194,143,158842,1,0,0:0:0:0:
217,129,158920,2,0,P|244:126|274:126,1,38.2499988327027,4|0,0:0|0:0,0:0:0:0:
361,137,159076,1,0,0:0:0:0:
385,147,159154,1,0,0:0:0:0:
410,156,159233,6,0,L|463:153,1,38.2499988327027,4|0,0:0|0:0,0:0:0:0:
376,233,159389,2,0,L|323:236,1,38.2499988327027,4|0,0:0|0:0,0:0:0:0:
416,307,159545,2,0,L|469:304,1,38.2499988327027,4|0,0:0|0:0,0:0:0:0:
468,117,159701,6,0,B|398:119|398:119|376:137|376:137|289:139,1,170,6|4,0:0|0:0,0:0:0:0:
134,136,160170,2,0,P|125:90|137:44,1,85,8|0,0:0|0:0,0:0:0:0:
303,55,160483,2,0,P|312:101|300:147,1,85,4|0,0:0|0:0,0:0:0:0:
219,285,160795,1,8,0:0:0:0:
134,136,160951,1,0,0:0:0:0:
304,137,161108,6,0,L|479:129,1,170,4|8,0:0|0:0,0:0:0:0:
373,14,161576,1,0,0:0:0:0:
223,96,161733,2,0,P|213:141|236:196,1,85,4|0,0:0|0:0,0:0:0:0:
304,326,162045,1,8,0:0:0:0:
304,137,162201,6,0,L|129:136,1,170,4|4,0:0|0:0,0:0:0:0:
21,264,162670,2,0,P|12:305|21:361,1,85,8|0,0:0|0:0,0:0:0:0:
183,381,162983,2,0,P|192:340|183:284,1,85,4|0,0:0|0:0,0:0:0:0:
134,136,163295,1,8,0:0:0:0:
21,264,163451,1,0,0:0:0:0:
187,297,163608,6,0,P|271:276|353:290,1,170,4|8,0:0|0:0,0:0:0:0:
487,339,164076,1,0,0:0:0:0:
471,168,164233,1,8,0:0:0:0:
352,289,164389,1,0,0:0:0:0:
352,289,164467,1,0,0:0:0:0:
352,289,164545,2,0,L|362:384,1,85,8|0,0:0|0:0,0:0:0:0:
471,168,164858,6,0,L|461:73,1,85,4|0,0:0|0:0,0:0:0:0:
304,20,165170,2,0,L|294:115,1,85,8|0,0:0|0:0,0:0:0:0:
263,272,165483,1,4,0:0:0:0:
110,197,165639,2,0,P|57:190|15:197,1,85,0|8,0:0|0:0,0:0:0:0:
187,342,165951,6,0,L|371:330,1,170
492,227,166420,2,0,P|502:182|485:126,1,85,8|0,0:0|0:0,0:0:0:0:
383,14,166733,1,4,0:0:0:0:
400,182,166889,1,0,0:0:0:0:
272,70,167045,2,0,L|174:68,1,85,8|0,0:0|0:0,0:0:0:0:
42,159,167358,6,0,P|127:153|205:238,1,170,6|8,0:0|0:0,0:0:0:0:
92,267,167826,1,0,0:0:0:0:
264,155,167983,2,0,P|277:210|262:256,1,85,4|0,0:0|0:0,0:0:0:0:
179,380,168295,2,0,P|166:325|181:279,1,85,8|0,0:0|0:0,0:0:0:0:
264,155,168608,5,4,0:0:0:0:
389,310,168764,1,0,0:0:0:0:
380,112,168920,1,8,0:0:0:0:
270,279,169076,1,0,0:0:0:0:
443,209,169233,1,4,0:0:0:0:
279,165,169389,1,0,0:0:0:0:
386,297,169545,1,0,0:0:0:0:
380,112,169701,6,0,P|331:63|218:71,1,170,6|4,0:0|0:0,0:0:0:0:
97,122,170170,2,0,L|-1:119,1,85,8|0,0:0|0:0,0:0:0:0:
87,272,170483,2,0,L|270:277,1,170,4|8,0:0|0:0,0:0:0:0:
426,277,170951,1,0,0:0:0:0:
380,112,171108,5,4,0:0:0:0:
236,202,171264,2,0,L|128:199,1,85,8|0,0:0|0:0,0:0:0:0:
97,122,171498,2,0,L|205:119,1,85,8|0,0:0|0:0,0:0:0:0:
276,114,171733,1,8,0:0:0:0:
364,256,171889,1,8,0:0:0:0:
364,256,171967,1,0,0:0:0:0:
364,256,172045,2,0,L|370:316,1,42.5,8|0,0:0|0:0,0:0:0:0:
232,369,172201,6,0,B|221:246|221:246|242:180,1,170,6|4,0:0|0:0,0:0:0:0:
333,41,172670,2,0,L|433:34,1,85,8|0,0:0|0:0,0:0:0:0:
236,101,172983,2,0,L|48:87,1,170,4|8,0:0|0:0,0:0:0:0:
11,213,173451,1,0,0:0:0:0:
13,16,173608,5,4,0:0:0:0:
107,186,173764,1,4,0:0:0:0:
210,20,173920,1,8,0:0:0:0:
210,20,173998,2,0,L|322:19,1,85,8|0,0:0|0:0,0:0:0:0:
373,54,174233,2,0,P|387:101|383:156,1,85,8|0,0:0|0:0,0:0:0:0:
359,216,174467,1,0,0:0:0:0:
359,216,174545,2,0,L|484:205,1,85,8|4,0:0|0:0,0:0:0:0:
265,148,174858,6,0,P|243:203|290:309,2,170,4|8|4,0:0|0:0|0:0,0:0:0:0:
359,216,175639,1,0,0:0:0:0:
177,123,175795,2,0,P|205:81|243:60,1,85,8|0,0:0|0:0,0:0:0:0:
431,155,176108,6,0,B|312:165|312:165|255:144,1,170,4|8,0:0|0:0,0:0:0:0:
122,55,176576,1,0,0:0:0:0:
24,195,176733,2,0,L|29:295,1,85,4|0,0:0|0:0,0:0:0:0:
166,378,177045,2,0,L|171:278,1,85,8|0,0:0|0:0,0:0:0:0:
264,147,177358,6,0,P|339:136|438:158,1,170,4|8,0:0|0:0,0:0:0:0:
512,251,177826,1,0,0:0:0:0:
489,73,177983,1,4,0:0:0:0:
380,235,178139,1,0,0:0:0:0:
355,41,178295,2,0,P|311:40|258:50,1,85,8|0,0:0|0:0,0:0:0:0:
147,199,178608,6,0,B|134:250|134:250|151:305|151:305|132:377,1,170,6|8,0:0|0:0,0:0:0:0:
16,306,179076,1,0,0:0:0:0:
78,146,179233,2,0,P|107:122|175:112,1,85,4|0,0:0|0:0,0:0:0:0:
297,213,179545,2,0,P|268:237|200:247,1,85,8|0,0:0|0:0,0:0:0:0:
319,98,179858,5,4,0:0:0:0:
358,112,179936,1,0,0:0:0:0:
389,141,180014,1,0,0:0:0:0:
408,179,180092,1,0,0:0:0:0:
411,221,180170,1,8,0:0:0:0:
377,246,180248,1,0,0:0:0:0:
358,284,180326,1,0,0:0:0:0:
357,326,180404,1,0,0:0:0:0:
365,368,180483,5,4,0:0:0:0:
327,349,180561,1,0,0:0:0:0:
284,346,180639,1,0,0:0:0:0:
242,353,180717,1,0,0:0:0:0:
201,366,180795,2,0,L|197:315,1,42.5,8|0,0:0|0:0,0:0:0:0:
63,220,180951,2,0,L|67:278,1,42.5
197,205,181108,5,4,0:0:0:0:
37,17,181264,1,4,0:0:0:0:
65,262,181420,1,4,0:0:0:0:
173,171,186733,5,0,0:0:0:0:
218,168,186837,1,0,0:0:0:0:
263,164,186941,1,0,0:0:0:0:
308,159,187045,1,0,0:0:0:0:
106,261,187253,1,0,0:0:0:0:
61,266,187358,1,2,0:0:0:0:
96,216,192358,6,0,P|156:196|236:208,1,113.333333333333,6|0,0:0|2:0,0:0:0:0:
223,307,192670,2,0,P|203:247|215:167,1,113.333333333333,8|0,0:0|2:0,0:0:0:0:
315,180,192983,2,0,P|255:200|175:188,1,113.333333333333,4|0,0:0|2:0,0:0:0:0:
187,88,193295,2,0,P|207:148|195:228,1,113.333333333333,8|0,0:0|2:0,0:0:0:0:
110,319,193608,6,0,L|250:303,1,113.333333333333,4|0,0:0|2:0,0:0:0:0:
335,319,193920,2,0,L|195:303,1,113.333333333333,8|0,0:0|2:0,0:0:0:0:
204,197,194233,2,0,P|202:252|227:314,1,113.333333333333,4|0,0:0|2:0,0:0:0:0:
313,179,194545,2,0,P|258:177|196:202,1,113.333333333333,8|0,0:0|2:0,0:0:0:0:
388,232,194858,6,0,P|403:172|376:109,1,113.333333333333,4|0,0:0|2:0,0:0:0:0:
300,52,195170,2,0,L|169:59,1,113.333333333333,8|0,0:0|2:0,0:0:0:0:
132,158,195483,2,0,L|263:165,1,113.333333333333,4|0,0:0|2:0,0:0:0:0:
178,255,195795,1,8,0:0:0:0:
36,78,196003,1,2,0:0:0:0:
36,78,196108,5,6,0:0:0:0:
71,301,196316,1,2,0:0:0:0:
71,301,196421,1,2,0:0:0:0:
245,164,196628,1,2,0:0:0:0:
245,164,196733,1,6,0:0:0:0:
36,78,196941,1,2,0:0:0:0:
36,78,197045,1,2,0:0:0:0:
173,258,197253,1,2,0:0:0:0:
173,258,197358,6,0,P|218:280|296:270,1,113.333333333333,4|0,0:0|2:0,0:0:0:0:
387,258,197670,2,0,P|342:280|264:270,1,113.333333333333,8|0,0:0|2:0,0:0:0:0:
269,164,197983,2,0,L|281:295,1,113.333333333333,4|0,0:0|2:0,0:0:0:0:
377,371,198295,2,0,L|389:240,1,113.333333333333,8|0,0:0|2:0,0:0:0:0:
399,143,198608,6,0,P|454:133|507:149,1,113.333333333333,4|0,0:0|2:0,0:0:0:0:
508,110,198920,2,0,P|455:94|400:104,1,113.333333333333,8|0,0:0|2:0,0:0:0:0:
269,164,199233,1,6,0:0:0:0:
256,192,199311,12,0,201733,0:0:0:0:
146,193,202358,5,4,0:0:0:0:
146,193,202983,5,8,0:0:0:0:
130,236,203061,1,8,0:0:0:0:
138,282,203139,1,8,0:0:0:0:
167,318,203217,1,8,0:0:0:0:
210,335,203295,1,8,0:0:0:0:
256,328,203373,1,8,0:0:0:0:
293,301,203451,1,8,0:0:0:0:
311,258,203529,1,8,0:0:0:0:
307,212,203608,6,0,B|380:170|462:212|462:212|420:261,1,203.999993774414,6|8,0:0|0:0,0:0:0:0:
344,366,204076,1,0,0:0:0:0:
190,214,204233,2,0,P|198:166|236:119,1,101.999996887207,4|0,0:0|0:0,0:0:0:0:
361,292,204545,1,8,0:0:0:0:
152,340,204701,6,0,P|97:356|39:340,1,101.999996887207,0|4,0:0|0:0,0:0:0:0:
190,214,205014,2,0,P|245:200|302:216,1,101.999996887207,0|8,0:0|0:0,0:0:0:0:
434,243,205326,1,0,0:0:0:0:
244,321,205483,1,4,0:0:0:0:
443,359,205639,1,0,0:0:0:0:
365,138,205795,2,0,P|358:84|370:35,1,101.999996887207,8|0,0:0|0:0,0:0:0:0:
512,297,206108,6,0,B|442:301|442:301|383:281|383:281|290:283,1,203.999993774414,4|8,0:0|0:0,0:0:0:0:
158,288,206576,1,0,0:0:0:0:
221,51,206733,1,4,0:0:0:0:
311,282,206889,1,0,0:0:0:0:
104,147,207045,1,8,0:0:0:0:
348,134,207201,6,0,B|458:128|458:128|391:211,1,204,4|0,0:0|2:0,0:0:0:0:
268,193,207514,2,0,P|253:107|342:34,1,204,4|0,0:0|2:0,0:0:0:0:
331,241,207826,2,0,B|262:225|262:225|198:243|198:243|124:227,1,204,4|0,0:0|2:0,0:0:0:0:
17,207,208139,2,0,P|86:211|138:94,1,204,4|0,0:0|2:0,0:0:0:0:
56,125,208451,6,0,L|68:305,1,170,4|0,0:0|0:0,0:0:0:0:
70,324,208842,1,0,0:0:0:0:
73,354,208920,6,0,P|127:365|196:348,1,101.999996887207,6|0,0:0|0:0,0:0:0:0:
286,187,209233,2,0,P|232:176|163:193,1,101.999996887207,4|0,0:0|0:0,0:0:0:0:
285,361,209545,1,8,0:0:0:0:
391,187,209701,6,0,P|381:139|336:94,1,101.999996887207,0|4,0:0|0:0,0:0:0:0:
240,274,210014,2,0,P|250:322|295:367,1,101.999996887207,0|8,0:0|0:0,0:0:0:0:
425,381,210326,1,0,0:0:0:0:
512,196,210483,1,4,0:0:0:0:
340,278,210639,1,0,0:0:0:0:
512,341,210795,1,8,0:0:0:0:
391,187,210951,6,0,B|327:183|327:183|253:201|253:201|156:197,1,203.999993774414,4|4,0:0|0:0,0:0:0:0:
361,87,211420,2,0,L|482:80,1,101.999996887207,8|0,0:0|0:0,0:0:0:0:
442,284,211733,2,0,L|321:277,1,101.999996887207,4|0,0:0|0:0,0:0:0:0:
189,198,212045,1,8,0:0:0:0:
273,12,212201,6,0,B|311:55|311:55|289:210,1,203.999993774414,6|0,0:0|0:0,0:0:0:0:
147,349,212670,2,0,P|94:355|41:346,1,101.999996887207,8|0,0:0|0:0,0:0:0:0:
189,198,212983,2,0,P|242:192|295:201,1,101.999996887207,4|0,0:0|0:0,0:0:0:0:
433,277,213295,1,8,0:0:0:0:
198,285,213451,6,0,P|188:187|192:42,1,203.999993774414,6|8,0:0|0:0,0:0:0:0:
375,26,213920,1,8,0:0:0:0:
289,199,214076,1,8,0:0:0:0:
105,133,214233,2,0,P|92:85|109:25,1,101.999996887207,4|0,0:0|0:0,0:0:0:0:
289,199,214545,2,0,P|302:247|285:307,1,101.999996887207,8|0,0:0|0:0,0:0:0:0:
40,292,214858,6,0,P|116:228|212:247,1,203.999993774414,4|8,0:0|0:0,0:0:0:0:
145,344,215326,1,0,0:0:0:0:
290,297,215483,2,0,P|302:247|289:199,1,101.999996887207,4|0,0:0|0:0,0:0:0:0:
120,129,215795,2,0,P|108:178|121:227,1,101.999996887207,8|0,0:0|0:0,0:0:0:0:
188,48,216108,5,8,0:0:0:0:
25,221,216264,1,4,0:0:0:0:
25,221,216342,1,4,0:0:0:0:
25,221,216420,2,0,P|72:237|135:219,1,101.999996887207,4|8,0:0|0:0,0:0:0:0:
282,97,216733,1,4,0:0:0:0:
282,97,216811,1,4,0:0:0:0:
282,97,216889,2,0,P|316:94|337:96,1,50.9999984436036,4|0,0:0|0:0,0:0:0:0:
440,162,217045,1,0,0:0:0:0:
444,202,217123,1,0,0:0:0:0:
450,242,217201,1,0,0:0:0:0:
455,282,217279,1,0,0:0:0:0:
455,320,217358,6,0,P|414:339|362:339,1,85,6|0,0:0|0:0,0:0:0:0:
229,237,217670,2,0,P|270:218|322:218,1,85,8|0,0:0|0:0,0:0:0:0:
146,290,217983,2,0,P|131:245|140:192,1,85,4|0,0:0|0:0,0:0:0:0:
297,133,218295,2,0,P|312:178|303:231,1,85,8|0,0:0|0:0,0:0:0:0:
216,61,218608,5,4,0:0:0:0:
249,35,218686,1,0,0:0:0:0:
290,24,218764,1,0,0:0:0:0:
332,29,218842,1,0,0:0:0:0:
368,50,218920,1,8,0:0:0:0:
400,78,218998,1,0,0:0:0:0:
440,91,219076,1,0,0:0:0:0:
482,88,219154,1,0,0:0:0:0:
509,54,219233,6,0,L|502:6,1,42.5,4|0,0:0|0:0,0:0:0:0:
334,119,219389,2,0,L|327:167,1,42.5
271,298,219545,1,8,0:0:0:0:
271,298,219623,1,0,0:0:0:0:
271,298,219701,6,0,P|209:276|103:312,1,170,4|0,0:0|0:0,0:0:0:0:
86,319,220092,1,0,0:0:0:0:
62,336,220170,2,0,P|52:285|49:239,1,85,8|0,0:0|0:0,0:0:0:0:
35,58,220483,1,4,0:0:0:0:
207,148,220639,1,0,0:0:0:0:
49,252,220795,1,8,0:0:0:0:
142,67,220951,6,0,P|229:63|321:58,1,170,4|0,0:0|0:0,0:0:0:0:
341,58,221342,1,0,0:0:0:0:
370,58,221420,2,0,P|385:99|380:156,1,85,8|0,0:0|0:0,0:0:0:0:
319,325,221733,1,4,0:0:0:0:
468,197,221889,1,0,0:0:0:0:
273,212,222045,1,8,0:0:0:0:
434,348,222201,6,0,P|476:293|449:173,1,170,4|0,0:0|0:0,0:0:0:0:
450,172,222592,1,0,0:0:0:0:
428,151,222670,2,0,L|333:147,1,85,8|0,0:0|0:0,0:0:0:0:
147,132,222983,1,4,0:0:0:0:
231,308,223139,1,0,0:0:0:0:
343,147,223295,1,8,0:0:0:0:
136,246,223451,2,0,L|27:240,1,85,4|0,0:0|2:0,0:0:0:0:
266,55,223764,5,4,0:0:0:0:
141,256,223920,2,0,L|32:259,1,85,6|0,0:0|2:0,0:0:0:0:
259,55,224233,5,4,0:0:0:0:
147,266,224389,2,0,L|38:279,1,85,6|0,0:0|2:0,0:0:0:0:
253,57,224702,5,4,0:0:0:0:
154,275,224858,2,0,L|47:297,1,85,6|0,0:0|2:0,0:0:0:0:
247,59,225171,5,4,0:0:0:0:
309,345,225326,1,6,0:0:0:0:
