osu file format v14

[General]
AudioFilename: Long Version.mp3
AudioLeadIn: 0
PreviewTime: 52983
Countdown: 0
SampleSet: Normal
StackLeniency: 0.7
Mode: 0
LetterboxInBreaks: 0
WidescreenStoryboard: 0

[Editor]
DistanceSpacing: 1
BeatDivisor: 2
GridSize: 4
TimelineZoom: 1.7

[Metadata]
Title:Pochiko no Shiawase na Nichijou (Long Version)
TitleUnicode:ポチコの幸せな日常(Long Version)
Artist:NU-KO
ArtistUnicode:NU-KO
Creator:SnowNiNo_
Version:Chu's Easy
Source:pop'n music Sunny Park
Tags:StarForYou arronchu1207 DeRandom Otaku Deppyforce Ren Akitoshi Corinn わんわんコア pupcore pon daichi watanabe jubeat saucer fulfill reflec beat groovin'!! upper original soundtrack vol.2 nuko yuzuki konami bemani
BeatmapID:689826
BeatmapSetID:307034

[Difficulty]
HPDrainRate:2
CircleSize:3
OverallDifficulty:2
ApproachRate:3
SliderMultiplier:0.899999999999999
SliderTickRate:1

[Events]
//Background and Video events
0,0,"B-yk9UfUIAAnrsy.jpg",0,0
//Break Periods
2,18807,22168
2,66308,72168
2,150058,157793
//Storyboard Layer 0 (Background)
//Storyboard Layer 1 (Fail)
//Storyboard Layer 2 (Pass)
//Storyboard Layer 3 (Foreground)
//Storyboard Sound Samples

[TimingPoints]
9858,312.5,4,1,0,50,1,0
39858,-100,4,1,0,40,0,0
48608,-100,4,1,0,50,0,0
53920,-100,4,1,0,60,0,1
66108,-100,4,1,0,50,0,0
73608,-100,4,1,0,30,0,0
78608,-100,4,1,0,50,0,0
130170,-100,4,1,0,60,0,1
142358,-100,4,1,0,50,0,0
182983,-100,4,2,0,50,0,0
185170,-100,4,2,0,5,0,0
185795,-100,4,2,0,50,0,0
186420,-100,4,2,0,5,0,0
187045,-100,4,2,0,50,0,0
203608,-100,4,1,0,60,0,1
217358,-100,4,1,0,50,0,0

[Colours]
Combo1 : 255,214,89
Combo2 : 24,197,171
Combo3 : 196,157,77
Combo4 : 249,142,158

[HitObjects]
88,88,11108,6,0,P|136:108|188:100,1,89.9999999999999,0|8,0:0|0:0,0:0:0:0:
260,76,11733,2,0,P|304:74|345:93,1,89.9999999999999,0|8,0:0|0:0,0:0:0:0:
328,184,12358,2,0,B|404:192|432:124|432:124|484:152|492:224,1,225,2|0,0:0|0:0,0:0:0:0:
420,260,13451,1,0,0:0:0:0:
292,308,13920,5,0,0:0:0:0:
208,280,14233,2,0,B|168:260|120:280|120:280|64:260,1,135,2|0,0:2|0:0,0:0:0:0:
40,184,15014,2,0,P|24:112|88:44,1,135,8|0,0:2|0:0,0:0:0:0:
116,132,15795,1,2,0:2:0:0:
144,44,16108,6,0,L|276:52,1,89.9999999999999,2|8,0:0|0:0,0:0:0:0:
276,132,16733,2,0,L|408:140,1,89.9999999999999,2|8,0:0|0:0,0:0:0:0:
404,220,17358,1,2,0:0:0:0:
496,320,17826,2,0,P|436:352|280:276,1,225,4|4,0:2|0:0,0:0:0:0:
324,58,23608,5,8,0:0:0:0:
488,132,24233,2,0,P|492:192|452:244,1,89.9999999999999,2|0,0:0|0:0,0:0:0:0:
404,268,24858,2,0,L|204:288,1,180,8|2,0:0|0:0,0:0:0:0:
144,248,25795,1,0,0:0:0:0:
56,272,26108,6,0,P|36:212|64:156,1,89.9999999999999,8|0,0:0|0:0,0:0:0:0:
108,124,26733,2,0,L|208:116,1,89.9999999999999,2|0,0:0|0:0,0:0:0:0:
260,183,27358,2,0,P|287:122|268:60,2,135
184,228,28608,6,0,P|204:276|272:308,1,89.9999999999999,8|0,0:0|0:0,0:0:0:0:
320,284,29233,2,0,L|409:277,1,89.9999999999999,2|0,0:0|0:0,0:0:0:0:
464,348,29858,2,0,B|504:308|496:280|500:256|480:220|480:220|464:180|468:156|469:133|500:88,1,270,8|0,0:0|0:0,0:0:0:0:
404,96,31108,6,0,L|296:80,1,89.9999999999999,8|0,0:0|0:0,0:0:0:0:
244,28,31733,2,0,P|224:80|248:140,1,89.9999999999999,2|0,0:0|0:0,0:0:0:0:
292,176,32358,2,0,P|312:220|300:288,2,89.9999999999999,8|4|2,0:0|0:0|0:0,0:0:0:0:
224,236,33295,1,0,0:0:0:0:
148,184,33608,6,0,P|140:276|228:328,1,180,8|2,0:0|0:0,0:0:0:0:
288,300,34545,1,0,0:0:0:0:
368,260,34858,2,0,P|372:184|436:140,2,135,8|0|0,0:0|0:0|0:0,0:0:0:0:
452,228,36108,6,0,P|452:296|424:340,1,89.9999999999999,8|0,0:0|0:0,0:0:0:0:
360,348,36733,2,0,L|232:324,1,89.9999999999999,2|0,0:0|0:0,0:0:0:0:
192,368,37358,5,12,0:0:0:0:
156,192,37983,1,6,0:0:0:0:
248,36,38608,1,12,0:0:0:0:
428,32,39233,1,2,0:0:0:0:
492,92,39545,1,2,0:0:0:0:
408,120,39858,6,0,P|436:184|360:296,1,180,12|0,0:0|0:0,0:0:0:0:
256,164,41108,2,0,B|236:268|284:232|256:372,1,180,8|2,0:0|0:0,0:0:0:0:
172,356,42045,1,2,0:0:0:0:
84,364,42358,5,8,0:0:0:0:
28,192,42983,1,2,0:0:0:0:
84,20,43608,1,8,0:0:0:0:
256,76,44233,1,2,0:0:0:0:
340,44,44545,1,2,0:0:0:0:
428,20,44858,6,0,B|432:72|432:72|416:144|416:144|424:224,1,180,8|0,0:0|0:0,0:0:0:0:
344,360,46108,2,0,B|284:368|256:336|256:336|224:376|136:352,1,180,8|2,0:0|0:0,0:0:0:0:
92,328,47045,1,2,0:0:0:0:
52,248,47358,1,0,0:0:0:0:
340,32,48608,6,0,P|412:36|484:128,1,180,8|2,0:0|0:0,0:0:0:0:
440,192,49545,1,0,0:0:0:0:
480,271,49858,2,0,P|427:340|340:352,1,180,8|2,0:0|0:0,0:0:0:0:
256,320,50795,1,0,0:0:0:0:
276,232,51108,6,0,L|268:128,1,89.9999999999999,10|0,0:2|0:0,0:0:0:0:
212,76,51733,2,0,P|172:60|100:68,1,89.9999999999999,8|0,0:2|0:0,0:0:0:0:
40,92,52358,1,6,0:2:0:0:
112,256,52983,2,0,P|184:280|240:248,2,135,2|2|0,0:2|0:2|0:0,0:0:0:0:
172,192,54233,6,0,P|116:148|140:32,1,180,2|8,0:0|0:0,0:0:0:0:
196,104,55170,1,0,0:0:0:0:
280,136,55483,2,0,P|336:180|312:296,1,180,2|8,0:0|0:0,0:0:0:0:
256,224,56420,1,0,0:0:0:0:
216,304,56733,6,0,B|148:312|148:312|60:300,1,135,2|2,0:0|0:2,0:0:0:0:
88,212,57514,1,2,0:2:0:0:
28,144,57826,2,0,P|16:108|32:40,1,89.9999999999999,2|2,0:2|0:2,0:0:0:0:
104,98,58451,2,0,L|260:112,1,135,2|0,0:2|0:0,0:0:0:0:
324,76,59233,6,0,B|348:136|296:184|296:184|296:240|312:272,1,180,2|8,0:0|0:0,0:0:0:0:
388,276,60170,1,0,0:0:0:0:
364,364,60483,2,0,B|272:364|272:364|192:328,1,180
104,320,61420,5,0,0:0:0:0:
48,248,61733,2,0,L|56:128,1,89.9999999999999,2|0,0:0|0:0,0:0:0:0:
108,88,62358,2,0,P|192:76|236:112,2,135,8|0|0,0:0|0:0|0:0,0:0:0:0:
160,160,63608,6,0,P|200:188|264:184,1,89.9999999999999,10|0,0:2|0:2,0:0:0:0:
292,264,64233,2,0,L|272:360,1,89.9999999999999,10|0,0:2|0:2,0:0:0:0:
184,352,64858,2,0,P|120:364|48:288,2,135,10|0|8,0:0|0:0|0:0,0:0:0:0:
136,276,66108,5,4,0:0:0:0:
187,134,73608,6,0,B|211:106|211:106|211:38,1,89.9999999999999,8|0,0:0|0:0,0:0:0:0:
301,53,74233,2,0,B|301:106|301:106|325:134,1,89.9999999999999,2|0,0:0|0:0,0:0:0:0:
416,136,74858,2,0,B|416:204|352:224|352:224|284:280,1,180,8|2,0:0|0:0,0:0:0:0:
228,316,75795,1,0,0:0:0:0:
156,368,76108,6,0,P|100:332|88:212,2,180,8|2|8,0:0|0:0|0:0,0:0:0:0:
304,263,77983,1,2,0:0:0:0:
392,280,78295,1,0,0:0:0:0:
480,304,78608,6,0,B|484:232|484:232|472:200|472:200|504:160|480:104,1,180,12|2,0:0|0:0,0:0:0:0:
411,86,79545,1,0,0:0:0:0:
324,56,79858,2,0,L|172:56,2,135,8|0|0,0:0|0:0|0:0,0:0:0:0:
411,86,81108,2,0,B|384:144|324:144|324:144|188:144|188:144|124:144|100:80,1,360,8|8,0:0|0:0,0:0:0:0:
40,292,83608,6,0,L|132:304,1,89.9999999999999,8|0,0:0|0:0,0:0:0:0:
216,280,84233,2,0,L|305:291,1,89.9999999999999,2|0,0:0|0:0,0:0:0:0:
360,364,84858,2,0,B|420:308|376:232|376:232|432:88,1,270,8|0,0:0|0:0,0:0:0:0:
348,64,86108,6,0,B|296:48|256:72|256:72|216:44|148:72,1,180,8|2,0:0|0:0,0:0:0:0:
84,76,87045,1,0,0:0:0:0:
40,156,87358,2,0,B|92:172|132:148|132:148|172:176|240:148,1,180,8|2,0:0|0:0,0:0:0:0:
256,236,88295,1,0,0:0:0:0:
180,288,88608,6,0,P|256:328|344:268,1,180,8|2,0:0|0:0,0:0:0:0:
344,200,89545,1,0,0:0:0:0:
416,252,89858,2,0,B|432:200|432:200|400:104,2,135,8|0|0,0:0|0:0|0:0,0:0:0:0:
333,287,91108,6,0,P|296:320|256:328,1,89.9999999999999,8|0,0:0|0:0,0:0:0:0:
180,288,91733,2,0,P|142:255|102:247,1,89.9999999999999,2|0,0:0|0:0,0:0:0:0:
104,336,92358,5,8,0:0:0:0:
48,164,92983,1,2,0:0:0:0:
224,192,93608,1,8,0:0:0:0:
352,68,94233,1,0,0:0:0:0:
176,104,94858,6,0,P|132:40|56:8,2,135,8|0|0,0:2|0:0|0:0,0:0:0:0:
184,192,96108,2,0,P|252:232|348:168,1,180,8|2,0:2|0:2,0:0:0:0:
260,144,97045,1,0,0:0:0:0:
340,104,97358,2,0,B|396:104|420:160|420:160|452:180|504:192,1,180,8|2,0:2|0:2,0:0:0:0:
392,340,98608,6,0,B|256:364|256:364|100:336,1,270,8|0,0:2|0:0,0:0:0:0:
168,260,99858,2,0,B|256:276|256:276|368:256,2,180,8|2|8,0:2|0:2|0:2,0:0:0:0:
140,176,101420,1,2,0:2:0:0:
212,120,101733,1,2,0:2:0:0:
300,120,102045,1,2,0:2:0:0:
372,176,102358,5,10,0:2:0:0:
256,316,102983,2,0,B|184:336|192:288|80:320,2,135,2|0|0,0:2|0:0|0:0,0:0:0:0:
348,316,104233,2,0,L|448:316,1,89.9999999999999,2|0,0:2|0:0,0:0:0:0:
504,256,104858,6,0,B|512:208|512:208|496:136,2,89.9999999999999,8|0|2,0:2|0:0|0:2,0:0:0:0:
380,124,106108,2,0,B|372:76|372:76|388:4,2,89.9999999999999,8|0|2,0:2|0:0|0:2,0:0:0:0:
400,212,107045,1,0,0:0:0:0:
312,188,107358,6,0,B|276:180|256:156|256:156|252:120|252:120|216:132|176:128|176:128|132:92|56:124,1,270,8|0,0:2|0:0,0:0:0:0:
120,200,108608,1,12,0:2:0:0:
256,316,109233,1,12,0:2:0:0:
392,200,109858,6,0,L|380:84,1,89.9999999999999,8|4,0:2|0:0,0:0:0:0:
304,152,110483,2,0,L|292:36,1,89.9999999999999,10|4,0:2|0:0,0:0:0:0:
212,28,111108,5,10,0:2:0:0:
128,56,111420,1,10,0:2:0:0:
44,24,111733,2,0,L|24:128,1,89.9999999999999,14|0,0:2|0:2,0:0:0:0:
108,148,112358,6,0,P|148:132|212:144,1,89.9999999999999,8|0,0:2|0:0,0:0:0:0:
160,220,112983,2,0,L|136:364,2,135,2|0|4,0:2|0:0|0:0,0:0:0:0:
256,68,114545,1,4,0:0:0:0:
352,220,115170,1,4,0:0:0:0:
372,132,115483,2,0,P|420:120|472:140,1,89.9999999999999
475,220,116108,5,8,0:0:0:0:
352,348,116733,1,2,0:0:0:0:
168,348,117358,1,8,0:0:0:0:
8,268,117983,2,0,P|36:228|48:168,1,89.9999999999999,2|2,0:0|0:0,0:0:0:0:
28,100,118608,6,0,L|232:116,1,180,8|2,0:0|0:0,0:0:0:0:
352,224,119858,2,0,L|148:240,1,180,8|2,0:0|0:0,0:0:0:0:
100,292,120795,1,2,0:0:0:0:
168,352,121108,5,8,0:0:0:0:
348,356,121733,1,2,0:0:0:0:
508,272,122358,1,8,0:0:0:0:
328,260,122983,1,2,0:0:0:0:
344,172,123295,1,2,0:0:0:0:
256,200,123608,6,0,B|252:156|252:156|268:68|268:68|264:16,1,180,8|0,0:0|0:0,0:0:0:0:
152,160,124858,6,0,B|156:204|156:204|140:292|140:292|144:344,2,180,8|2|8,0:0|0:0|0:0,0:0:0:0:
76,112,126420,2,0,P|136:72|232:120,1,180
312,96,127358,2,0,P|309:140|288:180,1,89.9999999999999,10|0,0:2|0:0,0:0:0:0:
328,260,127983,2,0,P|284:270|240:262,1,89.9999999999999,10|0,0:2|0:0,0:0:0:0:
200,184,128608,5,6,0:2:0:0:
96,328,129233,2,0,B|136:348|176:332|176:332|208:356|244:360,2,135,2|2|0,0:2|0:2|0:0,0:0:0:0:
140,248,130483,6,0,P|104:176|168:88,2,180,2|8|2,0:0|0:0|0:0,0:0:0:0:
320,272,132358,2,0,P|356:200|292:112,1,180,8|2,0:0|0:0,0:0:0:0:
200,40,133451,6,0,L|96:56,1,89.9999999999999,2|2,0:2|0:2,0:0:0:0:
96,144,134076,2,0,L|-8:160,2,89.9999999999999,2|2|2,0:2|0:2|0:2,0:0:0:0:
208,216,135170,5,0,0:0:0:0:
152,284,135483,2,0,P|216:304|296:224,1,180,2|8,0:0|0:0,0:0:0:0:
276,148,136420,1,0,0:0:0:0:
364,172,136733,2,0,L|484:164,1,89.9999999999999,2|0,0:0|0:0,0:0:0:0:
512,96,137358,1,8,0:0:0:0:
452,28,137670,5,0,0:0:0:0:
364,44,137983,2,0,L|232:56,1,89.9999999999999,2|0,0:0|0:0,0:0:0:0:
184,68,138608,2,0,P|144:128|160:200,2,135,8|0|0,0:0|0:0|0:0,0:0:0:0:
236,144,139858,5,10,0:2:0:0:
404,212,140483,1,10,0:2:0:0:
284,348,141108,2,0,P|224:364|148:336,2,135,10|0|0,0:0|0:0|0:0,0:0:0:0:
372,340,142358,6,0,L|476:344,1,89.9999999999999,8|0,0:0|0:0,0:0:0:0:
496,260,142983,1,2,0:0:0:0:
480,172,143295,1,0,0:0:0:0:
464,84,143608,6,0,B|352:40|352:40|312:84|240:56,1,225,2|0,0:2|0:0,0:0:0:0:
208,140,144701,2,0,P|260:156|372:140,1,135,8|0,0:0|0:0,0:0:0:0:
428,172,145483,2,0,B|416:216|436:256|436:256|448:312,1,135,2|2,0:2|0:0,0:0:0:0:
316,340,146420,1,0,0:0:0:0:
228,360,146733,6,0,L|228:270,1,89.9999999999999,2|0,0:0|0:0,0:0:0:0:
184,192,147358,2,0,P|144:180|88:196,1,89.9999999999999,8|0,0:0|0:0,0:0:0:0:
52,268,147983,2,0,P|92:280|148:264,1,89.9999999999999,2|0,0:0|0:0,0:0:0:0:
228,270,148608,2,0,L|384:304,2,135,8|0|0,0:0|0:0|0:0,0:0:0:0:
184,192,149858,5,2,0:3:0:0:
340,128,159233,6,0,P|400:156|476:140,2,135,2|0|0,0:0|0:0|0:0,0:0:0:0:
260,84,160483,2,0,L|144:92,1,89.9999999999999,2|0,0:0|0:0,0:0:0:0:
96,36,161108,2,0,B|60:104|108:156|108:156|96:208|96:208|120:280|56:340,1,315,8|0,0:0|0:0,0:0:0:0:
284,268,162983,6,0,L|392:256,1,89.9999999999999,2|0,0:0|0:0,0:0:0:0:
432,328,163608,2,0,P|464:264|424:176,2,135,8|0|0,0:0|0:0|0:0,0:0:0:0:
344,348,164858,5,8,0:0:0:0:
256,360,165170,1,0,0:0:0:0:
168,340,165483,2,0,L|24:304,2,135,2|0|0,0:0|0:0|0:0,0:0:0:0:
216,264,166733,1,0,0:0:0:0:
256,184,167045,1,0,0:0:0:0:
180,132,167358,6,0,P|252:92|340:148,1,180,8|2,0:0|0:0,0:0:0:0:
256,184,168295,1,0,0:0:0:0:
256,276,168608,2,0,L|256:376,1,89.9999999999999,8|0,0:0|0:0,0:0:0:0:
168,340,169233,2,0,P|100:328|28:340,1,135,2|0,0:0|0:0,0:0:0:0:
48,112,170483,6,0,L|144:140,1,89.9999999999999,2|0,0:0|0:0,0:0:0:0:
224,156,171108,2,0,P|292:164|364:136,1,135,8|0,0:0|0:0,0:0:0:0:
492,28,172201,2,0,B|432:96|452:192,1,135
452,244,172983,2,0,L|428:336,1,89.9999999999999,2|0,0:0|0:0,0:0:0:0:
340,336,173608,2,0,P|260:344|208:296,2,135,8|0|0,0:0|0:0|0:0,0:0:0:0:
292,260,174858,6,0,B|272:160|272:160|296:48|296:48|148:72,1,360,8|8,0:0|0:0,0:0:0:0:
112,248,176733,1,2,0:0:0:0:
292,260,177358,2,0,B|376:276|376:276|480:232|480:232|434:340|434:340|364:368,1,360,8|8,0:0|0:0,0:0:0:0:
368,180,179233,1,2,0:0:0:0:
256,192,179858,12,4,181108,0:0:0:0:
100,220,182983,5,2,0:0:0:0:
256,312,183608,1,8,0:0:0:0:
412,220,184233,1,2,0:0:0:0:
256,132,184858,2,0,B|192:112|192:112|116:132|116:132|120:76|120:76|100:44|60:48|60:48|24:56|4:88|12:136,2,360,8|0|0,0:2|0:0|0:0,0:0:0:0:
436,136,187983,5,2,0:0:0:0:
340,288,188608,1,8,0:0:0:0:
188,192,189233,2,0,B|132:188|132:188|108:196|108:196|44:192,2,135,2|0|0,0:0|0:0|0:0,0:0:0:0:
256,132,190483,1,2,0:0:0:0:
396,20,191108,1,8,0:0:0:0:
348,192,191733,6,0,P|420:200|504:284,1,180,2|0,0:0|0:0,0:0:0:0:
348,372,192983,1,2,0:0:0:0:
256,216,193608,1,8,0:0:0:0:
164,372,194233,1,2,0:0:0:0:
140,192,194858,6,0,B|152:128|152:128|136:92|136:92|144:8,1,180,8|2,0:0|0:0,0:0:0:0:
272,52,195951,2,0,L|372:44,1,89.9999999999999,2|2,0:0|0:0,0:0:0:0:
376,132,196576,2,0,P|348:188|324:220,1,89.9999999999999,2|2,0:0|0:0,0:0:0:0:
244,232,197201,2,0,P|280:284|364:296,1,135,2|0,0:0|0:0,0:0:0:0:
432,276,197983,1,2,0:0:0:0:
284,376,198608,2,0,P|212:336|160:236,1,180,8|2,0:0|0:0,0:0:0:0:
256,192,199858,12,2,202358,0:0:0:0:
256,192,203608,6,0,P|260:276|248:312,1,89.9999999999999,8|0,0:0|0:0,0:0:0:0:
188,336,204233,2,0,P|104:340|68:328,1,89.9999999999999,2|0,0:0|0:0,0:0:0:0:
44,268,204858,2,0,L|32:96,2,135,8|0|0,0:0|0:0|0:0,0:0:0:0:
99,338,206108,5,8,0:0:0:0:
180,296,206420,1,0,0:0:0:0:
256,248,206733,2,0,B|260:196|260:196|252:164|252:164|260:80,1,135,2|2,0:0|0:0,0:0:0:0:
332,64,207514,5,2,0:0:0:0:
256,16,207826,2,0,P|200:36|168:72,1,89.9999999999999,2|2,0:0|0:0,0:0:0:0:
96,20,208451,2,0,P|88:56|176:144,1,135,2|0,0:0|0:0,0:0:0:0:
88,212,209233,5,0,0:0:0:0:
40,288,209545,1,0,0:0:0:0:
120,324,209858,2,0,L|280:316,2,135,8|0|0,0:0|0:0|0:0,0:0:0:0:
84,148,211420,5,0,0:0:0:0:
160,192,211733,2,0,P|220:212|296:184,1,135,2|2,0:0|0:0,0:0:0:0:
396,272,212670,1,0,0:0:0:0:
452,204,212983,2,0,L|436:52,1,135,2|2,0:0|0:0,0:0:0:0:
304,60,213920,5,0,0:0:0:0:
224,100,214233,1,8,0:0:0:0:
140,68,214545,1,0,0:0:0:0:
256,192,214858,12,4,217358,0:0:0:0:
28,210,218608,6,0,B|60:172|96:168|140:168|172:188|172:188|199:213|252:220|300:200|312:172,1,315,2|0,0:0|0:0,0:0:0:0:
432,112,220170,1,8,0:0:0:0:
472,192,220483,2,0,P|488:268|456:348,1,135,2|0,0:0|0:0,0:0:0:0:
356,256,221420,5,8,0:0:0:0:
280,304,221733,2,0,L|128:316,1,135,2|0,0:0|0:0,0:0:0:0:
32,240,222670,5,8,0:0:0:0:
112,196,222983,2,0,P|160:144|176:52,1,135,2|0,0:0|0:0,0:0:0:0:
264,56,223764,5,10,0:0:0:0:
400,44,224233,1,10,0:0:0:0:
412,180,224701,1,10,0:0:0:0:
276,192,225170,1,14,0:0:0:0:
