osu file format v14

[General]
AudioFilename: Gilanya Belanja di Bukalapak.mp3
AudioLeadIn: 0
PreviewTime: -1
Countdown: 0
SampleSet: None
StackLeniency: 0.2
Mode: 3
LetterboxInBreaks: 0
SpecialStyle: 0
WidescreenStoryboard: 1

[Editor]
DistanceSpacing: 0.8
BeatDivisor: 4
GridSize: 32
TimelineZoom: 2.2

[Metadata]
Title:Sakit Jiwa (Bukalapak Ver.)
TitleUnicode:Sakit Jiwa (Bukalapak Ver.)
Artist:NTRL
ArtistUnicode:NTRL
Creator:dionzz99
Version:MEGA MUDAH DAN TERPERCAYA; HARGA: 6K
Source:YUTUB YUTUB LEBIH DARI TIPI BOOM
Tags:KALIAN SUCI AKU SUDAH GILAAA
BeatmapID:1155650
BeatmapSetID:544306

[Difficulty]
HPDrainRate:6
CircleSize:6
OverallDifficulty:6
ApproachRate:5
SliderMultiplier:1.4
SliderTickRate:1

[Events]
//Background and Video events
0,0,"664xauto-ceo-bukalapak-buka-bukaan-soal-sumber-pendapatan-bukalapakcom-1509227.jpg",0,0
Video,0,"Gilanya Belanja di Bukalapak.mp4"
//Break Periods
2,27581,31271
//Storyboard Layer 0 (Background)
//Storyboard Layer 1 (Fail)
//Storyboard Layer 2 (Pass)
//Storyboard Layer 3 (Foreground)
//Storyboard Sound Samples

[TimingPoints]
240,357.142857142857,4,1,0,0,1,0
15864,357.142857142857,4,1,0,0,1,0

[HitObjects]
128,192,240,128,0,329:0:0:0:0:
213,192,240,128,0,329:0:0:0:0:
298,192,240,128,0,329:0:0:0:0:
384,192,240,128,0,329:0:0:0:0:
469,192,240,128,0,329:0:0:0:0:
42,192,240,128,0,507:0:0:0:0:
469,192,418,128,0,507:0:0:0:0:
384,192,597,128,0,686:0:0:0:0:
298,192,597,128,0,686:0:0:0:0:
213,192,597,128,0,686:0:0:0:0:
128,192,597,128,0,686:0:0:0:0:
42,192,597,128,0,686:0:0:0:0:
469,192,597,128,0,864:0:0:0:0:
42,192,775,128,0,864:0:0:0:0:
42,192,954,128,0,1043:0:0:0:0:
213,192,954,128,0,1043:0:0:0:0:
298,192,954,128,0,1043:0:0:0:0:
384,192,954,128,0,1043:0:0:0:0:
469,192,954,128,0,1043:0:0:0:0:
128,192,954,128,0,1222:0:0:0:0:
469,192,1132,128,0,1222:0:0:0:0:
469,192,1311,128,0,1400:0:0:0:0:
298,192,1311,128,0,1400:0:0:0:0:
213,192,1311,128,0,1400:0:0:0:0:
128,192,1311,128,0,1400:0:0:0:0:
42,192,1311,128,0,1400:0:0:0:0:
384,192,1311,128,0,1579:0:0:0:0:
42,192,1489,128,0,1579:0:0:0:0:
213,192,1668,128,0,1847:0:0:0:0:
298,192,1668,128,0,1757:0:0:0:0:
384,192,1668,128,0,1757:0:0:0:0:
469,192,1668,128,0,1757:0:0:0:0:
128,192,1668,128,0,1757:0:0:0:0:
42,192,1668,128,0,1757:0:0:0:0:
469,192,1847,128,0,2382:0:0:0:0:
298,192,1847,128,0,2204:0:0:0:0:
128,192,1847,1,0,0:0:0:0:
213,192,1936,1,0,0:0:0:0:
42,192,2025,1,0,0:0:0:0:
128,192,2114,1,0,0:0:0:0:
213,192,2204,128,0,2382:0:0:0:0:
384,192,2204,1,0,0:0:0:0:
298,192,2293,1,0,0:0:0:0:
384,192,2382,128,0,2561:0:0:0:0:
128,192,2382,128,0,2918:0:0:0:0:
42,192,2382,1,0,0:0:0:0:
213,192,2472,1,0,0:0:0:0:
298,192,2561,128,0,3097:0:0:0:0:
469,192,2561,1,0,0:0:0:0:
384,192,2650,1,0,0:0:0:0:
213,192,2739,1,0,0:0:0:0:
469,192,2829,1,0,0:0:0:0:
42,192,2918,128,0,3275:0:0:0:0:
384,192,2918,1,0,0:0:0:0:
128,192,3007,1,0,0:0:0:0:
213,192,3097,128,0,3811:0:0:0:0:
469,192,3097,1,0,0:0:0:0:
298,192,3186,1,0,0:0:0:0:
469,192,3275,128,0,3632:0:0:0:0:
384,192,3275,1,0,0:0:0:0:
128,192,3275,1,0,0:0:0:0:
298,192,3364,1,0,0:0:0:0:
42,192,3454,1,0,0:0:0:0:
128,192,3543,1,0,0:0:0:0:
384,192,3632,128,0,3989:0:0:0:0:
298,192,3632,1,0,0:0:0:0:
42,192,3722,1,0,0:0:0:0:
128,192,3811,128,0,4168:0:0:0:0:
469,192,3811,1,0,0:0:0:0:
213,192,3900,1,0,0:0:0:0:
298,192,3989,128,0,4168:0:0:0:0:
469,192,3989,1,0,0:0:0:0:
42,192,4079,1,0,0:0:0:0:
213,192,4168,1,0,0:0:0:0:
469,192,4168,128,0,4257:0:0:0:0:
384,192,4168,128,0,4257:0:0:0:0:
128,192,4347,1,0,0:0:0:0:
384,192,4347,128,0,4436:0:0:0:0:
298,192,4347,128,0,4436:0:0:0:0:
42,192,4525,128,0,4882:0:0:0:0:
128,192,4525,128,0,4614:0:0:0:0:
213,192,4525,128,0,4614:0:0:0:0:
298,192,4525,128,0,4614:0:0:0:0:
384,192,4525,128,0,4614:0:0:0:0:
469,192,4525,128,0,4614:0:0:0:0:
298,192,4704,128,0,5061:0:0:0:0:
213,192,4704,1,0,0:0:0:0:
384,192,4793,1,0,0:0:0:0:
469,192,4882,128,0,5239:0:0:0:0:
128,192,4882,1,0,0:0:0:0:
42,192,4972,1,0,0:0:0:0:
213,192,5061,128,0,5418:0:0:0:0:
384,192,5061,1,0,0:0:0:0:
128,192,5150,1,0,0:0:0:0:
384,192,5239,128,0,5597:0:0:0:0:
42,192,5239,1,0,0:0:0:0:
298,192,5329,1,0,0:0:0:0:
128,192,5418,128,0,5775:0:0:0:0:
42,192,5418,1,0,0:0:0:0:
469,192,5507,1,0,0:0:0:0:
298,192,5597,128,0,5954:0:0:0:0:
213,192,5597,1,0,0:0:0:0:
384,192,5686,1,0,0:0:0:0:
42,192,5775,128,0,6132:0:0:0:0:
469,192,5775,1,0,0:0:0:0:
128,192,5864,1,0,0:0:0:0:
213,192,5954,128,0,6311:0:0:0:0:
384,192,5954,1,0,0:0:0:0:
298,192,6043,1,0,0:0:0:0:
469,192,6132,128,0,6489:0:0:0:0:
128,192,6132,1,0,0:0:0:0:
384,192,6222,1,0,0:0:0:0:
42,192,6222,1,0,0:0:0:0:
128,192,6311,128,0,6668:0:0:0:0:
298,192,6311,1,0,0:0:0:0:
213,192,6400,1,0,0:0:0:0:
384,192,6489,128,0,6847:0:0:0:0:
298,192,6489,1,0,0:0:0:0:
213,192,6579,1,0,0:0:0:0:
42,192,6668,128,0,7025:0:0:0:0:
469,192,6668,1,0,0:0:0:0:
128,192,6757,1,0,0:0:0:0:
298,192,6847,128,0,6936:0:0:0:0:
213,192,6847,1,0,0:0:0:0:
384,192,6936,1,0,0:0:0:0:
128,192,7025,1,0,0:0:0:0:
298,192,7025,128,0,7114:0:0:0:0:
469,192,7025,128,0,7114:0:0:0:0:
42,192,7114,1,0,0:0:0:0:
213,192,7204,128,0,7293:0:0:0:0:
469,192,7204,1,0,0:0:0:0:
384,192,7204,128,0,7293:0:0:0:0:
128,192,7293,1,0,0:0:0:0:
469,192,7382,128,0,7739:0:0:0:0:
384,192,7382,128,0,7472:0:0:0:0:
298,192,7382,128,0,7472:0:0:0:0:
213,192,7382,128,0,7472:0:0:0:0:
128,192,7382,128,0,7472:0:0:0:0:
42,192,7382,128,0,7472:0:0:0:0:
213,192,7561,128,0,7918:0:0:0:0:
298,192,7561,1,0,0:0:0:0:
128,192,7650,1,0,0:0:0:0:
42,192,7739,128,0,8097:0:0:0:0:
384,192,7739,1,0,0:0:0:0:
469,192,7829,1,0,0:0:0:0:
298,192,7918,128,0,8275:0:0:0:0:
128,192,7918,1,0,0:0:0:0:
384,192,8007,1,0,0:0:0:0:
128,192,8097,128,0,8454:0:0:0:0:
469,192,8097,1,0,0:0:0:0:
213,192,8186,1,0,0:0:0:0:
384,192,8275,128,0,8632:0:0:0:0:
469,192,8275,1,0,0:0:0:0:
42,192,8364,1,0,0:0:0:0:
213,192,8454,128,0,8811:0:0:0:0:
298,192,8454,1,0,0:0:0:0:
128,192,8543,1,0,0:0:0:0:
469,192,8632,128,0,8989:0:0:0:0:
42,192,8632,1,0,0:0:0:0:
384,192,8722,1,0,0:0:0:0:
298,192,8811,128,0,9168:0:0:0:0:
128,192,8811,1,0,0:0:0:0:
213,192,8900,1,0,0:0:0:0:
42,192,8989,128,0,9347:0:0:0:0:
384,192,8989,1,0,0:0:0:0:
128,192,9079,1,0,0:0:0:0:
469,192,9079,1,0,0:0:0:0:
384,192,9168,128,0,9525:0:0:0:0:
213,192,9168,1,0,0:0:0:0:
298,192,9257,1,0,0:0:0:0:
128,192,9347,128,0,9704:0:0:0:0:
213,192,9347,1,0,0:0:0:0:
298,192,9436,1,0,0:0:0:0:
469,192,9525,128,0,9882:0:0:0:0:
42,192,9525,1,0,0:0:0:0:
384,192,9614,1,0,0:0:0:0:
213,192,9704,128,0,9793:0:0:0:0:
298,192,9704,1,0,0:0:0:0:
128,192,9793,1,0,0:0:0:0:
384,192,9882,1,0,0:0:0:0:
213,192,9882,128,0,9972:0:0:0:0:
42,192,9882,128,0,9972:0:0:0:0:
469,192,9972,1,0,0:0:0:0:
298,192,10061,128,0,10150:0:0:0:0:
42,192,10061,1,0,0:0:0:0:
128,192,10061,128,0,10150:0:0:0:0:
384,192,10150,1,0,0:0:0:0:
42,192,10239,128,0,10597:0:0:0:0:
128,192,10239,128,0,10329:0:0:0:0:
213,192,10239,128,0,10329:0:0:0:0:
298,192,10239,128,0,10329:0:0:0:0:
384,192,10239,128,0,10329:0:0:0:0:
469,192,10239,128,0,10329:0:0:0:0:
298,192,10418,128,0,10775:0:0:0:0:
213,192,10418,1,0,0:0:0:0:
384,192,10507,1,0,0:0:0:0:
469,192,10597,128,0,10954:0:0:0:0:
128,192,10597,1,0,0:0:0:0:
42,192,10686,1,0,0:0:0:0:
213,192,10775,128,0,11132:0:0:0:0:
384,192,10775,1,0,0:0:0:0:
128,192,10864,1,0,0:0:0:0:
384,192,10954,128,0,11311:0:0:0:0:
42,192,10954,1,0,0:0:0:0:
298,192,11043,1,0,0:0:0:0:
128,192,11132,128,0,11489:0:0:0:0:
42,192,11132,1,0,0:0:0:0:
469,192,11222,1,0,0:0:0:0:
298,192,11311,128,0,11668:0:0:0:0:
213,192,11311,1,0,0:0:0:0:
384,192,11400,1,0,0:0:0:0:
42,192,11489,128,0,11668:0:0:0:0:
469,192,11489,1,0,0:0:0:0:
128,192,11579,1,0,0:0:0:0:
213,192,11668,128,0,11847:0:0:0:0:
384,192,11668,1,0,0:0:0:0:
469,192,11668,1,0,0:0:0:0:
128,192,11757,1,0,0:0:0:0:
298,192,11847,1,0,0:0:0:0:
384,192,11847,1,0,0:0:0:0:
469,192,11847,1,0,0:0:0:0:
42,192,11847,1,0,0:0:0:0:
128,192,11936,1,0,0:0:0:0:
42,192,11936,1,0,0:0:0:0:
213,192,11936,1,0,0:0:0:0:
298,192,12025,1,0,0:0:0:0:
384,192,12025,1,0,0:0:0:0:
469,192,12025,1,0,0:0:0:0:
213,192,12114,1,0,0:0:0:0:
128,192,12114,1,0,0:0:0:0:
42,192,12114,1,0,0:0:0:0:
298,192,12204,1,0,0:0:0:0:
384,192,12204,1,0,0:0:0:0:
469,192,12204,1,0,0:0:0:0:
213,192,12293,1,0,0:0:0:0:
128,192,12293,1,0,0:0:0:0:
42,192,12293,1,0,0:0:0:0:
298,192,12293,128,0,12382:0:0:0:0:
128,192,12382,1,0,0:0:0:0:
42,192,12382,1,0,0:0:0:0:
213,192,12382,1,0,0:0:0:0:
384,192,12382,128,0,12472:0:0:0:0:
213,192,12472,1,0,0:0:0:0:
128,192,12472,1,0,0:0:0:0:
42,192,12472,1,0,0:0:0:0:
469,192,12472,128,0,12561:0:0:0:0:
128,192,12561,1,0,0:0:0:0:
213,192,12561,1,0,0:0:0:0:
298,192,12561,128,0,12650:0:0:0:0:
213,192,12650,1,0,0:0:0:0:
128,192,12650,1,0,0:0:0:0:
384,192,12650,128,0,12739:0:0:0:0:
298,192,15418,128,0,15507:0:0:0:0:
128,192,15418,128,0,15597:0:0:0:0:
384,192,15507,128,0,15686:0:0:0:0:
213,192,15597,128,0,15775:0:0:0:0:
469,192,15686,128,0,15775:0:0:0:0:
298,192,15775,128,0,15864:0:0:0:0:
42,192,15864,128,0,15953:0:0:0:0:
128,192,15864,128,0,15953:0:0:0:0:
213,192,15864,128,0,15953:0:0:0:0:
384,192,15864,128,0,16042:0:0:0:0:
469,192,15864,128,0,15953:0:0:0:0:
298,192,15953,128,0,16042:0:0:0:0:
213,192,16042,128,0,16221:0:0:0:0:
469,192,16042,128,0,16131:0:0:0:0:
128,192,16042,128,0,16131:0:0:0:0:
42,192,16042,128,0,16131:0:0:0:0:
384,192,16131,128,0,16221:0:0:0:0:
298,192,16221,128,0,16310:0:0:0:0:
42,192,16221,128,0,16310:0:0:0:0:
128,192,16221,128,0,16399:0:0:0:0:
384,192,16310,128,0,16399:0:0:0:0:
298,192,16399,128,0,16489:0:0:0:0:
469,192,16399,128,0,16578:0:0:0:0:
42,192,16399,128,0,16578:0:0:0:0:
213,192,16489,128,0,16578:0:0:0:0:
128,192,16578,128,0,16667:0:0:0:0:
384,192,16578,128,0,16667:0:0:0:0:
298,192,16578,128,0,16756:0:0:0:0:
213,192,16667,128,0,16756:0:0:0:0:
128,192,16756,128,0,16846:0:0:0:0:
384,192,16756,128,0,16846:0:0:0:0:
469,192,16756,128,0,16935:0:0:0:0:
42,192,16846,128,0,16935:0:0:0:0:
298,192,16935,128,0,17114:0:0:0:0:
384,192,16935,128,0,17024:0:0:0:0:
128,192,16935,128,0,17024:0:0:0:0:
213,192,17024,128,0,17114:0:0:0:0:
128,192,17114,128,0,17203:0:0:0:0:
384,192,17114,128,0,17203:0:0:0:0:
469,192,17114,128,0,17292:0:0:0:0:
42,192,17203,128,0,17292:0:0:0:0:
213,192,17292,128,0,17381:0:0:0:0:
298,192,17292,128,0,17381:0:0:0:0:
384,192,17292,128,0,17471:0:0:0:0:
128,192,17381,128,0,17471:0:0:0:0:
42,192,17471,128,0,17649:0:0:0:0:
298,192,17471,128,0,17560:0:0:0:0:
469,192,17471,128,0,17560:0:0:0:0:
213,192,17560,128,0,17649:0:0:0:0:
384,192,17649,128,0,17739:0:0:0:0:
469,192,17649,128,0,17739:0:0:0:0:
128,192,17649,128,0,17828:0:0:0:0:
298,192,17739,128,0,17828:0:0:0:0:
213,192,17828,128,0,18006:0:0:0:0:
42,192,17828,128,0,17917:0:0:0:0:
469,192,17828,128,0,17917:0:0:0:0:
384,192,17917,128,0,18006:0:0:0:0:
298,192,18006,128,0,18185:0:0:0:0:
42,192,18006,128,0,18096:0:0:0:0:
128,192,18006,128,0,18096:0:0:0:0:
469,192,18096,128,0,18185:0:0:0:0:
384,192,18185,128,0,18274:0:0:0:0:
213,192,18185,128,0,18274:0:0:0:0:
128,192,18185,128,0,18274:0:0:0:0:
298,192,18274,128,0,18364:0:0:0:0:
42,192,18274,128,0,18542:0:0:0:0:
469,192,18364,128,0,18453:0:0:0:0:
384,192,18364,128,0,18453:0:0:0:0:
128,192,18364,128,0,18542:0:0:0:0:
298,192,18453,128,0,18542:0:0:0:0:
213,192,18542,128,0,18631:0:0:0:0:
469,192,18542,128,0,18631:0:0:0:0:
384,192,18542,128,0,18631:0:0:0:0:
298,192,18631,128,0,18721:0:0:0:0:
128,192,18631,128,0,18721:0:0:0:0:
42,192,18631,128,0,18721:0:0:0:0:
213,192,18721,128,0,18899:0:0:0:0:
469,192,18721,128,0,18810:0:0:0:0:
384,192,18721,128,0,18810:0:0:0:0:
298,192,18810,128,0,18899:0:0:0:0:
128,192,18899,128,0,18989:0:0:0:0:
469,192,18899,128,0,19078:0:0:0:0:
42,192,18899,128,0,18989:0:0:0:0:
213,192,18989,128,0,19078:0:0:0:0:
128,192,19078,128,0,19167:0:0:0:0:
298,192,19078,128,0,19256:0:0:0:0:
384,192,19078,128,0,19167:0:0:0:0:
42,192,19167,128,0,19256:0:0:0:0:
213,192,19256,128,0,19346:0:0:0:0:
469,192,19256,128,0,19435:0:0:0:0:
384,192,19256,128,0,19346:0:0:0:0:
128,192,19346,128,0,19435:0:0:0:0:
298,192,19435,128,0,19524:0:0:0:0:
42,192,19435,128,0,19524:0:0:0:0:
384,192,19435,128,0,19614:0:0:0:0:
213,192,19524,128,0,19614:0:0:0:0:
469,192,19614,128,0,19792:0:0:0:0:
128,192,19614,128,0,19703:0:0:0:0:
42,192,19614,128,0,19703:0:0:0:0:
384,192,19703,128,0,19792:0:0:0:0:
298,192,19792,128,0,19881:0:0:0:0:
213,192,19792,128,0,19881:0:0:0:0:
42,192,19792,128,0,19971:0:0:0:0:
469,192,19881,128,0,19971:0:0:0:0:
384,192,19971,128,0,20060:0:0:0:0:
298,192,19971,128,0,20060:0:0:0:0:
128,192,19971,128,0,20060:0:0:0:0:
213,192,20060,128,0,20149:0:0:0:0:
42,192,20149,1,0,0:0:0:0:
298,192,20149,1,0,0:0:0:0:
384,192,20149,1,0,0:0:0:0:
469,192,20149,1,0,0:0:0:0:
298,192,20239,128,0,20328:0:0:0:0:
213,192,20239,128,0,20328:0:0:0:0:
128,192,20239,128,0,20328:0:0:0:0:
469,192,20239,128,0,20506:0:0:0:0:
384,192,20239,128,0,20506:0:0:0:0:
42,192,20239,128,0,20328:0:0:0:0:
42,192,20417,128,0,20506:0:0:0:0:
128,192,20417,128,0,20506:0:0:0:0:
298,192,20417,128,0,20506:0:0:0:0:
213,192,20417,128,0,20506:0:0:0:0:
42,192,20596,128,0,20685:0:0:0:0:
298,192,20596,128,0,20685:0:0:0:0:
384,192,20596,128,0,20685:0:0:0:0:
469,192,20596,128,0,20685:0:0:0:0:
213,192,20596,128,0,20864:0:0:0:0:
128,192,20596,128,0,20864:0:0:0:0:
42,192,20774,128,0,20864:0:0:0:0:
298,192,20774,128,0,20864:0:0:0:0:
384,192,20774,128,0,20864:0:0:0:0:
469,192,20774,128,0,20864:0:0:0:0:
298,192,20953,128,0,21221:0:0:0:0:
384,192,20953,128,0,21221:0:0:0:0:
42,192,20953,128,0,21042:0:0:0:0:
128,192,20953,128,0,21042:0:0:0:0:
469,192,20953,128,0,21042:0:0:0:0:
213,192,21042,128,0,21131:0:0:0:0:
469,192,21131,128,0,21221:0:0:0:0:
42,192,21131,128,0,21221:0:0:0:0:
128,192,21131,128,0,21221:0:0:0:0:
213,192,21221,128,0,21310:0:0:0:0:
42,192,21310,128,0,21488:0:0:0:0:
128,192,21310,128,0,21488:0:0:0:0:
298,192,21310,128,0,21399:0:0:0:0:
384,192,21310,128,0,21399:0:0:0:0:
469,192,21310,128,0,21399:0:0:0:0:
213,192,21399,128,0,21488:0:0:0:0:
298,192,21488,1,0,0:0:0:0:
384,192,21488,1,0,0:0:0:0:
469,192,21488,1,0,0:0:0:0:
469,192,21578,128,0,21667:0:0:0:0:
384,192,21578,128,0,21667:0:0:0:0:
298,192,21578,128,0,21667:0:0:0:0:
128,192,21578,128,0,21756:0:0:0:0:
42,192,21578,128,0,21667:0:0:0:0:
213,192,21667,128,0,21756:0:0:0:0:
298,192,21756,128,0,21935:0:0:0:0:
42,192,21756,128,0,21846:0:0:0:0:
384,192,21756,128,0,21846:0:0:0:0:
469,192,21756,128,0,21846:0:0:0:0:
128,192,21846,128,0,21935:0:0:0:0:
213,192,21935,128,0,22024:0:0:0:0:
469,192,21935,128,0,22024:0:0:0:0:
384,192,21935,128,0,22113:0:0:0:0:
128,192,22024,128,0,22113:0:0:0:0:
213,192,22113,128,0,22203:0:0:0:0:
42,192,22113,128,0,22292:0:0:0:0:
469,192,22113,128,0,22292:0:0:0:0:
298,192,22203,128,0,22292:0:0:0:0:
384,192,22292,128,0,22381:0:0:0:0:
128,192,22292,128,0,22381:0:0:0:0:
213,192,22292,128,0,22471:0:0:0:0:
298,192,22381,128,0,22471:0:0:0:0:
384,192,22471,128,0,22560:0:0:0:0:
128,192,22471,128,0,22560:0:0:0:0:
42,192,22471,128,0,22649:0:0:0:0:
469,192,22560,128,0,22649:0:0:0:0:
213,192,22649,128,0,22828:0:0:0:0:
128,192,22649,128,0,22738:0:0:0:0:
384,192,22649,128,0,22738:0:0:0:0:
298,192,22738,128,0,22828:0:0:0:0:
384,192,22828,128,0,22917:0:0:0:0:
128,192,22828,128,0,22917:0:0:0:0:
42,192,22828,128,0,23006:0:0:0:0:
469,192,22917,128,0,23006:0:0:0:0:
298,192,23006,128,0,23096:0:0:0:0:
213,192,23006,128,0,23096:0:0:0:0:
128,192,23006,128,0,23185:0:0:0:0:
384,192,23096,128,0,23185:0:0:0:0:
469,192,23185,128,0,23363:0:0:0:0:
213,192,23185,128,0,23274:0:0:0:0:
42,192,23185,128,0,23274:0:0:0:0:
298,192,23274,128,0,23363:0:0:0:0:
128,192,23363,128,0,23453:0:0:0:0:
42,192,23363,128,0,23453:0:0:0:0:
384,192,23363,128,0,23542:0:0:0:0:
213,192,23453,128,0,23542:0:0:0:0:
298,192,23542,128,0,23721:0:0:0:0:
469,192,23542,128,0,23631:0:0:0:0:
42,192,23542,128,0,23631:0:0:0:0:
128,192,23631,128,0,23721:0:0:0:0:
213,192,23721,128,0,23899:0:0:0:0:
469,192,23721,128,0,23810:0:0:0:0:
384,192,23721,128,0,23810:0:0:0:0:
42,192,23810,128,0,23899:0:0:0:0:
128,192,23899,128,0,23988:0:0:0:0:
298,192,23899,128,0,23988:0:0:0:0:
384,192,23899,128,0,23988:0:0:0:0:
213,192,23988,128,0,24078:0:0:0:0:
469,192,23988,128,0,24256:0:0:0:0:
42,192,24078,128,0,24167:0:0:0:0:
128,192,24078,128,0,24167:0:0:0:0:
384,192,24078,128,0,24256:0:0:0:0:
213,192,24167,128,0,24256:0:0:0:0:
298,192,24256,128,0,24346:0:0:0:0:
42,192,24256,128,0,24346:0:0:0:0:
128,192,24256,128,0,24346:0:0:0:0:
213,192,24346,128,0,24435:0:0:0:0:
384,192,24346,128,0,24435:0:0:0:0:
469,192,24346,128,0,24435:0:0:0:0:
298,192,24435,128,0,24613:0:0:0:0:
42,192,24435,128,0,24524:0:0:0:0:
128,192,24435,128,0,24524:0:0:0:0:
213,192,24524,128,0,24613:0:0:0:0:
384,192,24613,128,0,24703:0:0:0:0:
42,192,24613,128,0,24792:0:0:0:0:
469,192,24613,128,0,24703:0:0:0:0:
298,192,24703,128,0,24792:0:0:0:0:
384,192,24792,128,0,24881:0:0:0:0:
213,192,24792,128,0,24971:0:0:0:0:
128,192,24792,128,0,24881:0:0:0:0:
469,192,24881,128,0,24971:0:0:0:0:
298,192,24971,128,0,25060:0:0:0:0:
42,192,24971,128,0,25149:0:0:0:0:
128,192,24971,128,0,25060:0:0:0:0:
384,192,25060,128,0,25149:0:0:0:0:
213,192,25149,128,0,25238:0:0:0:0:
469,192,25149,128,0,25238:0:0:0:0:
128,192,25149,128,0,25328:0:0:0:0:
298,192,25238,128,0,25328:0:0:0:0:
42,192,25328,128,0,25417:0:0:0:0:
384,192,25328,128,0,25506:0:0:0:0:
469,192,25328,128,0,25417:0:0:0:0:
128,192,25417,128,0,25506:0:0:0:0:
213,192,25506,128,0,25596:0:0:0:0:
298,192,25506,128,0,25685:0:0:0:0:
469,192,25506,128,0,25596:0:0:0:0:
42,192,25596,128,0,25685:0:0:0:0:
128,192,25685,128,0,25774:0:0:0:0:
213,192,25685,128,0,25863:0:0:0:0:
384,192,25685,128,0,25774:0:0:0:0:
469,192,25774,128,0,25863:0:0:0:0:
42,192,25863,128,0,25953:0:0:0:0:
128,192,25863,128,0,26042:0:0:0:0:
298,192,25863,128,0,25953:0:0:0:0:
384,192,25953,128,0,26042:0:0:0:0:
213,192,26042,128,0,26221:0:0:0:0:
42,192,26042,128,0,26131:0:0:0:0:
469,192,26042,128,0,26131:0:0:0:0:
298,192,26131,128,0,26221:0:0:0:0:
42,192,26221,128,0,26310:0:0:0:0:
384,192,26221,128,0,26310:0:0:0:0:
469,192,26221,128,0,26399:0:0:0:0:
128,192,26310,128,0,26399:0:0:0:0:
213,192,26399,128,0,26488:0:0:0:0:
298,192,26399,128,0,26488:0:0:0:0:
384,192,26399,128,0,26488:0:0:0:0:
42,192,26488,128,0,26578:0:0:0:0:
213,192,26578,128,0,26667:0:0:0:0:
298,192,26578,128,0,26667:0:0:0:0:
469,192,26578,128,0,26667:0:0:0:0:
384,192,26578,128,0,26667:0:0:0:0:
128,192,26578,128,0,26667:0:0:0:0:
42,192,26667,128,0,26756:0:0:0:0:
298,192,26756,1,0,0:0:0:0:
384,192,26756,1,0,0:0:0:0:
469,192,26756,1,0,0:0:0:0:
213,192,26756,128,0,26846:0:0:0:0:
469,192,26846,1,0,0:0:0:0:
384,192,26846,1,0,0:0:0:0:
298,192,26846,1,0,0:0:0:0:
128,192,26846,128,0,26935:0:0:0:0:
298,192,26935,1,0,0:0:0:0:
384,192,26935,1,0,0:0:0:0:
469,192,26935,1,0,0:0:0:0:
42,192,26935,128,0,27024:0:0:0:0:
213,192,26935,128,0,27024:0:0:0:0:
469,192,27024,1,0,0:0:0:0:
298,192,27024,1,0,0:0:0:0:
384,192,27024,1,0,0:0:0:0:
128,192,27024,128,0,27113:0:0:0:0:
298,192,27113,1,0,0:0:0:0:
384,192,27113,1,0,0:0:0:0:
469,192,27113,1,0,0:0:0:0:
42,192,27113,128,0,27203:0:0:0:0:
298,192,27203,1,0,0:0:0:0:
384,192,27203,1,0,0:0:0:0:
469,192,27203,1,0,0:0:0:0:
213,192,27203,128,0,27292:0:0:0:0:
128,192,27292,128,0,27381:0:0:0:0:
42,192,27292,128,0,27381:0:0:0:0:
298,192,27292,128,0,27381:0:0:0:0:
384,192,27292,128,0,27381:0:0:0:0:
469,192,27292,128,0,27381:0:0:0:0:
298,192,32471,132,0,32649:0:0:0:0:
469,192,32471,1,0,0:0:0:0:
128,192,32560,128,0,32738:0:0:0:0:
384,192,32649,128,0,32828:0:0:0:0:
42,192,32649,1,0,0:0:0:0:
213,192,32738,128,0,32917:0:0:0:0:
469,192,32828,128,0,32917:0:0:0:0:
128,192,32828,1,0,0:0:0:0:
298,192,32917,128,0,33006:0:0:0:0:
42,192,33006,128,0,33096:0:0:0:0:
128,192,33006,128,0,33096:0:0:0:0:
213,192,33006,128,0,33096:0:0:0:0:
384,192,33006,128,0,33185:0:0:0:0:
469,192,33006,128,0,33096:0:0:0:0:
298,192,33096,128,0,33185:0:0:0:0:
213,192,33185,128,0,33363:0:0:0:0:
469,192,33185,128,0,33274:0:0:0:0:
128,192,33185,128,0,33274:0:0:0:0:
42,192,33185,128,0,33274:0:0:0:0:
384,192,33274,128,0,33363:0:0:0:0:
298,192,33363,128,0,33453:0:0:0:0:
42,192,33363,128,0,33453:0:0:0:0:
128,192,33363,128,0,33542:0:0:0:0:
384,192,33453,128,0,33542:0:0:0:0:
298,192,33542,128,0,33631:0:0:0:0:
469,192,33542,128,0,33721:0:0:0:0:
42,192,33542,128,0,33721:0:0:0:0:
213,192,33631,128,0,33721:0:0:0:0:
128,192,33721,128,0,33810:0:0:0:0:
384,192,33721,128,0,33810:0:0:0:0:
298,192,33721,128,0,33899:0:0:0:0:
213,192,33810,128,0,33899:0:0:0:0:
128,192,33899,128,0,33988:0:0:0:0:
384,192,33899,128,0,33988:0:0:0:0:
469,192,33899,128,0,34078:0:0:0:0:
42,192,33988,128,0,34078:0:0:0:0:
298,192,34078,128,0,34256:0:0:0:0:
384,192,34078,128,0,34167:0:0:0:0:
128,192,34078,128,0,34167:0:0:0:0:
213,192,34167,128,0,34256:0:0:0:0:
128,192,34256,128,0,34346:0:0:0:0:
384,192,34256,128,0,34346:0:0:0:0:
469,192,34256,128,0,34435:0:0:0:0:
42,192,34346,128,0,34435:0:0:0:0:
213,192,34435,128,0,34524:0:0:0:0:
298,192,34435,128,0,34524:0:0:0:0:
384,192,34435,128,0,34613:0:0:0:0:
128,192,34524,128,0,34613:0:0:0:0:
42,192,34613,128,0,34792:0:0:0:0:
298,192,34613,128,0,34703:0:0:0:0:
469,192,34613,128,0,34703:0:0:0:0:
213,192,34703,128,0,34792:0:0:0:0:
384,192,34792,128,0,34881:0:0:0:0:
469,192,34792,128,0,34881:0:0:0:0:
128,192,34792,128,0,34971:0:0:0:0:
298,192,34881,128,0,34971:0:0:0:0:
213,192,34971,128,0,35149:0:0:0:0:
42,192,34971,128,0,35060:0:0:0:0:
469,192,34971,128,0,35060:0:0:0:0:
384,192,35060,128,0,35149:0:0:0:0:
298,192,35149,128,0,35328:0:0:0:0:
42,192,35149,128,0,35238:0:0:0:0:
128,192,35149,128,0,35238:0:0:0:0:
469,192,35238,128,0,35328:0:0:0:0:
384,192,35328,128,0,35417:0:0:0:0:
213,192,35328,128,0,35417:0:0:0:0:
128,192,35328,128,0,35417:0:0:0:0:
298,192,35417,128,0,35506:0:0:0:0:
42,192,35417,128,0,35685:0:0:0:0:
469,192,35506,128,0,35596:0:0:0:0:
384,192,35506,128,0,35596:0:0:0:0:
128,192,35506,128,0,35685:0:0:0:0:
298,192,35596,128,0,35685:0:0:0:0:
213,192,35685,128,0,35774:0:0:0:0:
469,192,35685,128,0,35774:0:0:0:0:
384,192,35685,128,0,35774:0:0:0:0:
298,192,35774,128,0,35863:0:0:0:0:
128,192,35774,128,0,35863:0:0:0:0:
42,192,35774,128,0,35863:0:0:0:0:
213,192,35863,128,0,36042:0:0:0:0:
469,192,35863,128,0,35953:0:0:0:0:
384,192,35863,128,0,35953:0:0:0:0:
298,192,35953,128,0,36042:0:0:0:0:
128,192,36042,128,0,36131:0:0:0:0:
469,192,36042,128,0,36221:0:0:0:0:
42,192,36042,128,0,36131:0:0:0:0:
213,192,36131,128,0,36221:0:0:0:0:
128,192,36221,128,0,36310:0:0:0:0:
298,192,36221,128,0,36399:0:0:0:0:
384,192,36221,128,0,36310:0:0:0:0:
42,192,36310,128,0,36399:0:0:0:0:
213,192,36399,128,0,36488:0:0:0:0:
469,192,36399,128,0,36578:0:0:0:0:
384,192,36399,128,0,36488:0:0:0:0:
128,192,36488,128,0,36578:0:0:0:0:
298,192,36578,128,0,36667:0:0:0:0:
42,192,36578,128,0,36667:0:0:0:0:
384,192,36578,128,0,36756:0:0:0:0:
213,192,36667,128,0,36756:0:0:0:0:
469,192,36756,128,0,36935:0:0:0:0:
128,192,36756,128,0,36846:0:0:0:0:
42,192,36756,128,0,36846:0:0:0:0:
384,192,36846,128,0,36935:0:0:0:0:
298,192,36935,128,0,37024:0:0:0:0:
213,192,36935,128,0,37024:0:0:0:0:
42,192,36935,128,0,37113:0:0:0:0:
469,192,37024,128,0,37113:0:0:0:0:
384,192,37113,128,0,37203:0:0:0:0:
298,192,37113,128,0,37203:0:0:0:0:
128,192,37113,128,0,37203:0:0:0:0:
213,192,37203,128,0,37292:0:0:0:0:
42,192,37292,1,0,0:0:0:0:
128,192,37292,1,0,0:0:0:0:
469,192,37381,128,0,37560:0:0:0:0:
384,192,37381,128,0,37560:0:0:0:0:
42,192,37381,128,0,37471:0:0:0:0:
128,192,37381,128,0,37471:0:0:0:0:
213,192,37381,128,0,37471:0:0:0:0:
298,192,37381,128,0,37471:0:0:0:0:
298,192,37560,128,0,37649:0:0:0:0:
213,192,37560,128,0,37649:0:0:0:0:
128,192,37560,128,0,37649:0:0:0:0:
42,192,37560,128,0,37649:0:0:0:0:
42,192,37738,128,0,37828:0:0:0:0:
298,192,37738,128,0,37828:0:0:0:0:
384,192,37738,128,0,37828:0:0:0:0:
469,192,37738,128,0,37828:0:0:0:0:
213,192,37738,128,0,38006:0:0:0:0:
128,192,37738,128,0,38006:0:0:0:0:
42,192,37917,128,0,38006:0:0:0:0:
298,192,37917,128,0,38006:0:0:0:0:
384,192,37917,128,0,38006:0:0:0:0:
469,192,37917,128,0,38006:0:0:0:0:
298,192,38096,128,0,38363:0:0:0:0:
384,192,38096,128,0,38363:0:0:0:0:
42,192,38096,128,0,38185:0:0:0:0:
128,192,38096,128,0,38185:0:0:0:0:
469,192,38096,128,0,38185:0:0:0:0:
213,192,38185,128,0,38274:0:0:0:0:
469,192,38274,128,0,38363:0:0:0:0:
42,192,38274,128,0,38363:0:0:0:0:
128,192,38274,128,0,38363:0:0:0:0:
213,192,38363,128,0,38453:0:0:0:0:
42,192,38453,128,0,38721:0:0:0:0:
128,192,38453,128,0,38721:0:0:0:0:
298,192,38453,128,0,38542:0:0:0:0:
384,192,38453,128,0,38542:0:0:0:0:
469,192,38453,128,0,38542:0:0:0:0:
213,192,38542,128,0,38631:0:0:0:0:
298,192,38631,128,0,38721:0:0:0:0:
384,192,38631,128,0,38721:0:0:0:0:
469,192,38631,128,0,38721:0:0:0:0:
213,192,38721,128,0,38810:0:0:0:0:
298,192,38810,128,0,38899:0:0:0:0:
384,192,38810,128,0,38899:0:0:0:0:
469,192,38810,128,0,38899:0:0:0:0:
42,192,38899,128,0,39078:0:0:0:0:
128,192,38899,128,0,38988:0:0:0:0:
298,192,38988,128,0,39167:0:0:0:0:
213,192,38988,128,0,39078:0:0:0:0:
384,192,38988,128,0,39078:0:0:0:0:
469,192,38988,128,0,39078:0:0:0:0:
128,192,39078,128,0,39167:0:0:0:0:
213,192,39167,128,0,39256:0:0:0:0:
469,192,39167,128,0,39256:0:0:0:0:
384,192,39167,128,0,39346:0:0:0:0:
128,192,39256,128,0,39346:0:0:0:0:
213,192,39346,128,0,39435:0:0:0:0:
42,192,39346,128,0,39524:0:0:0:0:
469,192,39346,128,0,39524:0:0:0:0:
298,192,39435,128,0,39524:0:0:0:0:
384,192,39524,128,0,39613:0:0:0:0:
128,192,39524,128,0,39613:0:0:0:0:
213,192,39524,128,0,39703:0:0:0:0:
298,192,39613,128,0,39703:0:0:0:0:
384,192,39703,128,0,39792:0:0:0:0:
128,192,39703,128,0,39792:0:0:0:0:
42,192,39703,128,0,39881:0:0:0:0:
469,192,39792,128,0,39881:0:0:0:0:
213,192,39881,128,0,40060:0:0:0:0:
128,192,39881,128,0,39971:0:0:0:0:
384,192,39881,128,0,39971:0:0:0:0:
298,192,39971,128,0,40060:0:0:0:0:
384,192,40060,128,0,40149:0:0:0:0:
128,192,40060,128,0,40149:0:0:0:0:
42,192,40060,128,0,40238:0:0:0:0:
469,192,40149,128,0,40238:0:0:0:0:
298,192,40238,128,0,40328:0:0:0:0:
213,192,40238,128,0,40328:0:0:0:0:
128,192,40238,128,0,40417:0:0:0:0:
384,192,40328,128,0,40417:0:0:0:0:
469,192,40417,128,0,40596:0:0:0:0:
213,192,40417,128,0,40506:0:0:0:0:
42,192,40417,128,0,40506:0:0:0:0:
298,192,40506,128,0,40596:0:0:0:0:
128,192,40596,128,0,40685:0:0:0:0:
42,192,40596,128,0,40685:0:0:0:0:
384,192,40596,128,0,40774:0:0:0:0:
213,192,40685,128,0,40774:0:0:0:0:
298,192,40774,128,0,40953:0:0:0:0:
469,192,40774,128,0,40863:0:0:0:0:
42,192,40774,128,0,40863:0:0:0:0:
128,192,40863,128,0,40953:0:0:0:0:
213,192,40953,128,0,41131:0:0:0:0:
469,192,40953,128,0,41042:0:0:0:0:
384,192,40953,128,0,41042:0:0:0:0:
42,192,41042,128,0,41131:0:0:0:0:
128,192,41131,128,0,41221:0:0:0:0:
298,192,41131,128,0,41221:0:0:0:0:
384,192,41131,128,0,41221:0:0:0:0:
213,192,41221,128,0,41310:0:0:0:0:
469,192,41221,128,0,41488:0:0:0:0:
42,192,41310,128,0,41399:0:0:0:0:
128,192,41310,128,0,41399:0:0:0:0:
384,192,41310,128,0,41488:0:0:0:0:
213,192,41399,128,0,41488:0:0:0:0:
298,192,41488,128,0,41578:0:0:0:0:
42,192,41488,128,0,41578:0:0:0:0:
128,192,41488,128,0,41578:0:0:0:0:
213,192,41578,128,0,41667:0:0:0:0:
384,192,41578,128,0,41667:0:0:0:0:
469,192,41578,128,0,41667:0:0:0:0:
298,192,41667,128,0,41846:0:0:0:0:
42,192,41667,128,0,41756:0:0:0:0:
128,192,41667,128,0,41756:0:0:0:0:
213,192,41756,128,0,41846:0:0:0:0:
384,192,41846,128,0,41935:0:0:0:0:
42,192,41846,128,0,42024:0:0:0:0:
469,192,41846,128,0,41935:0:0:0:0:
298,192,41935,128,0,42024:0:0:0:0:
384,192,42024,128,0,42113:0:0:0:0:
213,192,42024,128,0,42203:0:0:0:0:
128,192,42024,128,0,42113:0:0:0:0:
469,192,42113,128,0,42203:0:0:0:0:
298,192,42203,128,0,42292:0:0:0:0:
42,192,42203,128,0,42292:0:0:0:0:
128,192,42203,128,0,42292:0:0:0:0:
384,192,42292,128,0,42381:0:0:0:0:
213,192,42381,128,0,42471:0:0:0:0:
469,192,42381,128,0,42471:0:0:0:0:
128,192,42381,128,0,42471:0:0:0:0:
298,192,42471,128,0,42560:0:0:0:0:
42,192,42560,128,0,42649:0:0:0:0:
384,192,42560,128,0,42649:0:0:0:0:
469,192,42560,128,0,42649:0:0:0:0:
128,192,42649,128,0,42738:0:0:0:0:
213,192,42738,128,0,42828:0:0:0:0:
298,192,42738,128,0,42828:0:0:0:0:
469,192,42738,128,0,42828:0:0:0:0:
42,192,42828,128,0,42917:0:0:0:0:
128,192,42917,128,0,43006:0:0:0:0:
213,192,42917,128,0,43006:0:0:0:0:
384,192,42917,128,0,43006:0:0:0:0:
469,192,43006,128,0,43096:0:0:0:0:
42,192,43096,128,0,43185:0:0:0:0:
128,192,43096,128,0,43185:0:0:0:0:
298,192,43096,128,0,43185:0:0:0:0:
384,192,43185,128,0,43274:0:0:0:0:
213,192,43274,1,0,0:0:0:0:
128,192,43274,1,0,0:0:0:0:
42,192,43274,1,0,0:0:0:0:
298,192,43274,128,0,43363:0:0:0:0:
42,192,43363,1,0,0:0:0:0:
128,192,43363,1,0,0:0:0:0:
213,192,43363,1,0,0:0:0:0:
384,192,43363,128,0,43453:0:0:0:0:
213,192,43453,1,0,0:0:0:0:
128,192,43453,1,0,0:0:0:0:
42,192,43453,1,0,0:0:0:0:
469,192,43453,128,0,43542:0:0:0:0:
298,192,43453,128,0,43542:0:0:0:0:
42,192,43542,1,0,0:0:0:0:
213,192,43542,1,0,0:0:0:0:
128,192,43542,1,0,0:0:0:0:
384,192,43542,128,0,43631:0:0:0:0:
213,192,43631,1,0,0:0:0:0:
128,192,43631,1,0,0:0:0:0:
42,192,43631,1,0,0:0:0:0:
469,192,43631,128,0,43721:0:0:0:0:
213,192,43721,1,0,0:0:0:0:
128,192,43721,1,0,0:0:0:0:
42,192,43721,1,0,0:0:0:0:
298,192,43721,128,0,43810:0:0:0:0:
384,192,43810,128,0,43899:0:0:0:0:
469,192,43810,128,0,43899:0:0:0:0:
42,192,43810,1,0,0:0:0:0:
128,192,43810,1,0,0:0:0:0:
213,192,43810,1,0,0:0:0:0:
42,192,43899,1,0,0:0:0:0:
128,192,43899,1,0,0:0:0:0:
213,192,43899,1,0,0:0:0:0:
298,192,43899,128,0,43988:0:0:0:0:
42,192,43988,1,0,0:0:0:0:
128,192,43988,1,0,0:0:0:0:
213,192,43988,1,0,0:0:0:0:
384,192,43988,128,0,44078:0:0:0:0:
42,192,44078,1,0,0:0:0:0:
128,192,44078,1,0,0:0:0:0:
213,192,44078,1,0,0:0:0:0:
469,192,44078,128,0,44167:0:0:0:0:
42,192,44167,1,0,0:0:0:0:
128,192,44167,1,0,0:0:0:0:
213,192,44167,1,0,0:0:0:0:
298,192,44167,128,0,44256:0:0:0:0:
384,192,44167,128,0,44256:0:0:0:0:
42,192,44256,1,0,0:0:0:0:
128,192,44256,1,0,0:0:0:0:
213,192,44256,1,0,0:0:0:0:
469,192,44256,128,0,44346:0:0:0:0:
42,192,44346,1,0,0:0:0:0:
128,192,44346,1,0,0:0:0:0:
213,192,44346,1,0,0:0:0:0:
298,192,44346,128,0,44435:0:0:0:0:
42,192,44435,128,0,44524:0:0:0:0:
128,192,44435,128,0,44524:0:0:0:0:
213,192,44435,128,0,44524:0:0:0:0:
384,192,44435,128,0,44613:0:0:0:0:
469,192,44435,128,0,44524:0:0:0:0:
298,192,44524,128,0,44613:0:0:0:0:
213,192,44613,128,0,44792:0:0:0:0:
469,192,44613,128,0,44703:0:0:0:0:
128,192,44613,128,0,44703:0:0:0:0:
42,192,44613,128,0,44703:0:0:0:0:
384,192,44703,128,0,44792:0:0:0:0:
298,192,44792,128,0,44881:0:0:0:0:
42,192,44792,128,0,44881:0:0:0:0:
128,192,44792,128,0,44971:0:0:0:0:
384,192,44881,128,0,44971:0:0:0:0:
298,192,44971,128,0,45060:0:0:0:0:
469,192,44971,128,0,45149:0:0:0:0:
42,192,44971,128,0,45149:0:0:0:0:
213,192,45060,128,0,45149:0:0:0:0:
128,192,45149,128,0,45238:0:0:0:0:
384,192,45149,128,0,45238:0:0:0:0:
298,192,45149,128,0,45328:0:0:0:0:
213,192,45238,128,0,45328:0:0:0:0:
128,192,45328,128,0,45417:0:0:0:0:
384,192,45328,128,0,45417:0:0:0:0:
469,192,45328,128,0,45506:0:0:0:0:
42,192,45417,128,0,45506:0:0:0:0:
298,192,45506,128,0,45685:0:0:0:0:
384,192,45506,128,0,45596:0:0:0:0:
128,192,45506,128,0,45596:0:0:0:0:
213,192,45596,128,0,45685:0:0:0:0:
128,192,45685,128,0,45774:0:0:0:0:
384,192,45685,128,0,45774:0:0:0:0:
469,192,45685,128,0,45863:0:0:0:0:
42,192,45774,128,0,45863:0:0:0:0:
213,192,45863,128,0,45953:0:0:0:0:
298,192,45863,128,0,45953:0:0:0:0:
384,192,45863,128,0,46042:0:0:0:0:
128,192,45953,128,0,46042:0:0:0:0:
42,192,46042,128,0,46221:0:0:0:0:
298,192,46042,128,0,46131:0:0:0:0:
469,192,46042,128,0,46131:0:0:0:0:
213,192,46131,128,0,46221:0:0:0:0:
384,192,46221,128,0,46310:0:0:0:0:
469,192,46221,128,0,46310:0:0:0:0:
128,192,46221,128,0,46399:0:0:0:0:
298,192,46310,128,0,46399:0:0:0:0:
213,192,46399,128,0,46578:0:0:0:0:
42,192,46399,128,0,46488:0:0:0:0:
469,192,46399,128,0,46488:0:0:0:0:
384,192,46488,128,0,46578:0:0:0:0:
298,192,46578,128,0,46756:0:0:0:0:
42,192,46578,128,0,46667:0:0:0:0:
128,192,46578,128,0,46667:0:0:0:0:
469,192,46667,128,0,46756:0:0:0:0:
384,192,46756,128,0,46846:0:0:0:0:
213,192,46756,128,0,46846:0:0:0:0:
128,192,46756,128,0,46846:0:0:0:0:
298,192,46846,128,0,46935:0:0:0:0:
42,192,46846,128,0,47113:0:0:0:0:
469,192,46935,128,0,47024:0:0:0:0:
384,192,46935,128,0,47024:0:0:0:0:
128,192,46935,128,0,47113:0:0:0:0:
298,192,47024,128,0,47113:0:0:0:0:
213,192,47113,128,0,47203:0:0:0:0:
469,192,47113,128,0,47203:0:0:0:0:
384,192,47113,128,0,47203:0:0:0:0:
298,192,47203,128,0,47292:0:0:0:0:
128,192,47203,128,0,47292:0:0:0:0:
42,192,47203,128,0,47292:0:0:0:0:
213,192,47292,128,0,47471:0:0:0:0:
469,192,47292,128,0,47381:0:0:0:0:
384,192,47292,128,0,47381:0:0:0:0:
298,192,47381,128,0,47471:0:0:0:0:
128,192,47471,128,0,47560:0:0:0:0:
469,192,47471,128,0,47649:0:0:0:0:
42,192,47471,128,0,47560:0:0:0:0:
213,192,47560,128,0,47649:0:0:0:0:
128,192,47649,128,0,47738:0:0:0:0:
298,192,47649,128,0,47828:0:0:0:0:
384,192,47649,128,0,47738:0:0:0:0:
42,192,47738,128,0,47828:0:0:0:0:
213,192,47828,128,0,47917:0:0:0:0:
469,192,47828,128,0,48006:0:0:0:0:
384,192,47828,128,0,47917:0:0:0:0:
128,192,47917,128,0,48006:0:0:0:0:
298,192,48006,128,0,48096:0:0:0:0:
42,192,48006,128,0,48096:0:0:0:0:
384,192,48006,128,0,48185:0:0:0:0:
213,192,48096,128,0,48185:0:0:0:0:
469,192,48185,128,0,48363:0:0:0:0:
128,192,48185,128,0,48274:0:0:0:0:
42,192,48185,128,0,48274:0:0:0:0:
384,192,48274,128,0,48363:0:0:0:0:
298,192,48363,128,0,48453:0:0:0:0:
213,192,48363,128,0,48453:0:0:0:0:
42,192,48363,128,0,48542:0:0:0:0:
469,192,48453,128,0,48542:0:0:0:0:
384,192,48542,128,0,48631:0:0:0:0:
298,192,48542,128,0,48631:0:0:0:0:
128,192,48542,128,0,48631:0:0:0:0:
213,192,48631,128,0,48721:0:0:0:0:
42,192,48721,1,0,0:0:0:0:
128,192,48721,1,0,0:0:0:0:
469,192,48810,128,0,48988:0:0:0:0:
384,192,48810,128,0,48988:0:0:0:0:
42,192,48810,128,0,48899:0:0:0:0:
128,192,48810,128,0,48899:0:0:0:0:
213,192,48810,128,0,48899:0:0:0:0:
298,192,48810,128,0,48899:0:0:0:0:
298,192,48988,128,0,49078:0:0:0:0:
213,192,48988,128,0,49078:0:0:0:0:
128,192,48988,128,0,49078:0:0:0:0:
42,192,48988,128,0,49078:0:0:0:0:
42,192,49167,128,0,49256:0:0:0:0:
298,192,49167,128,0,49256:0:0:0:0:
384,192,49167,128,0,49256:0:0:0:0:
469,192,49167,128,0,49256:0:0:0:0:
213,192,49167,128,0,49435:0:0:0:0:
128,192,49167,128,0,49435:0:0:0:0:
42,192,49346,128,0,49435:0:0:0:0:
298,192,49346,128,0,49435:0:0:0:0:
384,192,49346,128,0,49435:0:0:0:0:
469,192,49346,128,0,49435:0:0:0:0:
298,192,49524,128,0,49792:0:0:0:0:
384,192,49524,128,0,49792:0:0:0:0:
42,192,49524,128,0,49613:0:0:0:0:
128,192,49524,128,0,49613:0:0:0:0:
469,192,49524,128,0,49613:0:0:0:0:
213,192,49613,128,0,49703:0:0:0:0:
469,192,49703,128,0,49792:0:0:0:0:
42,192,49703,128,0,49792:0:0:0:0:
128,192,49703,128,0,49792:0:0:0:0:
213,192,49792,128,0,49881:0:0:0:0:
42,192,49881,128,0,50149:0:0:0:0:
128,192,49881,128,0,50149:0:0:0:0:
298,192,49881,128,0,49971:0:0:0:0:
384,192,49881,128,0,49971:0:0:0:0:
469,192,49881,128,0,49971:0:0:0:0:
213,192,49971,128,0,50060:0:0:0:0:
298,192,50060,128,0,50149:0:0:0:0:
384,192,50060,128,0,50149:0:0:0:0:
469,192,50060,128,0,50149:0:0:0:0:
213,192,50149,128,0,50238:0:0:0:0:
298,192,50238,128,0,50328:0:0:0:0:
384,192,50238,128,0,50328:0:0:0:0:
469,192,50238,128,0,50328:0:0:0:0:
42,192,50328,128,0,50506:0:0:0:0:
128,192,50328,128,0,50417:0:0:0:0:
298,192,50417,128,0,50596:0:0:0:0:
213,192,50417,128,0,50506:0:0:0:0:
384,192,50417,128,0,50506:0:0:0:0:
469,192,50417,128,0,50506:0:0:0:0:
128,192,50506,128,0,50596:0:0:0:0:
213,192,50596,128,0,50685:0:0:0:0:
469,192,50596,128,0,50685:0:0:0:0:
384,192,50596,128,0,50774:0:0:0:0:
128,192,50685,128,0,50774:0:0:0:0:
213,192,50774,128,0,50863:0:0:0:0:
42,192,50774,128,0,50953:0:0:0:0:
469,192,50774,128,0,50953:0:0:0:0:
298,192,50863,128,0,50953:0:0:0:0:
384,192,50953,128,0,51042:0:0:0:0:
128,192,50953,128,0,51042:0:0:0:0:
213,192,50953,128,0,51131:0:0:0:0:
298,192,51042,128,0,51131:0:0:0:0:
384,192,51131,128,0,51221:0:0:0:0:
128,192,51131,128,0,51221:0:0:0:0:
42,192,51131,128,0,51310:0:0:0:0:
469,192,51221,128,0,51310:0:0:0:0:
213,192,51310,128,0,51488:0:0:0:0:
128,192,51310,128,0,51399:0:0:0:0:
384,192,51310,128,0,51399:0:0:0:0:
298,192,51399,128,0,51488:0:0:0:0:
384,192,51488,128,0,51578:0:0:0:0:
128,192,51488,128,0,51578:0:0:0:0:
42,192,51488,128,0,51667:0:0:0:0:
469,192,51578,128,0,51667:0:0:0:0:
298,192,51667,128,0,51756:0:0:0:0:
213,192,51667,128,0,51756:0:0:0:0:
128,192,51667,128,0,51846:0:0:0:0:
384,192,51756,128,0,51846:0:0:0:0:
469,192,51846,128,0,52024:0:0:0:0:
213,192,51846,128,0,51935:0:0:0:0:
42,192,51846,128,0,51935:0:0:0:0:
298,192,51935,128,0,52024:0:0:0:0:
128,192,52024,128,0,52113:0:0:0:0:
42,192,52024,128,0,52113:0:0:0:0:
384,192,52024,128,0,52203:0:0:0:0:
213,192,52113,128,0,52203:0:0:0:0:
298,192,52203,128,0,52381:0:0:0:0:
469,192,52203,128,0,52292:0:0:0:0:
42,192,52203,128,0,52292:0:0:0:0:
128,192,52292,128,0,52381:0:0:0:0:
213,192,52381,128,0,52560:0:0:0:0:
469,192,52381,128,0,52471:0:0:0:0:
384,192,52381,128,0,52471:0:0:0:0:
42,192,52471,128,0,52560:0:0:0:0:
128,192,52560,128,0,52649:0:0:0:0:
298,192,52560,128,0,52649:0:0:0:0:
384,192,52560,128,0,52649:0:0:0:0:
213,192,52649,128,0,52738:0:0:0:0:
469,192,52649,128,0,52917:0:0:0:0:
42,192,52738,128,0,52828:0:0:0:0:
128,192,52738,128,0,52828:0:0:0:0:
384,192,52738,128,0,52917:0:0:0:0:
213,192,52828,128,0,52917:0:0:0:0:
298,192,52917,128,0,53006:0:0:0:0:
42,192,52917,128,0,53006:0:0:0:0:
128,192,52917,128,0,53006:0:0:0:0:
213,192,53006,128,0,53096:0:0:0:0:
384,192,53006,128,0,53096:0:0:0:0:
469,192,53006,128,0,53096:0:0:0:0:
298,192,53096,128,0,53274:0:0:0:0:
42,192,53096,128,0,53185:0:0:0:0:
128,192,53096,128,0,53185:0:0:0:0:
213,192,53185,128,0,53274:0:0:0:0:
384,192,53274,128,0,53363:0:0:0:0:
42,192,53274,128,0,53453:0:0:0:0:
469,192,53274,128,0,53363:0:0:0:0:
298,192,53363,128,0,53453:0:0:0:0:
384,192,53453,128,0,53542:0:0:0:0:
213,192,53453,128,0,53631:0:0:0:0:
128,192,53453,128,0,53542:0:0:0:0:
469,192,53542,128,0,53631:0:0:0:0:
298,192,53631,128,0,53721:0:0:0:0:
42,192,53631,128,0,53721:0:0:0:0:
128,192,53631,128,0,53721:0:0:0:0:
384,192,53721,128,0,53810:0:0:0:0:
213,192,53810,128,0,53899:0:0:0:0:
469,192,53810,128,0,53899:0:0:0:0:
128,192,53810,128,0,53899:0:0:0:0:
298,192,53899,128,0,53988:0:0:0:0:
42,192,53988,128,0,54078:0:0:0:0:
384,192,53988,128,0,54078:0:0:0:0:
469,192,53988,128,0,54078:0:0:0:0:
128,192,54078,128,0,54167:0:0:0:0:
213,192,54167,128,0,54256:0:0:0:0:
298,192,54167,128,0,54256:0:0:0:0:
469,192,54167,128,0,54256:0:0:0:0:
42,192,54256,128,0,54346:0:0:0:0:
128,192,54346,128,0,54435:0:0:0:0:
213,192,54346,128,0,54435:0:0:0:0:
384,192,54346,128,0,54435:0:0:0:0:
469,192,54435,128,0,54524:0:0:0:0:
42,192,54524,128,0,54613:0:0:0:0:
128,192,54524,128,0,54613:0:0:0:0:
298,192,54524,128,0,54613:0:0:0:0:
384,192,54613,128,0,54703:0:0:0:0:
298,192,54703,128,0,54792:0:0:0:0:
42,192,54703,1,0,0:0:0:0:
128,192,54703,1,0,0:0:0:0:
213,192,54703,1,0,0:0:0:0:
42,192,54792,1,0,0:0:0:0:
128,192,54792,1,0,0:0:0:0:
213,192,54792,1,0,0:0:0:0:
384,192,54792,128,0,54881:0:0:0:0:
213,192,54881,1,0,0:0:0:0:
128,192,54881,1,0,0:0:0:0:
42,192,54881,1,0,0:0:0:0:
469,192,54881,128,0,54971:0:0:0:0:
298,192,54881,128,0,54971:0:0:0:0:
42,192,54971,1,0,0:0:0:0:
213,192,54971,1,0,0:0:0:0:
128,192,54971,1,0,0:0:0:0:
384,192,54971,128,0,55060:0:0:0:0:
213,192,55060,1,0,0:0:0:0:
128,192,55060,1,0,0:0:0:0:
42,192,55060,1,0,0:0:0:0:
469,192,55060,128,0,55149:0:0:0:0:
213,192,55149,1,0,0:0:0:0:
128,192,55149,1,0,0:0:0:0:
42,192,55149,1,0,0:0:0:0:
298,192,55149,128,0,55238:0:0:0:0:
384,192,55238,128,0,55328:0:0:0:0:
469,192,55238,128,0,55328:0:0:0:0:
42,192,55238,1,0,0:0:0:0:
128,192,55238,1,0,0:0:0:0:
213,192,55238,1,0,0:0:0:0:
42,192,55328,1,0,0:0:0:0:
128,192,55328,1,0,0:0:0:0:
213,192,55328,1,0,0:0:0:0:
298,192,55328,128,0,55417:0:0:0:0:
42,192,55417,1,0,0:0:0:0:
128,192,55417,1,0,0:0:0:0:
213,192,55417,1,0,0:0:0:0:
384,192,55417,128,0,55506:0:0:0:0:
42,192,55506,1,0,0:0:0:0:
128,192,55506,1,0,0:0:0:0:
213,192,55506,1,0,0:0:0:0:
469,192,55506,128,0,55596:0:0:0:0:
42,192,55596,1,0,0:0:0:0:
128,192,55596,1,0,0:0:0:0:
213,192,55596,1,0,0:0:0:0:
298,192,55596,128,0,55685:0:0:0:0:
384,192,55596,128,0,55685:0:0:0:0:
42,192,55685,1,0,0:0:0:0:
128,192,55685,1,0,0:0:0:0:
213,192,55685,1,0,0:0:0:0:
469,192,55685,128,0,55774:0:0:0:0:
42,192,55774,1,0,0:0:0:0:
128,192,55774,1,0,0:0:0:0:
213,192,55774,1,0,0:0:0:0:
298,192,55774,128,0,55863:0:0:0:0:
42,192,55863,128,0,55953:0:0:0:0:
384,192,55863,128,0,55953:0:0:0:0:
469,192,55863,128,0,55953:0:0:0:0:
128,192,55953,128,0,56042:0:0:0:0:
213,192,56042,128,0,56131:0:0:0:0:
469,192,56042,128,0,56131:0:0:0:0:
298,192,56131,128,0,56221:0:0:0:0:
42,192,56221,128,0,56310:0:0:0:0:
384,192,56221,128,0,56310:0:0:0:0:
128,192,56310,128,0,56399:0:0:0:0:
213,192,56399,128,0,56488:0:0:0:0:
384,192,56399,128,0,56488:0:0:0:0:
469,192,56399,128,0,56578:0:0:0:0:
42,192,56399,128,0,56578:0:0:0:0:
298,192,56488,128,0,56578:0:0:0:0:
384,192,56578,1,0,0:0:0:0:
42,192,56667,1,0,0:0:0:0:
128,192,56667,1,0,0:0:0:0:
213,192,56667,1,0,0:0:0:0:
298,192,56667,1,0,0:0:0:0:
384,192,56667,1,0,0:0:0:0:
469,192,56667,1,0,0:0:0:0:
