osu file format v14

[General]
AudioFilename: Gilanya Belanja di Bukalapak.mp3
AudioLeadIn: 0
PreviewTime: -1
Countdown: 0
SampleSet: None
StackLeniency: 0.2
Mode: 3
LetterboxInBreaks: 0
SpecialStyle: 0
WidescreenStoryboard: 0

[Editor]
DistanceSpacing: 0.8
BeatDivisor: 8
GridSize: 32
TimelineZoom: 3.499999

[Metadata]
Title:Sakit Jiwa (Bukalapak Ver.)
TitleUnicode:Sakit Jiwa (Bukalapak Ver.)
Artist:NTRL
ArtistUnicode:NTRL
Creator:dionzz99
Version:JADI GILA MAKIN GILA SAKIT JIWA
Source:YUTUB YUTUB LEBIH DARI TIPI BOOM
Tags:KALIAN SUCI AKU SUDAH GILAAA
BeatmapID:1153990
BeatmapSetID:544306

[Difficulty]
HPDrainRate:6
CircleSize:4
OverallDifficulty:6
ApproachRate:5
SliderMultiplier:1.4
SliderTickRate:1

[Events]
//Background and Video events
0,0,"664xauto-ceo-bukalapak-buka-bukaan-soal-sumber-pendapatan-bukalapakcom-1509227.jpg",0,0
Video,0,"Gilanya Belanja di Bukalapak.mp4"
//Break Periods
2,12939,14700
//Storyboard Layer 0 (Background)
//Storyboard Layer 1 (Fail)
//Storyboard Layer 2 (Pass)
//Storyboard Layer 3 (Foreground)
//Storyboard Sound Samples

[TimingPoints]
240,357.142857142857,4,1,0,25,1,0
12829,600000000,4,1,0,25,1,0
15329,6,4,1,0,25,1,0
15329,-10,4,1,0,25,0,0
15351,600000000,4,1,0,25,1,0
15418,357.142857142857,4,1,0,25,1,0
15418,-20,4,1,0,25,0,0
15429,-1000,4,1,0,25,0,0
15507,-20,4,1,0,25,0,0
15518,-1000,4,1,0,25,0,0
15596,-20,4,1,0,25,0,0
15607,-1000,4,1,0,25,0,0
15685,-20,4,1,0,25,0,0
15697,-1000,4,1,0,25,0,0
15775,-20,4,1,0,25,0,0
15786,-1000,4,1,0,25,0,0
15864,-20,4,1,0,25,0,0
15875,-1000,4,1,0,25,0,0
15900,357.142857142857,4,1,0,25,1,0
56614,-10,4,1,0,25,0,0
56658,-1000,4,1,0,25,0,0
56971,-500,4,1,0,25,0,0
57016,-333.333333333333,4,1,0,25,0,0
57060,-250,4,1,0,25,0,0
57105,-200,4,1,0,25,0,0
57149,-166.666666666667,4,1,0,25,0,0
57194,-142.857142857143,4,1,0,25,0,0
57239,-125,4,1,0,25,0,0
57283,-111.111111111111,4,1,0,25,0,0
57328,-100,4,1,0,25,0,0

[HitObjects]
448,192,240,5,0,0:0:0:0:
192,192,240,1,0,0:0:0:0:
64,192,240,1,0,0:0:0:0:
320,192,418,1,0,0:0:0:0:
192,192,507,1,0,0:0:0:0:
64,192,597,1,0,0:0:0:0:
448,192,597,1,0,0:0:0:0:
320,192,597,1,0,0:0:0:0:
192,192,775,1,0,0:0:0:0:
320,192,864,1,0,0:0:0:0:
448,192,954,1,0,0:0:0:0:
64,192,954,1,0,0:0:0:0:
192,192,954,1,0,0:0:0:0:
320,192,1132,1,0,0:0:0:0:
192,192,1222,1,0,0:0:0:0:
64,192,1311,1,0,0:0:0:0:
448,192,1311,1,0,0:0:0:0:
320,192,1311,1,0,0:0:0:0:
192,192,1489,1,0,0:0:0:0:
320,192,1579,1,0,0:0:0:0:
448,192,1668,1,0,0:0:0:0:
64,192,1668,1,0,0:0:0:0:
192,192,1668,1,0,0:0:0:0:
320,192,1847,1,0,0:0:0:0:
448,192,1847,1,0,0:0:0:0:
320,192,2204,1,0,0:0:0:0:
448,192,2204,1,0,0:0:0:0:
64,192,2382,1,0,0:0:0:0:
320,192,2561,1,0,0:0:0:0:
448,192,2561,1,0,0:0:0:0:
320,192,2918,1,0,0:0:0:0:
448,192,2918,1,0,0:0:0:0:
192,192,3097,1,0,0:0:0:0:
320,192,3275,1,0,0:0:0:0:
448,192,3275,1,0,0:0:0:0:
320,192,3632,1,0,0:0:0:0:
448,192,3632,1,0,0:0:0:0:
64,192,3811,1,0,0:0:0:0:
320,192,3989,1,0,0:0:0:0:
448,192,3989,1,0,0:0:0:0:
64,192,4168,1,0,0:0:0:0:
320,192,4168,1,0,0:0:0:0:
192,192,4347,1,0,0:0:0:0:
448,192,4347,1,0,0:0:0:0:
448,192,4525,1,0,0:0:0:0:
64,192,4525,1,0,0:0:0:0:
320,192,4525,1,0,0:0:0:0:
320,192,4704,1,0,0:0:0:0:
448,192,4704,1,0,0:0:0:0:
192,192,4704,1,0,0:0:0:0:
64,192,4882,1,0,0:0:0:0:
320,192,5061,1,0,0:0:0:0:
448,192,5061,1,0,0:0:0:0:
192,192,5061,1,0,0:0:0:0:
64,192,5239,1,0,0:0:0:0:
320,192,5418,1,0,0:0:0:0:
448,192,5418,1,0,0:0:0:0:
192,192,5418,1,0,0:0:0:0:
64,192,5597,1,0,0:0:0:0:
320,192,5775,1,0,0:0:0:0:
448,192,5775,1,0,0:0:0:0:
192,192,5775,1,0,0:0:0:0:
64,192,5954,1,0,0:0:0:0:
320,192,6132,1,0,0:0:0:0:
448,192,6132,1,0,0:0:0:0:
192,192,6132,1,0,0:0:0:0:
64,192,6311,1,0,0:0:0:0:
192,192,6489,1,0,0:0:0:0:
320,192,6489,1,0,0:0:0:0:
448,192,6489,1,0,0:0:0:0:
64,192,6668,1,0,0:0:0:0:
320,192,6847,1,0,0:0:0:0:
448,192,6847,1,0,0:0:0:0:
192,192,6847,1,0,0:0:0:0:
64,192,7025,1,0,0:0:0:0:
320,192,7204,1,0,0:0:0:0:
448,192,7204,1,0,0:0:0:0:
64,192,7204,1,0,0:0:0:0:
192,192,7382,1,0,0:0:0:0:
320,192,7561,1,0,0:0:0:0:
448,192,7561,1,0,0:0:0:0:
192,192,7561,1,0,0:0:0:0:
64,192,7739,1,0,0:0:0:0:
320,192,7918,1,0,0:0:0:0:
448,192,7918,1,0,0:0:0:0:
64,192,7918,1,0,0:0:0:0:
192,192,8097,1,0,0:0:0:0:
320,192,8275,1,0,0:0:0:0:
448,192,8275,1,0,0:0:0:0:
192,192,8275,1,0,0:0:0:0:
64,192,8454,1,0,0:0:0:0:
320,192,8632,1,0,0:0:0:0:
448,192,8632,1,0,0:0:0:0:
64,192,8632,1,0,0:0:0:0:
192,192,8811,1,0,0:0:0:0:
192,192,8989,1,0,0:0:0:0:
320,192,8989,1,0,0:0:0:0:
448,192,8989,1,0,0:0:0:0:
64,192,9168,1,0,0:0:0:0:
320,192,9347,1,0,0:0:0:0:
448,192,9347,1,0,0:0:0:0:
64,192,9347,1,0,0:0:0:0:
192,192,9525,1,0,0:0:0:0:
320,192,9704,1,0,0:0:0:0:
448,192,9704,1,0,0:0:0:0:
192,192,9704,1,0,0:0:0:0:
64,192,9882,1,0,0:0:0:0:
320,192,10061,1,0,0:0:0:0:
448,192,10061,1,0,0:0:0:0:
192,192,10061,1,0,0:0:0:0:
192,192,10239,1,0,0:0:0:0:
64,192,10239,1,0,0:0:0:0:
320,192,10239,1,0,0:0:0:0:
192,192,10418,1,0,0:0:0:0:
64,192,10418,1,0,0:0:0:0:
448,192,10418,1,0,0:0:0:0:
320,192,10597,1,0,0:0:0:0:
448,192,10775,1,0,0:0:0:0:
192,192,10775,1,0,0:0:0:0:
64,192,10775,1,0,0:0:0:0:
320,192,10954,1,0,0:0:0:0:
448,192,11132,1,0,0:0:0:0:
64,192,11132,1,0,0:0:0:0:
192,192,11132,1,0,0:0:0:0:
320,192,11311,1,0,0:0:0:0:
448,192,11489,1,0,0:0:0:0:
192,192,11489,1,0,0:0:0:0:
64,192,11489,1,0,0:0:0:0:
320,192,11668,1,0,0:0:0:0:
192,192,11668,1,0,0:0:0:0:
320,192,11847,1,0,0:0:0:0:
448,192,11847,1,0,0:0:0:0:
192,192,11936,1,0,0:0:0:0:
64,192,11936,1,0,0:0:0:0:
448,192,12025,1,0,0:0:0:0:
320,192,12025,1,0,0:0:0:0:
192,192,12114,1,0,0:0:0:0:
64,192,12114,1,0,0:0:0:0:
320,192,12204,1,0,0:0:0:0:
448,192,12204,1,0,0:0:0:0:
192,192,12293,1,0,0:0:0:0:
64,192,12293,1,0,0:0:0:0:
320,192,12382,1,0,0:0:0:0:
448,192,12382,1,0,0:0:0:0:
192,192,12472,1,0,0:0:0:0:
320,192,12561,1,0,0:0:0:0:
192,192,12650,1,0,0:0:0:0:
320,192,12739,1,0,0:0:0:0:
448,192,15900,5,0,0:0:0:0:
320,192,15900,1,0,0:0:0:0:
64,192,15900,1,0,0:0:0:0:
192,192,16078,1,0,0:0:0:0:
64,192,16078,1,0,0:0:0:0:
448,192,16078,1,0,0:0:0:0:
448,192,16346,1,0,0:0:0:0:
320,192,16435,1,0,0:0:0:0:
192,192,16435,1,0,0:0:0:0:
64,192,16435,1,0,0:0:0:0:
448,192,16614,1,0,0:0:0:0:
64,192,16614,1,0,0:0:0:0:
192,192,16792,1,0,0:0:0:0:
320,192,16792,1,0,0:0:0:0:
448,192,16792,1,0,0:0:0:0:
64,192,16971,1,0,0:0:0:0:
320,192,17060,1,0,0:0:0:0:
64,192,17150,1,0,0:0:0:0:
192,192,17150,1,0,0:0:0:0:
448,192,17150,1,0,0:0:0:0:
320,192,17328,1,0,0:0:0:0:
192,192,17328,1,0,0:0:0:0:
64,192,17507,1,0,0:0:0:0:
320,192,17507,1,0,0:0:0:0:
448,192,17507,1,0,0:0:0:0:
192,192,17685,1,0,0:0:0:0:
64,192,17864,1,0,0:0:0:0:
192,192,17864,1,0,0:0:0:0:
320,192,17864,1,0,0:0:0:0:
448,192,18042,1,0,0:0:0:0:
64,192,18042,1,0,0:0:0:0:
192,192,18221,1,0,0:0:0:0:
320,192,18221,1,0,0:0:0:0:
448,192,18221,1,0,0:0:0:0:
64,192,18400,1,0,0:0:0:0:
320,192,18489,1,0,0:0:0:0:
64,192,18578,1,0,0:0:0:0:
192,192,18578,1,0,0:0:0:0:
448,192,18578,1,0,0:0:0:0:
320,192,18757,1,0,0:0:0:0:
64,192,18757,1,0,0:0:0:0:
192,192,18935,1,0,0:0:0:0:
320,192,18935,1,0,0:0:0:0:
448,192,18935,1,0,0:0:0:0:
64,192,19114,1,0,0:0:0:0:
320,192,19203,1,0,0:0:0:0:
192,192,19292,1,0,0:0:0:0:
64,192,19292,1,0,0:0:0:0:
448,192,19292,1,0,0:0:0:0:
448,192,19471,1,0,0:0:0:0:
320,192,19471,1,0,0:0:0:0:
192,192,19650,1,0,0:0:0:0:
320,192,19650,1,0,0:0:0:0:
448,192,19650,1,0,0:0:0:0:
64,192,19828,1,0,0:0:0:0:
64,192,20007,1,0,0:0:0:0:
192,192,20007,1,0,0:0:0:0:
320,192,20007,1,0,0:0:0:0:
320,192,20185,1,0,0:0:0:0:
64,192,20364,1,0,0:0:0:0:
192,192,20364,1,0,0:0:0:0:
448,192,20364,1,0,0:0:0:0:
320,192,20453,1,0,0:0:0:0:
192,192,20542,1,0,0:0:0:0:
64,192,20632,1,0,0:0:0:0:
192,192,20721,1,0,0:0:0:0:
320,192,20721,1,0,0:0:0:0:
448,192,20721,1,0,0:0:0:0:
64,192,20810,1,0,0:0:0:0:
320,192,20900,1,0,0:0:0:0:
192,192,20989,1,0,0:0:0:0:
64,192,21078,1,0,0:0:0:0:
320,192,21078,1,0,0:0:0:0:
448,192,21078,1,0,0:0:0:0:
192,192,21167,1,0,0:0:0:0:
448,192,21257,1,0,0:0:0:0:
320,192,21346,1,0,0:0:0:0:
64,192,21435,1,0,0:0:0:0:
192,192,21435,1,0,0:0:0:0:
448,192,21435,1,0,0:0:0:0:
320,192,21524,1,0,0:0:0:0:
192,192,21614,1,0,0:0:0:0:
64,192,21792,1,0,0:0:0:0:
448,192,21792,1,0,0:0:0:0:
320,192,21792,1,0,0:0:0:0:
64,192,22060,1,0,0:0:0:0:
192,192,22149,1,0,0:0:0:0:
320,192,22149,1,0,0:0:0:0:
448,192,22149,1,0,0:0:0:0:
320,192,22328,1,0,0:0:0:0:
192,192,22328,1,0,0:0:0:0:
192,192,22507,1,0,0:0:0:0:
448,192,22507,1,0,0:0:0:0:
64,192,22507,1,0,0:0:0:0:
320,192,22685,1,0,0:0:0:0:
64,192,22774,1,0,0:0:0:0:
192,192,22864,1,0,0:0:0:0:
320,192,22864,1,0,0:0:0:0:
448,192,22864,1,0,0:0:0:0:
448,192,23042,1,0,0:0:0:0:
64,192,23221,1,0,0:0:0:0:
192,192,23221,1,0,0:0:0:0:
320,192,23221,1,0,0:0:0:0:
448,192,23399,1,0,0:0:0:0:
192,192,23489,1,0,0:0:0:0:
64,192,23578,1,0,0:0:0:0:
320,192,23578,1,0,0:0:0:0:
448,192,23578,1,0,0:0:0:0:
448,192,23757,1,0,0:0:0:0:
64,192,23757,1,0,0:0:0:0:
192,192,23935,1,0,0:0:0:0:
320,192,23935,1,0,0:0:0:0:
448,192,23935,1,0,0:0:0:0:
64,192,24114,1,0,0:0:0:0:
320,192,24292,1,0,0:0:0:0:
192,192,24292,1,0,0:0:0:0:
64,192,24292,1,0,0:0:0:0:
448,192,24471,1,0,0:0:0:0:
192,192,24471,1,0,0:0:0:0:
64,192,24649,1,0,0:0:0:0:
192,192,24649,1,0,0:0:0:0:
448,192,24649,1,0,0:0:0:0:
320,192,24828,1,0,0:0:0:0:
64,192,24917,1,0,0:0:0:0:
192,192,25007,1,0,0:0:0:0:
320,192,25007,1,0,0:0:0:0:
448,192,25007,1,0,0:0:0:0:
448,192,25185,1,0,0:0:0:0:
64,192,25185,1,0,0:0:0:0:
64,192,25364,1,0,0:0:0:0:
320,192,25364,1,0,0:0:0:0:
448,192,25364,1,0,0:0:0:0:
192,192,25542,1,0,0:0:0:0:
448,192,25632,1,0,0:0:0:0:
64,192,25721,1,0,0:0:0:0:
192,192,25721,1,0,0:0:0:0:
320,192,25721,1,0,0:0:0:0:
448,192,25899,1,0,0:0:0:0:
320,192,25899,1,0,0:0:0:0:
64,192,26078,1,0,0:0:0:0:
192,192,26078,1,0,0:0:0:0:
448,192,26078,1,0,0:0:0:0:
64,192,26257,1,0,0:0:0:0:
320,192,26257,1,0,0:0:0:0:
192,192,26435,1,0,0:0:0:0:
320,192,26435,1,0,0:0:0:0:
448,192,26435,1,0,0:0:0:0:
448,192,26614,1,0,0:0:0:0:
64,192,26614,1,0,0:0:0:0:
192,192,26792,1,0,0:0:0:0:
64,192,26792,1,0,0:0:0:0:
320,192,26882,1,0,0:0:0:0:
448,192,26882,1,0,0:0:0:0:
192,192,26971,1,0,0:0:0:0:
64,192,26971,1,0,0:0:0:0:
320,192,27060,1,0,0:0:0:0:
448,192,27060,1,0,0:0:0:0:
192,192,27149,1,0,0:0:0:0:
64,192,27149,1,0,0:0:0:0:
320,192,27239,1,0,0:0:0:0:
448,192,27239,1,0,0:0:0:0:
192,192,27328,1,0,0:0:0:0:
64,192,27328,1,0,0:0:0:0:
192,192,27507,1,0,0:0:0:0:
320,192,27507,1,0,0:0:0:0:
320,192,27864,1,0,0:0:0:0:
448,192,27864,1,0,0:0:0:0:
320,192,28221,1,0,0:0:0:0:
192,192,28221,1,0,0:0:0:0:
192,192,28578,1,0,0:0:0:0:
64,192,28578,1,0,0:0:0:0:
192,192,28935,1,0,0:0:0:0:
320,192,28935,1,0,0:0:0:0:
320,192,29292,1,0,0:0:0:0:
448,192,29292,1,0,0:0:0:0:
448,192,29471,1,0,0:0:0:0:
64,192,29471,1,0,0:0:0:0:
192,192,29471,1,0,0:0:0:0:
320,192,29649,1,0,0:0:0:0:
192,192,29649,1,0,0:0:0:0:
448,192,29739,1,0,0:0:0:0:
320,192,29828,1,0,0:0:0:0:
448,192,29917,1,0,0:0:0:0:
192,192,30007,1,0,0:0:0:0:
64,192,30007,1,0,0:0:0:0:
320,192,30185,1,0,0:0:0:0:
448,192,30185,1,0,0:0:0:0:
64,192,30185,1,0,0:0:0:0:
192,192,30364,1,0,0:0:0:0:
320,192,30364,1,0,0:0:0:0:
320,192,30721,1,0,0:0:0:0:
448,192,30721,1,0,0:0:0:0:
320,192,31078,1,0,0:0:0:0:
192,192,31078,1,0,0:0:0:0:
192,192,31435,1,0,0:0:0:0:
64,192,31435,1,0,0:0:0:0:
448,192,31614,1,0,0:0:0:0:
64,192,31614,1,0,0:0:0:0:
320,192,31614,1,0,0:0:0:0:
64,192,31792,1,0,0:0:0:0:
448,192,31792,1,0,0:0:0:0:
320,192,31882,1,0,0:0:0:0:
192,192,31882,1,0,0:0:0:0:
64,192,31971,1,0,0:0:0:0:
448,192,31971,1,0,0:0:0:0:
320,192,32060,1,0,0:0:0:0:
192,192,32060,1,0,0:0:0:0:
448,192,32149,1,0,0:0:0:0:
64,192,32149,1,0,0:0:0:0:
192,192,32239,1,0,0:0:0:0:
320,192,32239,1,0,0:0:0:0:
448,192,32328,1,0,0:0:0:0:
192,192,32417,1,0,0:0:0:0:
64,192,32417,1,0,0:0:0:0:
320,192,32507,1,0,0:0:0:0:
448,192,32507,1,0,0:0:0:0:
192,192,32596,1,0,0:0:0:0:
64,192,32596,1,0,0:0:0:0:
320,192,32685,1,0,0:0:0:0:
448,192,32685,1,0,0:0:0:0:
192,192,32774,1,0,0:0:0:0:
64,192,32774,1,0,0:0:0:0:
320,192,32864,1,0,0:0:0:0:
448,192,32864,1,0,0:0:0:0:
192,192,32953,1,0,0:0:0:0:
64,192,32953,1,0,0:0:0:0:
320,192,33042,1,0,0:0:0:0:
448,192,33042,1,0,0:0:0:0:
192,192,33221,1,0,0:0:0:0:
64,192,33221,1,0,0:0:0:0:
448,192,33221,1,0,0:0:0:0:
448,192,33489,1,0,0:0:0:0:
192,192,33578,1,0,0:0:0:0:
64,192,33578,1,0,0:0:0:0:
320,192,33578,1,0,0:0:0:0:
448,192,33757,1,0,0:0:0:0:
64,192,33757,1,0,0:0:0:0:
64,192,33935,1,0,0:0:0:0:
320,192,33935,1,0,0:0:0:0:
448,192,33935,1,0,0:0:0:0:
64,192,34203,1,0,0:0:0:0:
192,192,34292,1,0,0:0:0:0:
320,192,34292,1,0,0:0:0:0:
448,192,34292,1,0,0:0:0:0:
448,192,34471,1,0,0:0:0:0:
64,192,34471,1,0,0:0:0:0:
64,192,34649,1,0,0:0:0:0:
192,192,34649,1,0,0:0:0:0:
320,192,34649,1,0,0:0:0:0:
448,192,34828,1,0,0:0:0:0:
320,192,34917,1,0,0:0:0:0:
64,192,35007,1,0,0:0:0:0:
192,192,35007,1,0,0:0:0:0:
448,192,35007,1,0,0:0:0:0:
320,192,35185,1,0,0:0:0:0:
64,192,35185,1,0,0:0:0:0:
192,192,35364,1,0,0:0:0:0:
320,192,35364,1,0,0:0:0:0:
448,192,35364,1,0,0:0:0:0:
64,192,35542,1,0,0:0:0:0:
320,192,35632,1,0,0:0:0:0:
64,192,35721,1,0,0:0:0:0:
192,192,35721,1,0,0:0:0:0:
448,192,35721,1,0,0:0:0:0:
320,192,35899,1,0,0:0:0:0:
192,192,35899,1,0,0:0:0:0:
64,192,36078,1,0,0:0:0:0:
320,192,36078,1,0,0:0:0:0:
448,192,36078,1,0,0:0:0:0:
448,192,36346,1,0,0:0:0:0:
64,192,36435,1,0,0:0:0:0:
192,192,36435,1,0,0:0:0:0:
320,192,36435,1,0,0:0:0:0:
192,192,36614,1,0,0:0:0:0:
64,192,36614,1,0,0:0:0:0:
192,192,36792,1,0,0:0:0:0:
320,192,36792,1,0,0:0:0:0:
448,192,36792,1,0,0:0:0:0:
448,192,36971,1,0,0:0:0:0:
320,192,37060,1,0,0:0:0:0:
64,192,37149,1,0,0:0:0:0:
192,192,37149,1,0,0:0:0:0:
448,192,37149,1,0,0:0:0:0:
320,192,37328,1,0,0:0:0:0:
192,192,37328,1,0,0:0:0:0:
64,192,37417,1,0,0:0:0:0:
192,192,37507,1,0,0:0:0:0:
448,192,37507,1,0,0:0:0:0:
320,192,37507,1,0,0:0:0:0:
64,192,37596,1,0,0:0:0:0:
192,192,37685,1,0,0:0:0:0:
448,192,37685,1,0,0:0:0:0:
320,192,37774,1,0,0:0:0:0:
192,192,37864,1,0,0:0:0:0:
64,192,37864,1,0,0:0:0:0:
448,192,37864,1,0,0:0:0:0:
320,192,37953,1,0,0:0:0:0:
64,192,38042,1,0,0:0:0:0:
448,192,38042,1,0,0:0:0:0:
192,192,38132,1,0,0:0:0:0:
64,192,38221,1,0,0:0:0:0:
320,192,38221,1,0,0:0:0:0:
448,192,38221,1,0,0:0:0:0:
192,192,38310,1,0,0:0:0:0:
320,192,38399,1,0,0:0:0:0:
448,192,38399,1,0,0:0:0:0:
64,192,38489,1,0,0:0:0:0:
192,192,38578,1,0,0:0:0:0:
320,192,38578,1,0,0:0:0:0:
448,192,38578,1,0,0:0:0:0:
64,192,38667,1,0,0:0:0:0:
192,192,38757,1,0,0:0:0:0:
320,192,38757,1,0,0:0:0:0:
448,192,38935,1,0,0:0:0:0:
64,192,38935,1,0,0:0:0:0:
192,192,38935,1,0,0:0:0:0:
64,192,39203,1,0,0:0:0:0:
192,192,39292,1,0,0:0:0:0:
320,192,39292,1,0,0:0:0:0:
448,192,39292,1,0,0:0:0:0:
448,192,39471,1,0,0:0:0:0:
64,192,39471,1,0,0:0:0:0:
64,192,39649,1,0,0:0:0:0:
192,192,39649,1,0,0:0:0:0:
448,192,39649,1,0,0:0:0:0:
192,192,39917,1,0,0:0:0:0:
64,192,40007,1,0,0:0:0:0:
448,192,40007,1,0,0:0:0:0:
320,192,40007,1,0,0:0:0:0:
448,192,40185,1,0,0:0:0:0:
192,192,40185,1,0,0:0:0:0:
192,192,40364,1,0,0:0:0:0:
320,192,40364,1,0,0:0:0:0:
448,192,40364,1,0,0:0:0:0:
64,192,40542,1,0,0:0:0:0:
320,192,40632,1,0,0:0:0:0:
64,192,40721,1,0,0:0:0:0:
192,192,40721,1,0,0:0:0:0:
448,192,40721,1,0,0:0:0:0:
320,192,40899,1,0,0:0:0:0:
192,192,40899,1,0,0:0:0:0:
64,192,41078,1,0,0:0:0:0:
320,192,41078,1,0,0:0:0:0:
448,192,41078,1,0,0:0:0:0:
192,192,41167,1,0,0:0:0:0:
320,192,41257,1,0,0:0:0:0:
64,192,41346,1,0,0:0:0:0:
192,192,41435,1,0,0:0:0:0:
320,192,41435,1,0,0:0:0:0:
448,192,41435,1,0,0:0:0:0:
448,192,41614,1,0,0:0:0:0:
64,192,41614,1,0,0:0:0:0:
64,192,41792,1,0,0:0:0:0:
192,192,41792,1,0,0:0:0:0:
448,192,41792,1,0,0:0:0:0:
320,192,41971,1,0,0:0:0:0:
192,192,42060,1,0,0:0:0:0:
64,192,42149,1,0,0:0:0:0:
320,192,42149,1,0,0:0:0:0:
448,192,42149,1,0,0:0:0:0:
192,192,42328,1,0,0:0:0:0:
64,192,42328,1,0,0:0:0:0:
192,192,42507,1,0,0:0:0:0:
320,192,42507,1,0,0:0:0:0:
448,192,42507,1,0,0:0:0:0:
448,192,42685,1,0,0:0:0:0:
64,192,42685,1,0,0:0:0:0:
64,192,42864,1,0,0:0:0:0:
192,192,42864,1,0,0:0:0:0:
320,192,42864,1,0,0:0:0:0:
448,192,43042,1,0,0:0:0:0:
64,192,43042,1,0,0:0:0:0:
320,192,43221,1,0,0:0:0:0:
448,192,43221,1,0,0:0:0:0:
192,192,43310,1,0,0:0:0:0:
64,192,43310,1,0,0:0:0:0:
320,192,43399,1,0,0:0:0:0:
448,192,43399,1,0,0:0:0:0:
192,192,43489,1,0,0:0:0:0:
64,192,43489,1,0,0:0:0:0:
320,192,43578,1,0,0:0:0:0:
448,192,43578,1,0,0:0:0:0:
192,192,43667,1,0,0:0:0:0:
64,192,43667,1,0,0:0:0:0:
320,192,43757,1,0,0:0:0:0:
448,192,43757,1,0,0:0:0:0:
192,192,43846,1,0,0:0:0:0:
320,192,43935,1,0,0:0:0:0:
192,192,44024,1,0,0:0:0:0:
320,192,44114,1,0,0:0:0:0:
192,192,44203,1,0,0:0:0:0:
320,192,44292,1,0,0:0:0:0:
192,192,44382,1,0,0:0:0:0:
448,192,44471,1,0,0:0:0:0:
64,192,44471,1,0,0:0:0:0:
320,192,44471,1,0,0:0:0:0:
192,192,44649,1,0,0:0:0:0:
320,192,44649,1,0,0:0:0:0:
448,192,44828,1,0,0:0:0:0:
320,192,44917,1,0,0:0:0:0:
192,192,45007,1,0,0:0:0:0:
64,192,45007,1,0,0:0:0:0:
64,192,45185,1,0,0:0:0:0:
192,192,45274,1,0,0:0:0:0:
320,192,45364,1,0,0:0:0:0:
448,192,45364,1,0,0:0:0:0:
448,192,45542,1,0,0:0:0:0:
320,192,45632,1,0,0:0:0:0:
192,192,45721,1,0,0:0:0:0:
64,192,45721,1,0,0:0:0:0:
64,192,45899,1,0,0:0:0:0:
192,192,45989,1,0,0:0:0:0:
320,192,46078,1,0,0:0:0:0:
448,192,46078,1,0,0:0:0:0:
448,192,46257,1,0,0:0:0:0:
320,192,46346,1,0,0:0:0:0:
192,192,46435,1,0,0:0:0:0:
64,192,46435,1,0,0:0:0:0:
64,192,46614,1,0,0:0:0:0:
192,192,46703,1,0,0:0:0:0:
320,192,46792,1,0,0:0:0:0:
448,192,46792,1,0,0:0:0:0:
448,192,46971,1,0,0:0:0:0:
320,192,47060,1,0,0:0:0:0:
192,192,47149,1,0,0:0:0:0:
64,192,47149,1,0,0:0:0:0:
64,192,47328,1,0,0:0:0:0:
192,192,47417,1,0,0:0:0:0:
320,192,47507,1,0,0:0:0:0:
448,192,47507,1,0,0:0:0:0:
448,192,47685,1,0,0:0:0:0:
320,192,47774,1,0,0:0:0:0:
192,192,47864,1,0,0:0:0:0:
64,192,47864,1,0,0:0:0:0:
64,192,48042,1,0,0:0:0:0:
192,192,48132,1,0,0:0:0:0:
320,192,48221,1,0,0:0:0:0:
448,192,48221,1,0,0:0:0:0:
448,192,48399,1,0,0:0:0:0:
320,192,48489,1,0,0:0:0:0:
192,192,48578,1,0,0:0:0:0:
64,192,48578,1,0,0:0:0:0:
448,192,48757,1,0,0:0:0:0:
320,192,48757,1,0,0:0:0:0:
64,192,48757,1,0,0:0:0:0:
320,192,48935,1,0,0:0:0:0:
192,192,48935,1,0,0:0:0:0:
192,192,49114,1,0,0:0:0:0:
64,192,49114,1,0,0:0:0:0:
448,192,49114,1,0,0:0:0:0:
320,192,49292,1,0,0:0:0:0:
192,192,49292,1,0,0:0:0:0:
320,192,49471,1,0,0:0:0:0:
448,192,49471,1,0,0:0:0:0:
64,192,49471,1,0,0:0:0:0:
192,192,49649,1,0,0:0:0:0:
64,192,49649,1,0,0:0:0:0:
448,192,49739,1,0,0:0:0:0:
320,192,49828,1,0,0:0:0:0:
192,192,49917,1,0,0:0:0:0:
64,192,50007,1,0,0:0:0:0:
448,192,50007,1,0,0:0:0:0:
320,192,50096,1,0,0:0:0:0:
192,192,50185,1,0,0:0:0:0:
64,192,50185,1,0,0:0:0:0:
320,192,50364,1,0,0:0:0:0:
448,192,50364,1,0,0:0:0:0:
64,192,50542,1,0,0:0:0:0:
192,192,50632,1,0,0:0:0:0:
320,192,50721,1,0,0:0:0:0:
448,192,50721,1,0,0:0:0:0:
448,192,50899,1,0,0:0:0:0:
320,192,50989,1,0,0:0:0:0:
192,192,51078,1,0,0:0:0:0:
64,192,51078,1,0,0:0:0:0:
64,192,51257,1,0,0:0:0:0:
192,192,51346,1,0,0:0:0:0:
320,192,51435,1,0,0:0:0:0:
448,192,51435,1,0,0:0:0:0:
448,192,51614,1,0,0:0:0:0:
320,192,51703,1,0,0:0:0:0:
192,192,51792,1,0,0:0:0:0:
64,192,51792,1,0,0:0:0:0:
64,192,51971,1,0,0:0:0:0:
192,192,52060,1,0,0:0:0:0:
320,192,52149,1,0,0:0:0:0:
448,192,52149,1,0,0:0:0:0:
448,192,52328,1,0,0:0:0:0:
320,192,52417,1,0,0:0:0:0:
192,192,52507,1,0,0:0:0:0:
64,192,52507,1,0,0:0:0:0:
64,192,52685,1,0,0:0:0:0:
192,192,52774,1,0,0:0:0:0:
320,192,52864,1,0,0:0:0:0:
448,192,52864,1,0,0:0:0:0:
448,192,53042,1,0,0:0:0:0:
320,192,53132,1,0,0:0:0:0:
192,192,53221,1,0,0:0:0:0:
64,192,53221,1,0,0:0:0:0:
64,192,53399,1,0,0:0:0:0:
192,192,53489,1,0,0:0:0:0:
320,192,53578,1,0,0:0:0:0:
448,192,53578,1,0,0:0:0:0:
448,192,53757,1,0,0:0:0:0:
320,192,53846,1,0,0:0:0:0:
192,192,53935,1,0,0:0:0:0:
64,192,53935,1,0,0:0:0:0:
64,192,54114,1,0,0:0:0:0:
192,192,54203,1,0,0:0:0:0:
448,192,54292,1,0,0:0:0:0:
320,192,54292,1,0,0:0:0:0:
448,192,54471,1,0,0:0:0:0:
320,192,54560,1,0,0:0:0:0:
192,192,54649,1,0,0:0:0:0:
64,192,54649,1,0,0:0:0:0:
64,192,54828,1,0,0:0:0:0:
192,192,54917,1,0,0:0:0:0:
320,192,55007,1,0,0:0:0:0:
448,192,55007,1,0,0:0:0:0:
192,192,55185,1,0,0:0:0:0:
64,192,55185,1,0,0:0:0:0:
320,192,55274,1,0,0:0:0:0:
448,192,55274,1,0,0:0:0:0:
192,192,55364,1,0,0:0:0:0:
64,192,55364,1,0,0:0:0:0:
320,192,55453,1,0,0:0:0:0:
448,192,55453,1,0,0:0:0:0:
192,192,55542,1,0,0:0:0:0:
64,192,55542,1,0,0:0:0:0:
320,192,55632,1,0,0:0:0:0:
448,192,55632,1,0,0:0:0:0:
192,192,55721,1,0,0:0:0:0:
64,192,55721,1,0,0:0:0:0:
320,192,55810,1,0,0:0:0:0:
448,192,55899,1,0,0:0:0:0:
64,192,55899,1,0,0:0:0:0:
192,192,55989,1,0,0:0:0:0:
320,192,55989,1,0,0:0:0:0:
448,192,56078,1,0,0:0:0:0:
64,192,56078,1,0,0:0:0:0:
192,192,56167,1,0,0:0:0:0:
320,192,56167,1,0,0:0:0:0:
448,192,56257,1,0,0:0:0:0:
64,192,56257,1,0,0:0:0:0:
192,192,56346,1,0,0:0:0:0:
320,192,56346,1,0,0:0:0:0:
448,192,56435,1,0,0:0:0:0:
64,192,56435,1,0,0:0:0:0:
192,192,56524,1,0,0:0:0:0:
320,192,56524,1,0,0:0:0:0:
448,192,56614,128,0,57328:0:0:0:0:
64,192,56614,128,0,57328:0:0:0:0:
